<?xml version="1.0" standalone="no"?>
<!DOCTYPE svg PUBLIC "-//W3C//DTD SVG 1.1//EN" "http://www.w3.org/Graphics/SVG/1.1/DTD/svg11.dtd" >
<svg xmlns="http://www.w3.org/2000/svg" xmlns:xlink="http://www.w3.org/1999/xlink" version="1.1">
<metadata></metadata>
<defs>
<font id="wc_mano_negra_btaregular" horiz-adv-x="919" >
<font-face units-per-em="2048" ascent="1638" descent="-410" />
<missing-glyph horiz-adv-x="612" />
<glyph horiz-adv-x="0" />
<glyph horiz-adv-x="682" />
<glyph unicode=" "  horiz-adv-x="612" />
<glyph unicode="&#x09;" horiz-adv-x="612" />
<glyph unicode="&#xa0;" horiz-adv-x="612" />
<glyph unicode="!" horiz-adv-x="681" d="M590 1425l37 -6l51 -39l8 -10v-37l-31 -127l-24 -76l-60 -151l-16 -4l-74 -180l-37 -119l-12 -12l-4 -2l8 -9l-12 -16l8 -10l-8 -23l-6 -10l-12 -23l-3 -12l-30 -51l-15 -64l-4 -45l-8 -41h-10l-8 -34l-23 -15l-10 4l-16 -8l-15 27l-10 86l2 94l31 178l37 168l53 180 l123 291l14 49l35 33zM195 258l61 -27h10l4 5v10l21 4l8 -19h8l15 -22l10 8l6 -4l16 -29l11 -20h4l6 10l8 -4l6 -10l19 -23l4 -4l-4 -14l8 -15h-8v-6h4l6 -26l-2 -33l-4 -25l-27 -14l-31 -8l-18 -25l-37 4h-8l-49 17l-52 32l-14 19l-18 4l4 6l-12 12v15l-33 18l-21 10l6 13 v10l9 10l-5 15l9 8h10l-8 14l12 6l-8 27l8 2l14 -2l2 2v8l17 19l14 10z" />
<glyph unicode="&#x22;" horiz-adv-x="481" d="M283 1096l16 -2l20 -13l5 -12l8 -4l4 -12l-19 -43l-2 -17l-14 -45l-16 -55l-21 -64l-2 -2l-4 -16l-8 -27l-8 -10l-6 -24l-7 -33l-8 -19l-4 -2l2 -18l4 -4l8 2v-6l-6 -6v-11l-4 -2l-2 -6l-24 -2l-2 -4l-5 2l-16 -8h-6l-14 26l-11 46l-4 63l17 96l26 80l29 72l33 55l12 16 l14 7l4 -2zM440 1081l23 -2l6 -2l8 -6l8 2l15 -16l10 -21l-2 -12l-6 -16l-8 -29l-5 -6l-6 -25l-2 -10l-20 -55l-10 -21h-7l-6 -16l-22 -68l-2 -12l-8 -2l-13 -37l-10 -14l-6 -2l2 -11l-2 -4l6 -8l-6 -10l2 -6l-4 -15l-2 -6l2 -16l-6 -14l-19 -3l-22 19l-6 31l-3 55l3 61 l6 35l28 103l9 22l8 29l39 94l10 6z" />
<glyph unicode="#" horiz-adv-x="1818" d="M1630 924q19 -32 19 -45t-27 -13q-5 0 -15 1t-14 1q-28 0 -86.5 -7t-145.5 -18.5t-142 -17.5q-5 0 -28.5 -48t-23.5 -58q0 -7 -11 -20t-13 -17l-4 -27q-11 -22 -11 -26q0 -21 85 -21h12h28q15 1 50.5 5t66.5 6t60 2q26 0 57 -9.5t43 -9.5l18 -12q18 -12 36 -29t18 -26 q0 -20 -295 -62q-9 -1 -42.5 -4.5t-56 -6.5t-55 -12.5t-52.5 -22.5t-35 -37t-15 -56q0 -23 4.5 -43.5t13 -45.5t10.5 -34l6 -25q17 -51 17 -61q0 -12 -51 -12q-63 0 -97 22q-18 11 -34.5 60t-16.5 71q0 4 1 12.5t1 12.5q0 18 -10 47t-27 29h-6q-11 -5 -40 -9.5t-52.5 -9.5 t-43 -25.5t-19.5 -56.5q0 -7 5 -21.5t5 -21.5q0 -2 -1 -7t-1 -7q0 -6 4 -10t4 -9q0 -6 -13.5 -21t-15.5 -26q-3 -17 -1.5 -34.5t-2.5 -34t-18 -21.5l-25 8q-4 0 -14.5 -6t-14.5 -6v8q-28 12 -28 39q0 7 3 24.5t3 26.5q0 28 -21 89q-2 2 -2 4q0 5 3.5 18.5t3.5 17.5q0 5 -7 5 t-29 -6.5t-28 -6.5q-3 0 -8 2t-8 2q-7 0 -24.5 -2t-24.5 -2q-41 0 -68 20t-27 60q0 34 21 55q12 18 44 33.5t69.5 25.5t73 17t59.5 11l24 4q1 2 2 47t2 47q0 1 7 14.5t12.5 28t5.5 22.5q0 12 -21.5 20.5t-42.5 8.5q-149 0 -223 -18q-7 0 -21.5 3t-21.5 3v47h6q6 25 17 43 t30.5 31t37.5 21t51 14t57 9t69 7q2 0 56.5 18.5t74.5 18.5h11q5 0 33 55t45 98l8 12q19 57 67 154q4 9 21 34t47.5 56t52.5 31q8 0 8 -21q-3 -14 -14 -55.5t-19.5 -80.5t-13.5 -77q-17 -43 -24 -141q0 -29 12 -29l17 4q75 15 85 23q13 12 25.5 49.5t17.5 46.5q1 3 8 13 t9 16q7 16 14 37t12 31q47 136 71 187q32 67 50 67q29 0 59.5 -39t30.5 -80q0 -39 -10 -62q-1 -1 -19 -50.5t-51 -98.5l-18 -28q-12 -24 -12 -40q0 -13 44 -25t87 -12q21 0 73 8.5t93 8.5q23 0 44 -15t21 -32zM1010 709q-2 2 -2 8q0 11 14 36t14 31q0 9 -12 9q-6 -2 -82 -13 l-76 -12q-23 -1 -43 -46t-20 -77q0 -18 2 -24q0 -3 -10.5 -38t-10.5 -38q3 -19 21 -19q6 0 25 5.5t30 5.5q4 0 12.5 -2.5t12.5 -2.5q52 0 69 12t17 36v30q0 9 19.5 39.5t19.5 55.5v4z" />
<glyph unicode="$" horiz-adv-x="884" d="M950 1092q1 -5 7 -34.5t9 -49t1 -19.5v2l-9 -24q-5 -15 -19 -19t-23 -0.5t-11 -1.5l2 -4q-12 -2 -45 -2q3 0 -2 1q-2 0 -10 2q-43 7 -43 11q0 6 -11.5 10t-26 6.5t-17.5 4.5q-6 -4 -25 -4t-31 4q-6 -1 -32 -5t-46 -9l-4 -5q-3 -139 -12 -233l-10 -115q-6 -66 -12 -157 q85 -62 155 -119q1 -2 16 -18t22.5 -25t21.5 -29.5t21.5 -38t13.5 -42.5t6 -50q0 -85 -29 -135l-70 -72q-22 -12 -71.5 -22t-100.5 -11v-39q0 -25 -1.5 -47.5t-3 -35.5t-1.5 -15q0 -8 2 -31.5t2 -25.5q0 -19 -13 -35t-36 -16q-22 0 -42.5 18t-20.5 39q0 15 3 33.5t3 19.5 q-2 51 -2 140q-5 1 -16.5 3t-16.5 3q-2 0 -19 1.5t-33.5 4.5t-31.5 8l-17 4q-17 3 -34 7.5t-33 11.5t-18 14l-15 -6q-3 1 -8 4t-6 4l-23 20h-8q-6 0 -10 2h-12q0 5 -2 5h-11q-1 1 -6 5t-8 5l-12 4v8q2 2 22 43l-4 4q0 6 12 19.5t39.5 27t59.5 13.5q23 0 51.5 -10.5 t32.5 -10.5h12q4 -1 19.5 -6.5t41 -13.5t58.5 -15q2 62 10 266q-76 47 -113 76l-28 35q-46 35 -65.5 71.5t-41.5 129.5q5 29 8 35q-1 2 -2 7.5t-2 8.5q17 77 54 186q0 16 23.5 41t23.5 33q5 7 10 20t24 29t70 49q48 35 74 50q4 140 4 147q0 15 -2 37t-2 33q0 30 9 43.5 t32 13.5q61 0 67 -61q2 -59 2 -170q16 5 17 6q24 9 77 17t76 13q7 0 11 -2q4 2 16 2q10 0 16 -2q4 2 11 2q6 0 8 -2l24 -10q16 -4 29.5 -13.5t22 -18.5t28.5 -33zM602 209l-37 20q-2 -59 -2 -188v-12h21q19 0 43 22.5t24 42.5h8l21 12l4 17v14l-10 17l-12 12l-25 22l-14 7z M414 575q36 -36 63 -57q3 71 9 196.5t8 172.5q-8 -7 -22 -22.5t-21 -22.5l-11 -15q-3 -4 -14 -18t-15.5 -21t-13 -22t-12 -27.5t-7 -31t-3.5 -39.5q0 -16 18.5 -52t20.5 -41z" />
<glyph unicode="%" horiz-adv-x="1107" d="M365 1112l28 -6l37 -21l19 -8l34 -26l6 -17l13 -12l4 -8l6 -27l6 -20l-4 -4l6 -11l-6 -4l14 -20h7v-49l8 -43l-11 -29l3 -8l-11 -17l-6 -8l-4 -16l2 -25l-10 -18l-21 -23l-24 -14l-23 -21l-12 5l-2 -7l-21 -4l-26 -6l-2 -4l-43 -12h-29v-6h-20l-4 4l4 6l-4 4l-17 -6 l-24 10l-23 4l-22 21l-21 14l-10 12l-31 35v2l-12 25l-6 26l-4 31l8 68l16 49l19 33l41 45l53 43l63 41zM961 1098h8l8 -15l-8 -20l6 -4l-14 -33l-5 -2v-2l-12 -18l-35 -41l-14 -13l-8 -10l-35 -55l-16 -21l-19 -26l-31 -37l-24 -41l-29 -41l-2 -4l-24 -29l-9 -16l-14 -17 l-12 -22l-35 -51v-5l-14 -12l-11 -14v-6l-12 -13l-4 -8l-12 -6l-11 -20l-22 -37l-21 -29l-10 -12l-18 -33l-31 -49l-18 -25l-11 -20l-16 -29l-6 -16l-25 -43l-53 -117l-16 -47l-21 -62l-16 -67v-12l-13 -25l-8 -23l2 -10l-6 -12l-10 2l-2 -8l-8 -6v-2l-17 -19l-6 4l8 72 l25 119l37 121l51 129l57 122l117 222l76 118l39 52l125 157l73 78l39 35l43 41zM838 510l4 -2l4 -8l8 8l8 -4v-4l10 -4l2 -9l13 -2l4 -14l49 -41l16 -12l-4 -17l11 2l6 -12l-4 -8l12 -18l4 -13v-39h-6l-2 -4l-8 -4l8 -41l12 -24l-10 -17l-4 -10l4 -8v-10l-10 -23l-9 -41 l-18 -20l-20 -19l-9 -10v-6h4v-8l-10 -9l-18 -16h-6l-11 -16l-28 -25l-43 -22l-23 -7l-8 -4v-2l-25 -6l-61 -20l-57 4l-33 18l-12 17l-17 2v8l-14 18l-4 2l-19 29l-6 35l-6 53l8 43l29 80l20 37l-20 8h-6l14 27l74 71l49 37l74 45l32 17h17l22 12zM395 948l-33 -53l-12 -14 l-41 -66l-24 -47l12 -6l47 12l27 14l18 46l8 63l4 51h-6zM823 348v-10l-20 -23l-15 -20v-6l-12 -6l-8 -19l-4 -2l-19 -26l-8 -7l-8 -20l-10 -6v-6l-6 -4l10 -9l-33 -14l6 -4v-4l-6 -4l-4 -21l-14 -8l-13 -37l-8 -8v-10l-6 -8l4 -3l56 17l53 43l43 49l30 66l5 57v12l-7 21v16 z" />
<glyph unicode="&#x26;" horiz-adv-x="1081" d="M905 1382q12 -4 37 -8l12 -8l15 -10q9 -11 22 -33q2 -7 8.5 -19.5t8.5 -17.5q0 -2 4.5 -8.5t7.5 -19.5t2 -37q-1 -9 -1 -17.5t-0.5 -14t-0.5 -9.5v-5v-1q1 -1 3 -4.5t3 -4.5q0 -29 -35 -94q13 -2 31 -20l14 -27h4q-3 -1 9 -25q2 -8 2 -18q0 -23 -2 -35q-15 -5 -25 -10 l-18 -18q-11 4 -21 0q-22 -4 -35 -13q-34 -10 -71 -28q8 -4 -16 -14q-7 -3 -32 -11q-2 -3 -61 -55q-6 -9 -21.5 -30t-23.5 -32q-4 -6 -4 -22q-2 -22 -10 -56q23 -7 67 -28q16 -4 19 -17l-4 -4v-2q-6 -3 -9 -14v-6q-1 -1 -3 -4t-3 -4l6 -15q-9 -6 -34 -31h-2q-8 -9 -11 -16 q1 -3 2 -9t2 -9q-1 -1 -3 -4.5t-3 -4.5v-6q5 -5 17 -8v-12q-11 -5 -11 -6q0 -23 15 -64q3 -15 10 -20q16 0 61 10q14 9 51.5 12.5t45.5 7.5l-4 -2q-1 -1 2 -2h18q13 0 59 -14q48 -9 48 -18q6 -2 12 -2h10q29 2 86 2l-12 -7q-9 -7 -133 -67q-34 -21 -49 -27 q-9 -3 -27.5 -12.5t-28.5 -13.5q-13 -8 -94 -41q-5 -14 -8 -37q-2 -4 -2 -15q1 -3 4 -8t4 -6q-2 -2 -2 -6q2 -10 14 -43q6 -24 31 -80q14 -14 16 -35q19 -15 19 -57q-2 -2 -2 -8v-19q-17 -21 -29 -26h-12q-20 -13 -62 -25q-1 -1 -2.5 -2l-4.5 -3t-5 -3q-13 13 -37 31 q-3 5 -13.5 18t-14.5 19q-17 39 -39 79q-10 7 -31 74q-18 58 -33 78q-8 -2 -41 -14l-2 -2q-13 -3 -29 -13q-2 -2 -6 -10q-4 -1 -12.5 -2t-13.5 -2q-1 -1 -4 -3.5t-5 -4.5q-47 -6 -98 -23l-35 -6h-18q-4 0 -8 -2q-16 0 -52 7.5t-45 10.5q-20 17 -45 31l-10 18q-10 17 -14 17 t-9.5 21.5t-9.5 21.5q-102 9 -102 119q0 71 172 203l33 28l223 129l4 13l-12 2l-10 -2l-23 -5l-8 -2l-23 2l-2 -6l-6 -2l-35 2l-26 2l-6 9l-2 24l-9 4l9 29q0 21 -5 41q-22 42 -22 168q0 47 37 71l71 33q26 10 73.5 61t78.5 64q3 3 32.5 18t33.5 19q17 21 44 29.5t50 29.5 q31 34 69 58q35 31 66 51q1 0 20.5 8t20.5 8q6 0 8 -2zM733 967q0 1 15 35.5t25.5 66t2.5 31.5q-34 0 -88.5 -35.5t-115.5 -84t-85 -62.5q-63 -34 -63 -50q0 -29 45 -71q54 -48 63 -62q38 35 93 78q30 36 41 47q41 41 59 84zM487 535q-6 -5 -17.5 -16t-18.5 -17 q-10 -3 -31 -15q-14 -11 -33 -27.5t-20 -17.5q-11 -9 -36 -28.5t-36 -28.5q-44 -30 -76 -59q0 -6 -37 -54q-1 -1 -2 -4.5t-2 -5.5v-12q0 -1 -3.5 -5.5t-4.5 -8.5q0 -20 17 -36t36 -16l19 -6q18 -6 22 -6q22 -4 37 -8q12 2 26.5 3.5t34.5 3.5t33 3q28 11 166 76q-7 9 -22 84 q-9 79 -21 88q-6 6 -16 55q-10 50 -15 58z" />
<glyph unicode="'" horiz-adv-x="307" d="M274 1071l23 -2l18 -14l19 -27l2 -31l-4 -39l-23 -96l-20 -63l-8 -21l-15 -26l-20 -43l-8 2l-2 -2l-5 -17l-2 -2l-8 2l-4 -12v-6l-12 -25l-4 -2l-11 -2l-28 -16l-2 -2l-13 18l-8 41l-2 49l8 66l15 63l20 60l41 84l25 39z" />
<glyph unicode="(" horiz-adv-x="819" d="M735 1468l27 -4l6 -2l23 -6l20 -12l8 -23l-6 -28l-6 -25l-25 -45l-34 -55l-48 -86l-36 -88l-56 -117l-22 -55l-47 -99l-23 -63l-14 -45l-17 -43l-24 -45l-10 -39l-17 -86l-6 -41l-8 -64v-141l6 -29l-6 -6l2 -22l12 -45l2 -37l19 -58l57 -112l33 -49v-9l80 -98v-24l6 -13 l-15 -24h-34l-7 -11l-16 7h-6l-12 4l-74 55l-35 37l-63 84l-39 61l-43 84l-23 80l-24 107l-11 137l4 102l13 113l39 145l49 162l51 119l90 170l70 102l55 74l64 61l49 39z" />
<glyph unicode=")" horiz-adv-x="770" d="M332 1448h43l41 -21l28 -24l25 -35l86 -154l49 -124l37 -134v-28l6 -31l21 -133v-51l4 -37l-6 -27l-11 -47v-41l-4 -12l-6 -49l-6 -31l-12 -23l4 -14l-6 -10l-15 -19l-14 -34l8 -9v-6l-20 -43l-13 -22l-24 -35l-15 -21l-18 -34l-16 -31l-39 -57l-4 -17l-25 -6h-6l-10 -25 l-35 -43l-43 -51l-70 -47l-20 -18l-64 -51l-26 -29l-33 -12l-17 -23l-18 -12l-35 -21l-4 58l2 18l29 90l74 135l122 168l54 97l41 90l32 98l23 76l16 90l2 86l-4 72l-16 108l-47 164l-47 141l-27 62l-10 47l-4 37l8 22l14 17h6z" />
<glyph unicode="*" horiz-adv-x="796" d="M653 1509q-6 -45 -45 -118q-37 -70 -47 -115q18 6 94 70q65 53 99 53q43 0 43 -41q0 -18 -70 -94q8 -2 19.5 -5t29.5 -8.5t31 -9.5q55 -15 55 -37q0 -67 -176 -67q-14 0 -63 2t-62 2q0 -47 70 -105q43 -37 43 -73q0 -22 -21 -56q-69 3 -118 49q-62 59 -103 74 q-40 -63 -125 -172q-77 50 -74 74q0 9 17 43q5 12 22 43q-147 -78 -192 -78q-40 0 -19 53q15 47 95 72q86 26 123 63q-20 8 -144 17q-109 9 -112 33q-6 31 18.5 46t81.5 15h115l-56 55q-30 41 -12 68q29 45 84 45q22 0 41 -8l20 -25q37 -3 121 -37q46 60 49 74q19 49 43 64 q15 9 95 34h30z" />
<glyph unicode="+" horiz-adv-x="972" d="M641 1180q14 -9 10 -43q-13 -30 -55 -125q-38 -80 -16 -281l239 39q44 0 63.5 -16.5t16.5 -53.5q0 -4 -8 -28q-27 -70 -80 -70q-50 0 -66 4q-39 3 -73 0q-142 -27 -160 -155q-2 -25 -2 -84q3 -67 0 -80q-18 -140 -104 -140q-19 0 -48 13q-81 33 -69 141q5 16 30 160 q9 43 -13.5 63t-69.5 15q-12 0 -53.5 -7.5t-57.5 -7.5q-68 0 -74 82q-3 99 103 125l223 37q23 7 26 74q-2 29 -2 145q0 44 2 64q7 63 45.5 110t112.5 84q5 -5 33 -26t47 -39z" />
<glyph unicode="," horiz-adv-x="450" d="M106 207l46 -6l104 -33l33 -16l30 -41l21 -56l-4 -57l-17 -43l-20 -41l-35 -29l-45 -55l-51 -33l-25 -24l-12 -11l-37 -36l-24 -13l-11 -12l-65 -33l-68 -43l-28 -8l-9 12l-24 17l94 116l74 107l39 43l34 45l15 39l-17 2l-28 -2l-56 12l-14 33v45l8 37l37 57l29 15z" />
<glyph unicode="-" horiz-adv-x="849" d="M485 469l72 2h160l37 -4l14 -8v-10l-29 -9l-2 -10l-10 -2l-29 -16l-4 -15l-22 -10l-27 -22l-53 -17l-31 -10l-6 -8l-31 10l-4 -8l-51 -27l-74 -18l-47 -11l-57 3l-51 -5l-70 9l-39 -9l-22 15v10l-17 18l-8 7l2 34l-4 15l20 37l9 12l39 12l63 6l127 17l74 8z" />
<glyph unicode="." horiz-adv-x="450" d="M98 258l62 -27h10l4 5v10l23 4l-9 -19l9 -10l2 -4l4 4v10h8l14 -22l11 8l8 -4l24 -49l13 10l6 -4l8 -10l18 -23l2 -4l-2 -14l6 -15h-6v-6h2l9 -26l-5 -33l5 -14l-11 4v-4l2 -11l-24 -14l-33 -8l-18 -25l-37 4h-6l-52 17l-51 32l-14 19l-19 4l5 6l-11 12v15l-32 18l-23 10 l4 13h4v10l6 10l-4 15l8 8h11l-6 14l10 6l-8 27l8 2l14 -2l4 2v8l15 19l14 10z" />
<glyph unicode="/" horiz-adv-x="837" d="M840 1417h28l35 -31l2 -24l-2 -25v-24l-33 -66l-55 -100l-65 -111l-45 -69l-56 -88l-243 -445l-11 -41l-20 -20l-56 -115l-20 -53l-12 -17l-27 -65l-18 -8l-13 -27l-57 -139l-20 -39l-21 -60l-14 -22h-6l-29 -35l-16 2l-21 10l-4 35l10 60l21 125l49 178l51 151l88 199 l105 211l135 242l106 159l109 148l51 57l45 31z" />
<glyph unicode="0" horiz-adv-x="1150" d="M1053 537q0 -11 -2 -29.5t-5.5 -50t-5.5 -56.5q-2 -6 -8.5 -33.5t-15 -51.5t-23.5 -50q-3 -13 -10 -24v-9l-14 -18q-23 -27 -33 -53q-2 -3 -18 -24.5t-25 -33.5l-45 -45q-40 -34 -135 -98q-55 -30 -142 -51q-7 -1 -20 -3l-34 -5h1q-41 0 -65 6q-7 0 -60 12q-3 1 -61 29 q-41 12 -123 74q-13 19 -53 69q-5 8 -20 35t-27 47q-9 17 -35 170q1 -11 3 3q3 24 3 85q0 16 12 70t12 69q10 37 50 154q6 19 65 133q15 29 45 72q3 17 15 37q-3 3 -3 6q0 4 5 24q73 64 84 72q102 61 116 61q30 0 97 31l94 39h47q24 -16 53 -26q24 -20 49 -35q30 -36 37 -45 q14 -34 47 -76q3 -13 23 -33l4 -12h-2q3 -23 43 -80q3 -6 9.5 -23.5t10.5 -25.5q5 -14 12 -36.5t17.5 -57t19.5 -62.5q11 -37 11 -151zM872 723q-2 4 -6 16q-1 1 -5 6.5t-12 16t-18 22.5q-11 21 -120 60q-17 7 -58 4q-40 -3 -55 0q-24 -28 -27 -35q-15 -16 -33.5 -25 t-37.5 -24q-30 -21 -37 -21q-11 0 -47 -45q-34 -51 -45 -57q-36 -21 -86 -127q-34 -73 -31 -197l2 -47q1 -7 5.5 -24.5t6.5 -26.5q30 -24 35 -29q26 -9 39 -18q4 -6 32.5 -4.5t28.5 -1.5q3 -6 13 -6t39 10q22 5 34 2q8 -2 52 27q38 32 57 32q57 0 117 84q35 47 102 138 q21 30 39 131q16 76 16 139z" />
<glyph unicode="1" horiz-adv-x="751" d="M844 1184v-25l-4 -24l-6 -29l-31 -76l-23 -43l-12 -6l6 -14l-12 -13l-43 -86l-21 -14l-6 -14l-4 -9q-8 -16 -14 -22q-2 -4 -7 -13.5t-8 -15.5l5 -18l-19 -47l-10 -13l-8 -26l-35 -62l-10 -36l-7 -21l-10 -18l-2 -2v-7q0 -4 -1 -9.5t-1 -8.5l-2 -14l-10 -49v-15l-19 -55 l-4 -31l-2 -29l-12 -4l6 -30h-8l4 -13l-31 -94l-8 -37l-8 -10q-1 -2 -2 -6.5t-2 -7.5l2 -6l-8 -19v-2q-1 -3 -3 -10t-3 -10l4 -4l-27 -82q0 -2 2 -4q-3 -15 -10 -29v-17l-6 -6l-17 -47l-12 -10l-23 -43l-14 -43l-12 -21l-10 -4l-4 9q-8 -15 -15 -15h-2q-12 -4 -14 -6 l-23 -20l-10 4q-12 -4 -25 -4q-28 4 -28 34l2 11q59 371 61 383q7 56 15.5 110.5t22 120t21 103.5t27 117.5t25 102.5t30 117.5t27.5 106.5q-25 -19 -56.5 -44.5t-44.5 -35.5t-34.5 -22.5t-43 -19t-52.5 -11.5q-7 -1 -45.5 -10.5t-57.5 -10.5q-49 7 -49 45q-1 34 33.5 74 t73.5 68l102 86q31 23 107.5 85t127.5 100.5t111 73t94 34.5q17 0 29 -3h8l17 -4l4 -2l6 -2l2 -2q27 -10 33 -39v-2l8 -4l27 -41l6 -37l-4 -20z" />
<glyph unicode="2" horiz-adv-x="1484" d="M1446 180q-33 -33 -23 -33q-12 0 -22 -2h-19q-6 0 -55 -6q-1 -1 -43 -4q-50 -8 -106 -14q-15 0 -23 -2l-4 -6h-37q-5 -1 -35 -11q5 0 -4 -2q-7 -2 -38 -10h-1h-1h-1h-1l-1 -1h-1h-1h-1l-1 -1h-1h-1q-28 -4 -53 -6q-204 -37 -322 -66q-42 -6 -153 -28q-37 -9 -136 -29 q-50 -12 -59 -12q-24 0 -76 14q-55 15 -55 25t-4 14l-8 4q0 8 2 12q-6 6 -6 19l-3 14q-1 15 -3 27v12q-3 18 -3 43q-2 6 -2 25q0 32 37 98q10 5 17 14q18 21 41 51q53 55 389 394q142 161 213 258l41 71q0 54 -23 54q-3 0 -5.5 7t-4.5 7q-63 0 -90 -2q-18 0 -64 -12l-12 -6 l-48 -16t-46 -15q-47 -29 -154 -76q-52 -3 -61 14q-24 16 -41 33q-7 30 -8 31q5 15 40.5 45.5t73.5 52.5q115 69 238 117q9 0 58 14.5t63 14.5h116q17 -3 93 -23q73 -46 73 -55q0 -8 11 -33q12 -21 8 -29q0 -26 -4 -59q0 -23 -2 -33q3 -18 0 -39q2 -25 -11 -86 q0 -22 -14 -65q-2 -10 -18 -52q-10 -15 -84 -114q-49 -42 -56 -49q-2 -3 -6.5 -11.5t-7.5 -13.5q-6 -2 -74 -76q-27 -16 -112 -108q-32 -22 -84 -68q-21 -28 -23 -31l-20 -20q-55 -55 -86 -92q-4 -2 -13 -9t-16 -10q-2 -4 -2 -10q85 13 98 14q23 0 47 3q14 7 17 8 q48 3 119 12q1 1 10 4q30 0 61 2q22 2 51 5t33 3q25 0 45 2l10 -4h62q1 1 3 1.5t5.5 1t5.5 1.5h60q12 -3 30 -6q12 3 39 6q99 11 123 11q40 0 72 -21q11 -4 28 -18l11 -6q22 -22 49 -52v-6z" />
<glyph unicode="3" horiz-adv-x="972" d="M598 1133l88 2l66 -15l49 -22l35 -33l38 -57l21 -33l4 -49l4 -54v-22l-14 -33l-29 -18l-49 -54l-35 -14l-41 -33l41 27l-22 -10l-6 -15l-41 -30l-13 -13l-39 -41l88 -24l93 -21l82 -77l24 -86l-16 -31l-6 -55v-50l-13 -18l-28 -23l-5 -12l-24 -16l-2 -15l-21 -12l-16 -8 l-18 -23l2 -4l-58 -28l-18 -15l-10 4l-17 -10l-37 -12l-20 -21l-47 -6l-39 -14l-64 -29l-53 -20l-24 -19l-13 4l-20 -6l-113 -45l-153 -61h-21l-41 -19l-12 4l-41 19l-23 -12l-18 -13l-31 15l10 16l-2 21l39 51l54 20l34 23l154 90l246 98l174 103l20 53l-22 65l-103 35 l-75 2l-41 10l-45 23l-41 27l18 36l20 48l15 4l16 24l33 37l141 117l8 6l62 72l29 47v24l-54 23l-69 -8l-49 -27l-117 -33l-82 -14l-64 24l-22 19l-6 31l6 28l43 49l53 27l156 76z" />
<glyph unicode="4" horiz-adv-x="1208" d="M686 1296h12l23 -20l20 -66l-10 -90l17 -14l-13 -64l-33 -133l-81 -288l20 4l43 18l45 8l47 23l88 24l15 7l26 6l131 30l47 13l125 26l113 21h14l8 -10l-2 -15l-16 -35l-37 -22v-31l-205 -76l-34 -18l-117 -47l-6 -12l-135 -52l-209 -88l-7 -14h-14l-22 -27l16 -24 l-23 -68l-34 -16l4 -23l-15 -63l-28 -105l-33 -123l-39 -104l-12 -49l-25 -55l-16 -29l-12 -45l-17 -29l-8 -4l-4 68l-14 -13v92l8 62l22 209l43 241v31l-59 -12l-39 12l-66 4l-63 27l-23 12l-26 25l-29 35l-4 49v47l29 90l67 182l84 221l58 187l10 4l49 43l18 6l17 -8 l16 -29l-6 -43l-45 -78l-25 -86l-86 -204l-22 -142v-67l6 -56l23 -18l81 10l95 23l73 297l78 258l49 125l11 36z" />
<glyph unicode="5" horiz-adv-x="1050" d="M1096 1176l-25 -39q-10 -9 -51 -33q-22 -17 -41 -25l-8 -4v-4l-10 -6q-3 -1 -6 -5t-4.5 -7.5t-2.5 -3.5q0 -11 -20 -31q-16 -2 -60 -2q-21 -3 -92 -6q-26 -3 -104 2q-35 4 -82 14q-21 -13 -49 -41q-21 -10 -54 -37q-6 -8 -36 -28q-29 -75 -74 -144q-7 -16 -27 -41 q-5 -9 18 -30t38 -21q8 0 49 -7t53 -7q45 -15 98 -33q60 -18 148 -90q19 -28 28 -39q1 -1 31 -55q0 -3 4 -27q21 -51 21 -80q0 -2 -4.5 -12.5t-4.5 -11.5q-1 -2 -9 -23t-13 -35q-6 -12 -27 -47q-4 -4 -26 -37l-52 -37l-67 -49q-23 -23 -49 -39q-9 -3 -31 -14 q-73 -46 -133 -61q-44 -13 -41 -15q-20 0 -29 6q-41 3 -125 37q-1 0 -5.5 3t-16.5 10t-25 14q-28 19 -28 24q0 8 8 13q-10 5 -13 16q0 -4 3 -4q-3 6 -7 12q-5 -9 -2 -24q-2 -3 2 -25l-4 -4q0 9 11 12v2l14 9l20 14q35 25 56 35q9 8 19.5 14.5t25.5 14t26 14.5q91 52 172 133 q9 10 39 38t47 46q0 1 2 6t2 6q0 6 9.5 36t9.5 36q0 19 -19 41q-62 35 -100 35q-5 0 -16.5 0.5t-33 1.5t-42.5 2q-72 6 -90 0q-6 0 -31.5 5t-30.5 5q-2 0 -39 26q-47 68 -47 91q0 32 50 127q12 18 83 149q-4 16 -4 33q1 1 4 14q-2 12 -2 45q0 9 25 51q47 73 47 97 q-18 18 -18 37q18 18 57 18l12 -2q8 2 33 2q5 -1 23 -4.5t30 -5.5q1 -1 4 -2t5 -2h26q1 -1 3 -2t3 -2h13q2 1 6 2t6 2q10 -1 35 -2t37 -2q6 0 8 2q10 -2 22 -2q2 2 8 2q9 0 11 -2q1 1 3 1.5t5.5 1t5.5 1.5q19 0 31 -2l59 6q33 2 80 5l45 3h14q16 0 46 7t32 7q6 0 40 -12.5 t40 -17.5q13 -13 16 -17q1 -4 4.5 -13t4.5 -13z" />
<glyph unicode="6" horiz-adv-x="888" d="M864 1368l27 -10l20 -10l4 -33l7 -17l-25 -26v-12l-14 -25l-35 -39l-21 -45l2 -10l-20 -23l6 -8l-27 -10l3 -13l-7 -8l-20 -26v-17l-8 -8l-13 4l-6 -8l-22 -10l-4 -19l-35 -39l-45 -55l-39 -57l-33 -35l-14 -31l-53 -80l22 -10l37 6l45 -14l12 -21h25l29 -12l38 -39 l15 -51h2l8 -22h16l2 -31l7 -2l-9 -13l15 -18l6 -53l10 -6v-33l-6 -6v-31l-2 -23l2 -28l-2 -15h-12l4 -30l-8 -15l4 -14l-15 -8v-41l-37 -27l-18 -45l-27 -16l-16 -23l-37 -34l-27 -23l-47 -31l-12 -20l-37 -17l-33 -8l-18 -18l-84 -29l-63 -2l-80 21l-31 14l-20 20l-41 56 l-5 14l-18 41l-18 82l-2 98l14 109l33 104l47 94v9l80 149l59 100l12 13l15 28l32 43l23 33l49 66l27 30l12 13l35 51l164 166l143 114zM432 522h-26l-19 -12l-14 4l-13 -25v-6l-14 -20l4 -8l-16 -13v-6l-12 -43l-9 -2l-14 -49l6 -10l-8 -13l-12 -43l-11 -26l7 -25l-17 -24 l8 -4v-29l-2 -74l17 -51l43 -12l49 24l65 56l60 57l26 53l21 84l-4 121l-19 53l-24 25l-12 10l-15 -2l-24 14z" />
<glyph unicode="7" horiz-adv-x="976" d="M758 1399q17 0 71 -21q51 -18 62 -32q20 -20 27.5 -27t7.5 -6q0 -74 2 -74q10 -41 10 -90q0 -36 -2 -59q2 -8 2 -25q0 -8 -2 -12q2 -2 2 -15q-4 -14 -13.5 -47t-15.5 -55v-12q-8 -19 -20 -62l-35 -94q-21 -28 -29 -66q-18 -28 -34 -65q3 -5 9.5 -16t10.5 -17 q0 -28 45 -31h33l10 -20q9 -47 10 -51q2 -2 2 -17q0 -17 -21 -46.5t-36 -35.5q-3 0 -17 -11t-18 -11q-3 0 -21.5 -8t-21.5 -8q-8 0 -12 2q-3 -1 -19 -5l-45 -20q-17 -11 -53 -23q-15 -9 -69 -28q-13 -30 -29 -60q-3 -5 -6 -22q-26 -68 -68 -164q-6 -18 -12 -27 q-17 -17 -19 -43q-9 -9 -10 -12l-12 -49q-9 -9 -10 -14q-22 -60 -52 -60q-4 0 -17 -8t-15 -8q-4 0 -4 2q-2 -2 -9 -2q-5 13 -2 29v14q0 3 21 92q11 45 72 223q-26 -3 -60 58q-35 63 -59 57q-4 0 -11.5 10t-11.5 10q-12 0 -12 123q0 12 5.5 19t14.5 6q12 0 125 45 q109 41 162 49q8 19 111 254q65 158 71 266l4 74q7 14 7 23q0 22 -25 22l-92 -18q-57 0 -246 -52q-9 -1 -22 -3.5t-31 -6.5t-29 -6q-8 -1 -34 -5t-44 -7q-15 0 -46.5 -2.5t-43.5 -3.5q-24 -15 -51 -15q-7 0 -22 30t-15 40q0 15 62 63q19 8 100 50q9 3 60.5 18.5t84.5 24.5 q60 25 330 86q27 8 70 8z" />
<glyph unicode="8" horiz-adv-x="1015" d="M1133 1069h24v-8l-24 -6l-9 -13l-32 -20h-17v-4l4 -8l-4 -21h4l54 -6v-8l-86 -25l-82 -30l-13 -5l-10 -12l-41 -16l-94 -53l-43 -31l-45 -27l-33 -33l-39 -30l-26 -27l-46 -29l-6 -26l-12 -4v-13l-22 -45l-5 -22l27 -25l88 -65l107 -101l57 -82l18 -30l19 -41l8 -33 l4 -47l-4 -27l-12 -8l-51 -51l-39 -25l-80 -55l-31 -16l-25 -9l-47 -24l-98 -27l-129 -14l-125 -10l-31 10h-32l-25 20l-33 15l-6 12l-31 66l7 32v29l12 61l55 144l21 39l24 63l90 160l-24 22l-45 50l-41 61l-17 51v33l21 51l24 39l93 100l135 111l180 111l78 41l37 12 l49 12l45 -10l28 -23l35 -63l-12 -25l-8 -12l6 -14l35 -6l4 10l35 10l6 -2l31 6l77 8l39 6l8 -2l13 9h39v-13l-13 -2zM594 250l-98 84l-82 65l-2 -2l-25 -37l-33 -59l-6 -31l-8 -8l-6 -24l-23 -43l-2 -17l-6 -16l-6 -17l12 -20l6 -27l52 -12h43l8 6h51l27 6l84 13l59 10 l33 22l-8 23l-11 18zM801 1018v8h-31l-27 4l-16 -4l-18 -6l-19 -2l-31 -12l-26 -19l-29 -18l-41 -25l-41 -37l-78 -67l-65 -62v-4l-19 -26l-8 -9l-14 -24l10 -23l31 -22l98 104l53 60l123 102l66 41h20v12z" />
<glyph unicode="9" horiz-adv-x="1015" d="M973 1210l12 -12q21 -24 21 -74q0 -20 -15 -88q-9 -63 -22 -82q0 -4 -15 -45q-19 -56 -22 -59q-11 -23 -12 -23q-3 -16 -13 -26q-23 -51 -37 -68l-18 -43v-6l-6 -4q-9 -37 -76 -195q-43 -99 -90 -178v-6q-45 -79 -68 -104q-54 -99 -94 -154q-39 -32 -33 -35q-1 0 -4 -6.5 t-7.5 -14t-8.5 -10.5l4 -8l-59 -59q-20 0 -23 16q-3 23 25 58q12 12 34 61q9 22 23.5 51.5t17.5 38.5q33 74 35 78q48 141 70 174q8 25 24 55q27 63 27 64q18 53 19 63q-1 1 -5 9q-25 -16 -45 -21q-33 -26 -49 -29q-15 -6 -51 -12q-6 0 -10 2q-40 -12 -82 -12h-94 q-18 4 -33 12q-2 -2 -12 -2q-7 2 -20 9t-19 10q-4 4 -10 7t-7 3q-24 11 -59 61q-23 31 -49 76q-29 71 -29 131v37l16 68q6 9 20.5 33t27 43t22.5 32q126 153 252 211q133 65 172 68q65 18 117 18q85 0 102 -14q23 -6 86 -52q29 -15 70 -47zM772 971q10 15 10 104 q0 31 -26.5 52.5t-59.5 21.5q-8 0 -141 -43q-10 -7 -23 -12q-29 -17 -43 -19q-28 -14 -122 -104q-25 -28 -76 -148q-23 -58 -28 -59q-3 0 -3 12q-3 -6 -0.5 -19t15 -29t28 -30t38.5 -22.5t46 -5.5l37 -6q37 -8 57 -5q13 3 32.5 7t32.5 6.5t23 5.5q16 7 41 16l25 8 q24 24 49 54q13 19 32 49t25 39q25 78 31 127z" />
<glyph unicode=":" horiz-adv-x="460" d="M231 760l48 -29h8l4 4v13l16 4l-6 -21l6 -10h6v10h6l11 -24l8 8l6 -4l12 -31l11 -23l6 11l6 -4l4 -11l18 -28l-4 -17l4 -22l7 -29l-5 -37l-2 -26l-20 -17l-25 -8l-14 -27l-29 4h-6l-39 19l-41 35l-10 20l-14 4l2 8l-10 13v16l-25 21l-16 10l4 14v10l8 13l-4 14l6 10h8 l-6 15l10 8l-8 29l8 2h15v8l10 20l12 13zM170 248l47 -29h8l4 4v13l17 4l-6 -21l6 -10h6v10h6l10 -24l8 8l7 -4l12 -31l10 -23l6 11l6 -4l5 -11l18 -28l-4 -17l4 -22l6 -29l-4 -37l-2 -26l-21 -17l-24 -8l-14 -27l-29 4h-6l-39 19l-41 35l-10 20l-15 4l2 8l-10 13v16l-24 21 l-17 10l4 14v10l8 13l-4 14l6 10h9l-6 15l10 8l-8 29l8 2h14v8l10 20l13 13z" />
<glyph unicode=";" horiz-adv-x="407" d="M242 129q0 -30 -29 -119q-21 -30 -55 -76q-28 -22 -54 -55q-12 -11 -36 -43q-20 -10 -27 -22q-49 -34 -96 -78q-4 -2 -8.5 -4.5t-12 -7l-12.5 -7.5l-12 15l-17 14q-2 -2 -16 -2q-2 0 -2 4q0 5 10 35l10 27l113 155q9 18 41 66q-6 4 -14 12q-21 15 -21 49q2 13 6 37 q1 2 4 12.5t4 16.5q10 18 25 51q17 17 29 31q4 2 32 2q8 0 40 -11.5t38 -17.5q46 -34 60 -84zM117 760l47 -29h8l4 4v13l17 4l-7 -21l7 -10h6v10h6l10 -24l8 8l6 -4l13 -31l10 -23l6 11l6 -4l4 -11l19 -28l-4 -17l4 -22l6 -29l-4 -37l-2 -26l-21 -17l-24 -8l-15 -27l-28 4 h-6l-39 19l-41 35l-11 20l-14 4l2 8l-10 13v16l-25 21l-16 10l4 14v10l8 13l-4 14l6 10h8l-6 15l11 8l-9 29l9 2h14v8l10 20l12 13z" />
<glyph unicode="&#x3c;" horiz-adv-x="907" d="M895 840q-1 0 -2 -6.5t-2 -6.5l2 -4q-1 -3 -0.5 -13t-1.5 -13q-2 -4 -8 -8.5t-14 -8.5t-11 -6q-23 -20 -63 -33q-20 -8 -60.5 -19t-52.5 -15q-5 0 -13 -3t-10 -4q-4 -1 -10.5 -6.5t-9.5 -7.5q-4 -1 -13.5 0t-13.5 0q-16 -5 -20 -8q-3 -1 -12 0t-13 0q-7 -4 -21.5 -19.5 t-21.5 -19.5q-3 -1 -17.5 -0.5t-14.5 -5.5q-2 -5 1 -9.5t9.5 -9.5t7.5 -6q8 -7 22.5 -24.5t22.5 -24.5q15 -15 47 -44.5t56 -53.5t42 -49q1 -2 4.5 -6.5t4.5 -6.5q15 -19 22 -39q11 -35 4.5 -66.5t-26.5 -51.5q-4 -9 -9 -11v-2q0 1 -2 7t-4 8l-26 26q-9 12 -33 33.5 t-33 34.5q-9 9 -27.5 28.5t-27.5 28.5q-54 70 -94 99q-51 41 -107 63q-16 0 -24 2q-3 1 -9.5 6t-9.5 6q-2 1 -8 -3.5t-8 -4.5q-18 9 -21 10q-2 1 -5 6t-5 5q-23 16 -37 32q-1 3 -1 11.5t-1 11.5q-1 0 -1 3t-1 3q0 5 -3 8.5t-3 8.5q1 0 5.5 1t6.5 1q1 5 1 15t1 17t4 11 q26 32 78 43q5 0 17.5 -3t19.5 -2q5 2 18 8.5t21 8.5t24.5 3t24.5 3q17 5 36.5 12t32.5 12.5t34.5 15t31.5 13.5q3 2 11.5 2t11.5 2q3 1 8 8.5t8 8.5q2 2 6.5 2t5.5 2q14 4 36.5 17.5t31.5 17.5q3 1 12.5 -3.5t12.5 -3.5q9 6 25.5 25t25.5 25q2 1 10.5 1.5t11.5 2.5q1 1 3 5 t3 5q3 2 11 4t12 4q2 2 7 3t7 3q2 1 5.5 3t5.5 3q0 1 4 -2t4 -2h8q7 -4 10 -8q22 -32 27 -69q1 0 2 -6.5t2 -6.5q0 -8 1 -12t1 -12z" />
<glyph unicode="=" horiz-adv-x="1134" d="M1067 246q0 -1 2 -2q-14 -41 -96 -49q0 -2 -5 5l-3 3l-4 6q-11 0 -16 -7t-17 -7q0 1 -5 -1t-9.5 -3.5t-4.5 -0.5q-13 1 -38 4.5t-37 4.5h-50q-5 0 -15 -2t-15 -2q-31 2 -92 2q-6 0 -17.5 -1t-17.5 -1q-21 1 -64 10t-65 10q-30 1 -88 -3t-86 -3h-25q-60 7 -72 4 q-27 -4 -49 2q-26 13 -31 29q-4 12 -4 28q9 55 107 76q2 0 20.5 7.5t24.5 6.5q9 -2 18.5 -17t14.5 -17q23 -1 71.5 4t73.5 4q19 -3 59 -9.5t60 -9.5q6 0 26.5 1.5t30.5 0.5q18 1 52.5 -2.5t48.5 -3.5q7 2 18.5 3t17.5 3q6 1 19.5 3.5t19.5 3.5q8 1 23.5 7t23.5 7t25 1t25 1 q3 0 21.5 3.5t27.5 4.5t22.5 1t22.5 -3q18 -6 37 -37l12 -18q1 0 -0.5 -2t0.5 -2q0 -7 1 -21.5t1 -21.5zM276 551q-81 -14 -133 24q-7 6 -16 37q-3 14 16 27q2 3 5.5 11.5t5.5 11.5q6 4 19.5 11t19.5 11q3 1 14 0.5t14 1.5q4 1 22 11t31 12q26 5 54.5 6.5t80.5 0.5t66 -1 q51 0 152.5 2t152.5 2q10 1 29 4t29 4q1 1 2 -2q10 0 29.5 3t29.5 3q0 -1 2 -4.5t2 -5.5q-2 0 -2 2l2 -2q2 0 6 1t6 1q15 -7 33 -33q14 -24 11 -67.5t-19 -61.5q-62 4 -90 4q-5 1 -16 9.5t-17 9.5q-3 0 -10.5 -8.5t-11.5 -8.5q-14 7 -17 8t-13.5 6.5t-16.5 6.5 q-10 2 -29.5 1.5t-30.5 0.5q-16 0 -45 4t-45 4q-12 0 -34 -4t-34 -4q-44 0 -67 -4q-34 -7 -98.5 -18.5t-88.5 -16.5z" />
<glyph unicode="&#x3e;" horiz-adv-x="862" d="M854 647q3 -5 0 -11t-9 -12.5t-7 -7.5q-4 -7 -47 -69q-2 -4 -4.5 -13t-4.5 -12q-6 -8 -15.5 -30t-18.5 -31q-26 -25 -72 -57t-83.5 -63t-60.5 -65q-1 -2 0 -8t0 -8q-1 -1 -10 -4t-10 -8q-1 -1 0 -4t2.5 -6t1.5 -5q-2 -3 -7 -8t-7 -8q0 -4 -4 -12q-14 -28 -35 -43 q-3 -3 -25 -12q0 -1 -1 -2.5t-1 -2.5q-4 0 -5 2.5t-5 2.5q0 1 -4 0t-4 0q-12 5 -19 12q-2 2 -9 5t-9 5q-14 16 -24 45.5t-3 56.5q2 3 6.5 10.5t6.5 10.5q0 2 -1 6t-1 6q3 7 15 18t15 17q14 20 31.5 38t44.5 42t37 33q28 24 45 41l13 12q12 11 17.5 18t14.5 18.5t12 22.5 t0 21q-7 27 -71 71q-18 13 -40 25t-50 26.5t-43 22.5q-13 8 -40.5 22.5t-41.5 22.5q-2 1 -9 4t-12 4q-84 34 -96 88q-2 0 2 7q3 4 2 4q0 4 -4 7.5t-4 8.5h14q3 12 16 28t23 19t32.5 0.5t30.5 -0.5q9 2 24.5 10.5t21.5 10.5q0 1 7 1t7 1h10q0 -1 1 -2t1 -2q6 -1 11.5 -8.5 t7.5 -8.5q3 -2 8.5 -6t9 -6.5t7.5 -6.5t5 -7q1 -4 4.5 -11.5t4.5 -9.5t-1.5 -7.5t-1.5 -6.5q16 -34 35 -55q46 -46 158 -95q3 -1 12 -1t13 -1q2 -1 7 1t7 1q3 -1 10 -3.5t10 -2.5q11 -7 19 -10q4 -1 9 -9t9 -9q2 -1 8.5 3t8.5 3q4 -1 8 -10.5t8 -10.5q3 -2 12 0.5t11 1.5 q3 -1 6.5 -6t5.5 -6q3 -1 7 -7t7 -7q37 -18 37 -19z" />
<glyph unicode="?" horiz-adv-x="985" d="M909 1178q18 -35 21 -66q0 -36 -12 -74l-5 -20q-8 -19 -10 -33q-16 -18 -59 -76q-17 -22 -45 -41q-9 -9 -21 -24q-8 -7 -61 -60q-14 -18 -47 -51q-131 -109 -177 -156q-72 -75 -106 -149q-15 -34 -58.5 -74.5t-74.5 -40.5q-27 0 -27 27q0 8 2 14q-8 4 -8 11q-1 4 39 81 q75 150 164 261q14 17 55 61.5t68 75.5t53.5 70.5t32.5 66.5v4q0 36 -8 64q-10 15 -11 16q-8 8 -18 8l-3 5q-3 6 -5 8t-6.5 4.5t-10.5 1.5q3 10 -2 10l-8 -4q0 2 -4 2q-9 14 -10 16q-18 6 -41 6q-43 0 -90 -26t-91.5 -54t-76.5 -30q-17 0 -28 14t-11 29h-10q-23 0 -23 14 q0 10 8 21q-2 2 -2 8q0 29 62.5 88t113.5 84q70 32 101.5 45.5t86 28t103.5 14.5q85 0 160 -49.5t100 -130.5zM326 96q0 -2 2 -4l8 -37q0 -4 -4 -12q-12 -46 -41 -94q-36 -20 -82 -58q-8 -4 -33 -4h-6q-28 5 -39 17l-33 33q-4 4 -16 24q0 1 -1 2.5t-2.5 3.5t-2.5 4l4 13 q-7 6 -29 32q9 22 47 68q6 19 8 22q2 1 9.5 4t11.5 5l2 8q12 9 33 27q10 7 31 18q3 2 38 -2q5 0 35 -12l8 8q2 -4 5 -4l12 -17q2 2 10 2q14 -19 18 -49q2 2 7 2z" />
<glyph unicode="@" horiz-adv-x="1212" d="M883 750h2h-2zM1157 532v-2v-6l-2 -2l-4 2v-10q-2 -71 -61 -205q-45 -105 -152 -176q-11 -7 -38.5 -35t-47.5 -35q-4 0 -26.5 6.5t-26.5 6.5q-10 -1 -33 -5t-33 -5q-6 0 -7 3q0 1 -0.5 1.5t-0.5 1.5q0 -4 -10 -4l4 -5q-4 3 -6 5q-4 0 -6 -2l-116 -18l-34 -3q-8 0 -22 1 t-72 1q-41 0 -72 17.5t-48 42t-27.5 56.5t-13.5 56.5t-3 46.5q0 79 53.5 166t144.5 148t185 61q148 0 170 -102q8 -8 8 -13q0 -38 -36 -124.5t-36 -118.5q0 -24 12 -32.5t42 -8.5q77 0 120.5 61.5t43.5 140.5q0 1 -1 2t-2 2.5t-2 4.5q0 2 2.5 6.5t2.5 7.5q0 8 -4.5 23.5 t-4.5 23.5q0 4 1 16t1 19q0 3 -1 11.5t-1 12.5q4 20 4 31q0 38 -41 85.5t-77 62.5v-2q-58 32 -148 32q-146 0 -273 -78t-200 -210q-5 -5 -14.5 -19.5t-14.5 -19.5q-2 0 -16 -40t-28.5 -103.5t-14.5 -110.5q0 -250 315 -250q74 0 166 29q2 1 10 7.5t14 10t16 7t20 3.5 q18 0 18 -33l-6 -10q-81 -158 -168 -158q0 3 -2 3q-8 0 -8 -3q-10 0 -11.5 3.5t-11.5 3.5q-6 0 -14 -4l-8 -3q-25 0 -119.5 29t-130.5 29q-2 0 -3.5 -1t-2.5 -1q-2 0 -43 18q-166 62 -166 299q0 45 4 68q17 55 34 100.5t48 113t64 122t82.5 114.5t104.5 103t129.5 76.5 t156.5 44.5h6h12q14 4 90 4h16q0 -3 20 -6t43.5 -7t29.5 -6q72 0 149.5 -72t106.5 -153q7 -25 11 -65.5t7 -55.5q6 0 6 -14q0 -3 -1 -9zM711 375q34 75 39 90q0 23 -27.5 43t-38.5 20q-37 0 -80.5 -13t-85 -37.5t-69 -66t-27.5 -92.5q0 -2 1 -4.5t1 -5.5q0 -2 -1 -4.5 t-1 -5.5q0 -22 30 -68.5t66 -46.5q13 0 63 11.5t52 13.5q6 14 35 74.5t43 91.5z" />
<glyph unicode="A" horiz-adv-x="841" d="M588 1247q15 0 27.5 -3t31 -9t35.5 -10q29 -17 46.5 -33.5t25.5 -34t11.5 -31.5t6.5 -35t8 -36v-74q-2 -11 -1.5 -32.5t-3.5 -80.5t-17 -157q0 -11 -12.5 -58.5t-12.5 -122.5l-2 -2q-3 -6 -6 -26q2 -2 2 -6q0 -1 -4 -13l-4 -12q0 -4 11 -17.5t11 -17.5q-2 -6 -2 -12 q2 0 2 -2q-3 -18 -20 -35q2 -10 2 -22q-1 -1 -2 -5t-2 -6q0 -10 2 -16q-1 -2 -1 -11.5t-1.5 -18.5t-5.5 -13q0 -1 1 -16.5t5 -22.5q-2 -6 -2 -20q1 -2 2 -8t2 -9q-2 -2 -2 -6q0 -8 2 -14q-2 -6 -2 -23q1 -9 6.5 -50.5t5.5 -66.5v-10q1 -5 2 -17t2 -18q0 -8 -2 -14v-12 q0 -5 -2 -27t-2 -27q2 -4 2 -16q3 3 -2 -6q-32 -61 -34 -64q-1 -4 -1 -6q-2 -2 -4 -2q-4 0 -10 6l-2 -10l4 -20q-4 -4 -6 -4q-6 0 -33 114v6q-35 160 -47 248l-18 13q-22 39 -103 110l-65 -14h-2q-8 -1 -117 -15q-13 -27 -24 -57t-24.5 -73.5t-19.5 -61.5l-6 -19l-4 -12 l-8 -26q-9 -26 -10 -29l-15 -35q-10 -22 -18 -63q-43 -43 -70 -43q-24 0 -46.5 30t-22.5 56q0 15 4.5 35.5t9.5 37t19 58.5t24 73l35 109q1 3 6.5 15.5t10.5 26.5t7 26q-3 15 -6 36q2 10 4 16t7.5 19.5t11.5 34.5v2q1 1 7 5.5t7 5.5t6 5.5t6.5 7t6 8t7 10.5l6 12t7.5 16 q8 39 67 162q18 38 52.5 108t59 124t40.5 99l8 19q15 29 47 100q3 8 13 18q53 117 92 117zM563 967q-16 0 -119 -269q-5 -7 -18 -34.5t-33.5 -84t-30.5 -108.5h46q17 0 69 4t86 6q9 9 13 139.5t4 200.5q0 29 -2 68l-15 76v2z" />
<glyph unicode="B" horiz-adv-x="946" d="M629 1176l82 -2l45 -11l43 -8l63 -31l53 -37l19 -24l20 -64l2 -24l-8 -14l6 -5v-43l-6 -18l-24 -37l-11 -6l-2 -16l-10 -19l-20 -6l-37 -57l-35 -27l-8 -14l-19 -8l-20 -27l-51 -49l-25 -15l-16 -16l-2 -12l-25 -21l86 -16l72 -25l22 -10l27 -22l16 -37l15 -54l-2 -14 l-7 -10l-20 -53l-25 -37l-12 -8l-2 -7l-45 -55l-8 -4l-2 -12l-15 -6l-8 -11l-30 -22l-11 -15l-24 -8l-21 -22v-4h-16l-10 -9l-2 -20l-23 -12l-29 -6l-6 -13l-33 -10l-30 -2l-19 -18l-10 -3l-14 -10l-21 -10l-20 -2l-15 -16l-12 -7l-6 2l-8 -4l-19 13l-30 -27l-17 2l-2 6 l-16 2l-15 -10v-6h-6l-10 8l-10 -2l-6 -22l-17 2l-20 -13l-27 -12l-6 6l4 12l10 -6l7 23l10 2l2 4l20 4v14l9 15l18 4l6 8l35 25l47 41l16 6l43 34l64 35l41 47l14 9l35 24l39 35l24 12l3 11h8v6l22 20l19 6l16 15l57 53l9 12l-9 15l-73 12l-15 -2h-37h-63l-74 -10l-32 -13 l-21 2l-59 -8l-19 -12l-26 -39h-9l-22 -27l-6 -14l-19 -33v-16l-16 -41l-8 -8l-17 -47l-8 -56l-6 -6l-10 -63l-17 -27l-4 -25l-26 -26l-4 -10l-23 10l-23 4l-26 26v89l49 315v35l14 47v41l11 39l-2 6l8 24l2 21l31 188l-9 19l-20 26l-2 29l-8 16l-2 19l16 18l8 19l-6 6 l33 39l16 10l31 37l69 53l13 2l51 31l16 4l33 20l82 25l33 4l12 6l29 6h24zM719 918l-80 -17l-55 -18l-41 -21l-72 -47l-31 -10l-14 -43l4 -14v-37l-6 -15l-14 -67l41 4l28 10l162 88l37 29l65 47l50 53l16 25l-2 12l-12 10l-31 11h-45z" />
<glyph unicode="C" horiz-adv-x="782" d="M946 983l12 -84l-18 10l-2 -35l-4 3l2 -17l-23 23l-2 -13l-37 23q-2 -2 -8 -2l-2 -2h-8l-20 -4h-15l-12 10l-16 20l-7 11l-4 6l-4 2h-2l-10 -8v-6l-18 -2h-3q-1 0 -4 -5q-4 -3 -9.5 -5.5t-15 -6t-16.5 -6.5l-28 -23l-33 -22l-64 -64l-34 -32l-49 -64l-31 -67l-41 -70 l-17 -16l-20 -60l-21 -35l-24 -55l-25 -72l-20 -59l-12 -74v-53l10 -41l24 -35l39 -20l43 -6h56l127 22l6 -8h8l-6 -10l14 -6l-6 -7l4 -8h-8l-6 -8l8 -2l4 -12l-8 -2l-19 -11l-61 -28l-4 2l-64 -27l-149 -12l-74 18l-61 29l-52 37l-34 41l-35 74l-10 57l4 72l8 22l-2 23l4 8 l4 41l12 24l17 54l63 139l6 6l17 25l2 10l20 31q10 10 11 12q9 22 19.5 38.5t28 38.5t21.5 27l23 31l16 20v5l66 79l14 5l2 14l57 70l25 18l14 14l49 58h11l4 10l32 22l17 19l12 4v-4l10 4l-2 2l50 20l104 17h20l25 -8l25 -13l10 -10h2q0 -4 4 -4q4 -4 8 -6l23 -10l12 -7 l2 -2l12 -14l13 -18l10 -19l16 -30l-6 -5z" />
<glyph unicode="D" horiz-adv-x="1015" d="M977 651q-3 -51 -23 -94l4 -4q0 -31 -27.5 -93.5t-86.5 -125.5q-26 -45 -66 -84t-98.5 -86t-85.5 -72q-8 -2 -19 -9.5t-38 -26t-64 -38.5l-8 -6q-37 -11 -111 -53q-65 -2 -65 -14l-21 -4q-9 -5 -47 -13q-8 15 -33 21q-2 -2 -6 -2l-10 2q-2 -2 -10 -2q-1 1 -3 2t-3 2 q-4 -4 -9 -4t-14 12v-4h-2q-4 0 -4 -2q-11 7 -14 20l-2 -2q2 0 2 -2h-7q-8 8 -10 8q-2 2 -10 -2l-4 -4h-23l-2 4h-8q-6 4 -6 27l6 12l4 17q3 7 16.5 34.5t20.5 45.5l6 108q0 9 4 29l4 35q4 22 14 74t21.5 120.5t28.5 184.5l6 6l14 61q-8 -15 0 21q21 90 35 127l6 18 q0 11 9 42.5t10 51.5q2 43 11 69t17 32.5t20.5 10.5t14.5 5q0 3 17 18.5t43.5 30.5t44.5 14q16 0 24 -4q47 10 66 17q6 0 10 -2q1 0 3.5 2.5t4.5 3.5q23 -16 99 -41q5 -1 16.5 -3t17 -5t23 -13t46 -31t75.5 -57q5 -5 22.5 -18t36.5 -36t39 -64q3 -15 5 -15t5 -3t14.5 -27 t28.5 -68q1 -6 9 -30.5t13 -56t3 -67.5zM805 594q4 24 4 35q0 39 -4 53q-10 62 -64 162l-36 43q-20 18 -45 32t-42.5 20.5t-61.5 20.5t-69 23l-12 -7q-67 -34 -67 -52q-3 -10 0 -29q-5 -16 -12 -50.5t-9 -45.5l-2 -23q-5 -9 -31 -158l-4 -10l-6 -43q-4 -35 -20 -96 q-2 -13 -20.5 -82.5t-27.5 -163.5l-4 -12l-2 -29q0 -3 -3 -13t-3 -13q0 -5 1 -23t1 -31q42 16 79 28q22 7 38 16t70 42q16 10 26 16t28 17.5t36 22.5q127 94 187.5 171t74.5 179z" />
<glyph unicode="E" horiz-adv-x="999" d="M1130 1081q-23 -23 -108 -30q-5 -2 -25 -3t-34 -8q-2 2 -9 2l-20 -12q-6 -6 -9 -7.5t-10 -2.5t-12 -2q-6 0 -10 2l-39 -12l-29 -9l-18 -4q-2 2 -8 2q-4 -4 -15 -5t-28 -1.5t-23 -1.5h-8q-3 0 -14 -4l-11 -4q-33 -7 -50 -2q-8 3 -19 -4t-60 -43q-33 -25 -55 -41l-5 -3 q-5 -3 -12 -8.5t-15.5 -12t-17.5 -15.5t-17 -18q-2 -6 -20.5 -40.5t-34 -74t-15.5 -70.5q0 -6 4 -10l66 4q13 1 40.5 2t42.5 2q7 0 21 -1t22 -1q7 0 23.5 1t24.5 1q18 -4 69 -4l8 -4l56 12h-2q26 0 34 -8v-4q3 -3 3 -39l-23 -14l-16 -6l-7 -7l-28 -6q-5 -5 -29 -14l-29 -12 q-11 -11 -153 -35q-21 -24 -59 -60.5t-58 -50.5q-10 -22 -29 -45q-2 0 -21.5 -2t-31.5 -8t-12 -18q0 -71 24 -101t80 -33l2 -24l11 -8h43l63 8l80 14l37 10l76 19l2 -6q2 -2 2 -6q-2 -6 -2 -13l2 -2v-4q0 -6 2 -10q-8 -8 -10 -12l-2 4q0 -9 2 -13q-4 0 -4.5 -4.5t-3.5 -14.5 t-13 -20v-4q-1 -2 -2 -9t-6 -15t-16 -21v-8q-63 -31 -92 -39t-103 -14h-27q-2 -2 -6 -2q-9 0 -39 6q-16 3 -31.5 3.5t-22.5 2t-26 10.5t-55 31l-10 12l-13 13l-13 13t-12 14.5t-13 20.5t-12.5 26.5t-14.5 37.5t-14 49t-17 64q2 6 2 20q0 13 -4 41q0 1 8.5 73t16.5 124 q0 19 4 37t11.5 38.5t25 80t37.5 137.5l-6 12q-12 24 -21 62q6 4 16 14v6l11 10q-2 2 -2 9q5 16 34 57h5l14 14q1 1 24 21t31 32q-6 3 -6 31q21 14 37.5 20.5t23.5 7.5t19 0t14 -1q3 -1 9.5 -2t9.5 -2h6q3 0 11 -1t9 -1q7 0 46 3t71 3h72q6 -1 19 -2t20 -2h139q10 -2 33 -2 h-2q9 2 57 0.5t112.5 -14t81.5 -29.5v-13z" />
<glyph unicode="F" horiz-adv-x="886" d="M973 1100q0 -32 -35.5 -54t-85.5 -22h-16q-1 0 -5 12t-16 21.5t-35 9.5q-53 0 -118 -20q-3 -1 -35.5 -10.5t-58 -18t-64 -24t-68.5 -31.5q-12 -66 -57 -256q-3 -48 -21 -89q0 -26 10.5 -43.5t24.5 -17.5q11 0 117 33q4 1 32 11.5t53.5 18.5t65 15.5t74.5 7.5q27 0 40 -10 t13 -39q0 -13 -77 -45q-75 -29 -121 -42q-21 -5 -150 -40q-2 0 -14.5 -2.5t-19 -4t-20 -8t-23.5 -14.5t-23.5 -22.5t-26.5 -34.5q-14 -55 -28 -129.5t-23 -119.5t-23 -89.5t-33.5 -65t-47.5 -20.5q-11 0 -17 2q-14 5 -52 28t-38 38q0 33 1 55t8 61t12.5 67.5t23.5 112 t33 158.5q-6 12 -6 23q0 16 14 39q0 -6 3 5q4 14 20 91q65 302 90 342q0 5 -1 14.5t-1 14.5q0 56 16 84t53 28q56 0 80.5 -10t34.5 -10q52 0 236 48t192 48q30 0 71.5 -32.5t41.5 -63.5z" />
<glyph unicode="G" horiz-adv-x="1142" d="M1028 602l25 -78v-55l-13 -47l-10 -23l-33 -96l-61 -135l-14 -45l-35 -68l-25 -69l-8 -54l-8 -2l-8 -45l-43 -82l-23 -94l-18 -63l-2 -27l-19 -18l-2 -21l-4 -6h-2l-4 -31l-31 -51v160v299l15 78q-21 8 -56 8q-32 0 -161.5 -33t-159.5 -33q-117 0 -198 117t-81 270 q0 80 17 144l14 45l55 119l27 41q23 44 43 78t42 64t34.5 47.5t39 42.5t34.5 33t41.5 36.5t41.5 35.5l70 62l37 12l33 25l38 6q52 20 113 29l4 4l8 -2l37 10l66 8l20 -6h23l37 -16l-2 -64l10 -14l-8 -23l-35 -35l-33 -12h-6l-14 -6h-35l-15 10q-5 0 -14 -1t-14 -1l-35 -14 h-37l-43 -27l-18 -16l-7 -17l-14 -10l-94 -110l-59 -50q-8 -18 -8 -32.5t-4.5 -27.5t-24.5 -38l-66 -70q0 -13 -8.5 -54.5t-17.5 -51.5l-27 -35l-4 2q-9 -17 -5 -43.5t-5 -29.5q-2 -18 3.5 -37t4.5 -29q3 -11 5.5 -18t4.5 -10.5t6.5 -11.5t9.5 -17q7 -14 9.5 -24t2.5 -13.5 t4 -7t17 -9.5l19 -22l32 -25l56 -12q5 1 14 2t14 2l60 4l100 43l59 21l15 18l63 113l6 33l39 94l31 84l12 10l2 22l21 13l31 30h12l20 -8l13 2l20 -24l27 -13z" />
<glyph unicode="H" horiz-adv-x="1036" d="M893 1210l20 -8l29 8l35 -24l4 -17l8 -65l-28 -223l-9 -39l-24 -107l-19 -73l-10 -21l2 -2l76 -18l33 -13l26 -8l-4 -16l-16 -2l-8 -9l-31 -12l-16 -16h-27l-51 -6l-25 -23v-20l-16 -17l-13 -47l-24 -49l-10 -49l-11 -66l-12 -32l-4 -29v-39l-12 -25l4 -18l-6 -47h2v-25 l-6 -14v-35l-9 -4l-4 -16l4 -7l-2 -10h-6l-18 -16l-8 4l-5 -14l-10 6l-6 -2v-6l-10 -5l-2 -8l-8 -10l-25 -4l-14 14l-13 23l-10 47l-14 106v93l16 157l25 154l-45 -6h-51l-97 -25l-53 -6l-18 -6l-15 -62l-8 -14l-4 -25l-6 -14l-21 -41l-4 -26l-12 -29l-8 -35l-29 -72 l-29 -61l-24 -53l-4 -43l-8 -11l-2 -14l-11 -16l-6 -25l-6 -8l-2 -4l-43 -37l-4 25l-4 51l-8 33l-3 22v96l13 146l-2 18l8 27l16 129l52 272l30 99l25 55l2 22l31 95l20 38l27 62l26 57l8 8l9 19h8l6 6h10l6 4l27 2l37 -14v-4l12 -4l23 -84l-11 -78l5 -6l-9 -13l-4 -57 l-8 -61l-31 -105l-12 -47l-10 -8l-2 -29l-10 -18h100l84 18h31l43 6l24 103l43 129l4 20l8 8l-2 5l29 90l53 123l21 57h6l4 12l12 2z" />
<glyph unicode="I" horiz-adv-x="485" d="M467 1149h14l29 -12l16 -23l6 -49l-6 -102l-26 -60l-29 -61l-74 -211l-67 -185l-17 -61l-16 -33l-6 -35l-15 -30l-8 -35l-20 -123l-15 -61l-12 -68l-28 -74l-27 -28l-33 -19l-22 12l-7 95l5 12l-5 16v60l5 47l-5 10l-2 100l2 74l13 57l14 80l14 45l27 125l12 25l23 76 l37 108l2 29l18 29l19 43l26 45l2 14l43 74l11 6l18 35l41 37z" />
<glyph unicode="J" horiz-adv-x="1224" d="M1436 1223h28l99 -15l79 -24l15 -10l-29 -21v6l-10 -8l-21 -4l-14 -12l-35 -9l-92 -57l-63 -29l-15 2l-18 -14h-14l-35 -22l-11 2l-20 -11l-4 4l-33 -14l-8 -14l-18 -10l-80 -25l-17 -10l-63 -21l-62 -12l-47 -14l-16 -72l-4 -39l-17 -49l-39 -168l-8 -10l-16 -41v-10 l-19 -23v-12l-6 -4v-9l-32 -82v-26l-11 -33l2 -8l-12 -27l-6 -24l-10 -15v-34l-19 -89l-8 -10l-2 -16l-8 -12l-2 -21l-15 -53l-32 -64l-2 -26l-33 -45h-4l-23 -25l-4 -12l-39 -21l-43 -16h-37l-26 -6l-4 -4l-17 6h-22l-17 -6l-22 6l-86 20l-10 13l-35 10l-19 10l-47 37 l-18 33l-17 10v16l-16 39l-12 15l-6 34l-7 5l2 12l-6 8l13 16l-7 7l-2 10l9 51l14 23l18 57l19 33l4 16l27 45h6l-4 -33l-7 -6l-4 -16l9 -6l2 -19l-11 -24l4 -21l-4 -33l17 -14l10 4v-49l-10 -25h10l6 7l6 -5l29 -43l31 -10l10 -10l29 -14l4 -7h18l47 -24l25 -8l12 -8l64 6 l18 12l39 14l20 21l21 88l16 33l25 129v57l20 195l8 16l25 145l8 15l8 69l33 131l-45 -6h-29l-174 -18l-63 -17h-62l-8 4l-10 21l-4 20h8l2 11l29 28l29 11l151 75l6 -2l31 13l8 -11l8 4l11 17l-9 8l31 8l8 -6l29 8l37 21v6h67l7 6l-3 23l9 2l16 59l6 4l21 -8l-4 20h4l8 -10 l8 4l6 33l17 -12l26 -41h25l24 8l39 -4l4 -4l31 4l2 -4l31 4l10 6l29 4v-6l-15 -10l13 -6l47 12l49 4l10 8h25l35 17l-4 4l4 10l32 14h29l47 10l10 7l25 -2z" />
<glyph unicode="K" horiz-adv-x="1171" d="M121 -10l-17 8l-4 18l-20 13v41l12 34l33 168l31 129l8 21l4 33l57 161l8 39l35 80l15 21l6 37l26 51l4 39l17 32l2 29l37 70l22 28l29 27l20 4l60 14h43l24 -24l2 -25l-10 -104l-6 -21l-14 -51l-13 -22v-15l-8 -28l-35 -76l127 76l39 14l123 68l8 8l207 133l66 43l24 6 l13 10h8l29 13l8 -5l16 3l92 30l21 -12l2 -21l-41 -43l-29 -20l-35 -35l-32 -51l-33 -39l-58 -45l-63 -47l-66 -51l-137 -90l-65 -25l-17 -10l-39 -19l-12 2l-18 -12l-25 -16l-29 -17l-30 -10l-39 -29l-25 -10l-12 -24l18 -17l56 -35l4 -6l20 -8l131 -80l49 -33l185 -145 l22 -37l21 -8l51 -51l33 -53l-2 -29l16 -19l6 -12h6l2 -8l7 -4l4 -10l-13 -7l-4 -10l-6 2l-8 -12l-16 6h-25l-12 17l-13 -7l-10 7l2 26l-14 -24h-8l-56 30l-36 17l-146 84l-31 12l-290 158l-11 10l-14 6l-59 49l-27 -78l-18 -24l-15 -31l-37 -86l-43 -82l-30 -37h-31v19z " />
<glyph unicode="L" horiz-adv-x="677" d="M651 -6h-8l-6 -8l8 -2l2 -15h-8l-18 -10l-64 -22l-4 2l-66 -21l-67 -10l-84 10l-72 25l-57 34l-49 43l-31 46l-6 18h-4v8q-7 10 -17 47v8q-1 5 -6 35l-4 8q0 11 2 17l-4 20v23q2 12 2 22v9q3 16 8 52.5t13 81.5t22 103q14 67 23.5 106t18 67t34 119.5t59.5 225.5l4 10 q5 11 11.5 26t12.5 32t10.5 34.5t4.5 28.5l1 4q0 4 1 13t2 18.5t4 21.5t6.5 23t9 21t11.5 16v21l4 2q24 24 25 24h10q4 -2 12 -2l12 -8q12 -8 23.5 -16.5t27.5 -24.5t27.5 -33t20 -41.5t8.5 -50.5q0 -32 -3 -56.5t-8 -43t-16 -65t-22 -101.5q-24 -24 -66 -178v-13 q-3 -7 -14.5 -43.5t-54.5 -144.5l-2 -2q-3 -3 -6 -12v-11q-52 -162 -52 -252q0 -8 -2 -12l2 -10q0 -2 2 -2v-27l21 -82l22 -39l37 -24l41 -10l56 -4l184 12h12v-21l8 -6l-6 -6z" />
<glyph unicode="M" horiz-adv-x="1351" d="M1186 1294q37 0 84 -39q12 -9 17 -16.5t6.5 -14.5t5.5 -31.5t12 -53.5v-74q-1 -9 -4.5 -34t-6 -54t-2.5 -57l-4 -9q-24 -133 -43 -249q-6 -22 -11.5 -80t-20.5 -88v-19l-5 -20v-23q-3 -3 -2.5 -16.5t-2.5 -41t-13 -57.5q2 -2 2 -12l-2 -8q1 5 1 1q-1 -1 -1 -5 q-18 -79 -18 -123q0 -8 4 -16q-1 -1 -2 -5t-2 -6q0 -16 2 -24q0 -9 -2 -15l-2 -14q0 -19 -7.5 -36.5t-14.5 -25.5t-9 -8l-2 -2q-1 -3 -3.5 -6.5t-6.5 -9.5t-7 -12l-6 -4l8 -2l-6 -13l-2 -16l-12 -16l-4 -31l-10 -6l4 -2l-6 -2l-5 -7q0 -12 -2 -18l-6 -6l-2 -12l-10 -5 q0 9 -2 15v2q-1 2 -3.5 12t-4.5 17l-2 16q0 3 -0.5 9t-1.5 17.5t-2 22.5v6q0 7 -2 13v20l-5 6q3 3 3 14l-3 89l3 534q0 31 -9 66q0 35 6 79v13q7 31 7 57l2 8q-1 -1 -19 -14q-14 0 -61 -47l-37 -64q-1 -2 -2 -7t-2 -7l-17 -27q-6 -11 -12.5 -25t-11 -22.5t-8.5 -13.5l-11 -8 q0 -1 -3.5 -14.5t-8 -23.5t-12.5 -18v-6l-19 -34q-2 -4 -5 -10.5t-8 -15.5t-9 -17l-6 -11l-7 -13q-8 -14 -17.5 -26t-14.5 -12q1 0 -11.5 -15t-26 -29.5t-15.5 -14.5q-16 -11 -17 -11q-25 7 -68 38.5t-51 33.5q-102 42 -124 197v73q2 14 2 48q-1 -1 -4 -6.5t-5 -8.5l-8 -14 l-8 -19q-1 0 -3 -9.5t-11.5 -35.5t-26.5 -57q-8 0 -45 -96q-22 -49 -49 -170l-19 -64q-2 -6 -2 -18l-4 -20q-1 2 -2 -2q-6 -21 -39 -197q-3 -8 -3 -19t-10.5 -33.5t-41.5 -68.5l-4 4l-2 -4q-2 -4 -4 -4q-4 0 -6 2l-13 6q-1 0 -6 3.5t-8 4.5q2 0 2 2l-8 4v7q-23 86 -23 120 q0 2 0.5 7l1.5 15t2 21q9 26 11 36t2 17t-1 17t4.5 46.5t17 94t37 171.5t63.5 268q4 10 27.5 83t47.5 123v7q3 4 10.5 13t10.5 13l8 8q1 4 4 13.5t4 13.5l2 4q3 5 6.5 12t9.5 15t15 16t19 14.5t24.5 10.5t30.5 4q10 0 41 -8l10 -2q11 -1 15.5 -3.5t17 -10.5t27.5 -24.5 t34 -41.5q2 -5 9.5 -19.5t10 -23.5t6.5 -36.5t7 -70.5v-102q-2 -20 -2 -49v-121q0 -14 6 -82q31 70 88 127l37 67l8 9l18 34q3 5 34 63t73 126l31 49q12 18 41 68q3 6 18 24t36.5 48t39.5 61q2 9 9.5 16t25.5 25.5t39 48.5l12 8q11 14 39 14z" />
<glyph unicode="N" horiz-adv-x="1253" d="M1247 1341q0 -8 -2 -18l-4 -16q-2 -9 -16 -64v-6q-1 -1 -2 -4.5t-2 -5.5q3 -6 6 -15q0 -26 -4 -53q-4 -30 -4 -74.5t-9.5 -126.5t-38.5 -225q5 -10 7 -16q-2 -20 -11.5 -84t-9.5 -86v-29q-1 -9 -6.5 -48t-8.5 -58t-11.5 -60t-20.5 -86q0 -41 -21 -108.5t-47 -67.5l-12 -8 q-5 -5 -30.5 -14t-51.5 -13l-2 -2l-8 -8q-21 -21 -32.5 -31t-30 -19t-39.5 -9q-3 1 -13 4t-16 6.5t-19.5 17.5t-29.5 37q-99 120 -136 177q-47 73 -87 165l-13 19l-61 135q0 1 -7.5 20t-15 35t-21 32t-26.5 19q-16 -53 -31 -123q-27 -77 -53 -188v-12q-26 -66 -65 -260 q-7 -7 -13.5 -37t-25 -65.5t-58.5 -61.5l-2 2q-1 0 -5.5 -6t-13 -11.5t-20.5 -5.5q-2 0 -6 4l-8 9q-22 9 -22 61q5 6 2.5 14t-1.5 41.5t11 69.5q13 35 19 60.5t11.5 57.5t10.5 56l14 64q10 43 39.5 195.5t54.5 264.5q0 2 4 25t8 45t11 53.5t15 57.5t18 49.5t22 37t25 13.5 h12q6 2 12 2q13 -1 21.5 -2.5t16 -6t10.5 -7t11 -11.5t13 -14l43 -53q14 -37 27.5 -66t95.5 -192q5 -18 8.5 -26t10 -18t31.5 -67t63 -153q1 -1 5 -7.5t6 -9.5t7 -11.5t9 -15.5t9.5 -19.5t10.5 -25t11.5 -30t12.5 -37.5l17 -25q4 -10 16 -30q5 5 9 7.5t8 4t18 7t31 13.5 l16 15q0 1 6 38t27 99q9 28 40 188t48 260q1 2 4.5 21.5t10.5 53.5t17 79t28 112t40 140q0 25 9.5 43.5t29 29t33.5 15.5t37 10q20 0 24 -33z" />
<glyph unicode="O" horiz-adv-x="1155" d="M1104 479q0 -10 -2 -18l-6 -43q2 0 4 -2q0 -7 -4 -19t-12 -33.5t-13 -37.5q-10 -29 -16.5 -47.5t-14.5 -35.5t-11.5 -24.5t-13 -21.5t-12.5 -18t-18 -21.5t-22 -26.5v-8q-3 -3 -12 -12.5t-12 -12t-13.5 -12t-21.5 -17.5t-30 -22t-45 -33q-13 -4 -26 -13t-26.5 -17.5 t-59.5 -23t-119 -30.5h-18q-3 0 -13.5 -3t-13.5 -3q-158 0 -303 101q-25 18 -36 27t-32.5 35t-46.5 67q-34 89 -51 174q0 -2 2 -2q-2 7 -0.5 15t5 44.5t3.5 73.5l19 73q0 1 20.5 53t52.5 107q2 3 15 25t21.5 35.5t26.5 40.5t33.5 47.5t38.5 47.5t46 50l16 20q8 4 23 19 q48 45 104 45l22 14q8 0 13.5 2t12.5 6t33 13t66 20l5 4h18q1 1 4.5 2t5.5 2q9 0 33 -6h20q54 -38 62 -45q5 -2 16.5 -17t31 -37t42.5 -38q23 -29 35 -35l31 -30q12 -20 26 -41l14 -15q6 -15 15 -30v-9q4 -4 14 -23.5t23 -35.5l6 -21q0 -2 4.5 -18t8.5 -32.5t9.5 -53.5 t10.5 -82v-27q0 -3 6 -6zM920 510q0 92 -23 157t-86 128l-49 49q-27 17 -72 43q-24 -17 -51 -17h-61q-5 0 -12.5 -4t-19 -14t-20 -18t-25 -24t-24.5 -24q-19 -10 -39.5 -39.5t-65.5 -105.5q-5 -8 -7.5 -13t-7.5 -13t-9 -15q-3 -8 -27.5 -57t-43.5 -106.5t-19 -110.5 q0 -10 -1.5 -27.5t-1 -25.5t5 -24t16.5 -36t32 -49q58 -72 217 -72l23 3q57 5 67 7q13 2 34.5 8.5t63.5 31t77 59.5l49 73q18 18 65 138v12q15 50 15 86z" />
<glyph unicode="P" horiz-adv-x="858" d="M926 815q-1 -1 -5 -24t-28 -61.5t-76 -82.5l-8 -10q-56 -50 -152 -109l-26 -12q-24 -18 -56.5 -32t-121.5 -46l-15 2q-6 -13 -58.5 -70.5t-72.5 -54.5q-8 -56 -18 -82q-3 -10 -11.5 -45t-39.5 -133l-7 -14q-15 -33 -41 -102q-1 0 -4.5 -6.5l-7 -13t-4.5 -7.5h-4 q-6 -21 -28.5 -40.5t-37.5 -16.5q-14 9 -23.5 21t-15 30t-8 32.5t-2.5 42t0.5 45.5t2.5 55.5t3 59.5q41 243 132 625q6 11 21 64t19 90q-1 3 -1 11t-1 11l-2 29q-4 29 -2 35l2 6q-7 6 -10 24q8 27 49 51q24 21 95 54t120 28q16 -4 88 -4l20 -2q20 -2 28.5 -4.5t36 -10.5 t61.5 -22q16 -9 47 -25.5t44 -24.5t35 -25.5t33 -35.5t24 -48.5t22 -69.5q-2 -2 -2 -8l6 -15q0 -3 1 -8.5t1 -9.5q0 -13 -4 -33q0 -4 2 -8zM801 809q3 39 -8 61q-10 26 -99 82q-16 8 -39 14t-36.5 8.5t-16.5 2.5q-11 3 -20 0h-45q-48 5 -70 -17q-21 -22 -27 -69q0 -4 -1 -16 t-1 -21q-3 -10 -4.5 -23t-3 -32t-2.5 -31q-2 -10 -8.5 -35t-11 -44t-13.5 -66.5t-20 -112.5q9 0 55 12q96 34 134 54.5t116 80.5l47 43q15 10 42.5 45.5t31.5 63.5z" />
<glyph unicode="Q" horiz-adv-x="1181" d="M637 1231l14 -6l17 -4h37l14 -13l16 -2l10 -14l-20 -25l4 -20l10 -8v-15l-4 -8l-4 -39l-12 -35l-25 -10l-51 -10l-29 -33l-67 -88l-15 -35l-32 -51l-90 -192l-45 -121l-21 -47l-22 -70l-25 -141l-8 -58l16 -39l2 -57l68 -29l69 -6l84 43l25 23l49 26l60 62l96 96l-15 25 l-63 90l-29 53l-30 88l-21 78l-16 82v92l-4 12l41 29h49l6 -16h33l6 -7l16 -59l19 -29l43 -92l18 -28v-11l8 -6l41 -65l12 26l19 78l27 133l4 49l4 11l8 125l-8 79l6 5l16 -46l15 -20l4 -4v-49l10 8l4 -8l-4 -41h12l4 -15l-6 -41v-65l12 -14v-17l-4 -22l13 -13v-28l-11 -41 l-10 -15v-12l6 -16l-14 -29l-2 -20l14 -35l-10 -55l-31 -56l86 -166l54 -94l40 -80l39 -78v-6l2 -37l7 -4l-2 -8l-13 2l-6 -22l-29 -19l-28 17l-10 -9l-17 11l-37 14l-2 12l-10 -4l-59 51l-70 76l-68 88l-6 -4l-4 8l-6 -10h-8l-8 -27l-50 -61l-22 -16l-10 -21l-41 -26 l-29 -19l-55 -31l-58 -16l-16 -12l-25 6l-4 -8l-20 2l-25 -13h-18h-68l-75 31l-48 23l-12 12l-49 61l-33 62l-26 84l-21 114l8 170l15 62l24 67l27 68l141 248l45 59l6 19l60 69l92 101l24 12l13 16l55 45l6 9h27z" />
<glyph unicode="R" horiz-adv-x="1089" d="M1141 154l-4 -4q-3 -3 -22.5 -9t-27.5 -14q-16 0 -18 2l-4 -6q-6 -2 -16 -2q-2 2 -7 2h-10q-7 8 -28 16.5t-56.5 22t-62.5 26.5l-37 13q-37 12 -186 88l-13 6l-153 70l-43 14l-19 -6q-8 -5 -24 -15.5t-25 -16t-23 -13t-28.5 -12t-30.5 -7.5l-6 -26v-17q0 -15 -5 -32.5 t-15.5 -44t-14.5 -37.5v-7l-24 -92v-2q-43 -74 -48 -82l-16 -16q-2 -2 -22 -2q-2 0 -10 4.5t-23 19t-29 33.5l-4 4v29q-4 4 -6 10v84q2 6 2 21q0 16 -2 24q7 23 16 115v4q0 15 17 78q16 56 19.5 87t10.5 60q8 29 32 128t50 184v12q1 1 5 7t6 11v15q0 21 24 77q1 2 3.5 9 t4.5 10.5t8.5 11t16.5 12.5t28.5 12t43.5 13q3 -1 9.5 -2t10.5 -2h25q10 4 28 6q50 29 135.5 71t114.5 42l5 1q5 1 13.5 3t19.5 4t23 4t23 4t20.5 3t14.5 1q42 0 98 -20l16 -7q70 -41 99 -114q14 -37 14 -78q0 -43 -8 -59v-6q-21 -51 -32 -64q-16 -20 -108 -81 q-68 -46 -110 -75l-70 -39q-60 -37 -61 -51q0 -6 4 -6l-18 -16q-15 -3 -15 -35v-10q-6 0 -6 -21l-2 -2q0 -5 41.5 -26t173.5 -90.5t287 -157.5q9 -6 15.5 -19t10 -22.5t5.5 -9.5v2zM868 981q-2 0 -9.5 2t-19.5 5l-20 5q3 3 -8 1q-9 -2 -40 -11q-74 -20 -91 -20 q-6 -4 -22.5 -12t-54 -29.5t-89.5 -57.5q-19 -12 -86 -155l-22 -91q75 19 151 52q6 4 23.5 10.5t36 16.5t66 50t114.5 107q22 22 39.5 53.5t24.5 51t7 22.5z" />
<glyph unicode="S" horiz-adv-x="980" d="M944 1090q1 -5 7 -34.5t9 -49t1 -19.5v2l-9 -24q-5 -15 -19 -19t-23 -0.5t-11 -1.5l2 -4q-12 -2 -45 -2q3 0 -2 1q-2 0 -10 2q-43 7 -43 11q0 6 -11.5 10t-26 6.5t-18.5 4.5q-6 -4 -24 -4q-19 0 -31 4q-2 -1 -7.5 -2t-8.5 -2q-6 -2 -60 -19l-14 -10q-8 -4 -14 -10 l-23 -12l-3 -5q-3 -5 -5 -6q-12 -10 -21.5 -18t-18 -18.5t-12.5 -16t-13 -19.5t-13 -20l-8 -14q-3 -6 -10.5 -20.5t-11 -21.5t-10 -24t-7.5 -28.5t-4 -33.5t2 -40q1 -11 9 -26.5t20.5 -34t17.5 -27.5q48 -42 137.5 -91.5t182.5 -113.5q1 -1 21 -20.5t29.5 -32t25.5 -35.5 t25.5 -49.5t12.5 -55.5q11 -83 -10 -137l-53 -80q-22 -15 -72 -31t-98 -20q-51 -7 -115 -4q-57 0 -78 4q-1 0 -19.5 3t-39.5 8t-31 10q-12 0 -18 2l-2 -2l-8 4q-26 5 -33 8l-18 4q-17 3 -34 7.5t-33 11.5t-18 14l-14 -6q-3 1 -8 4t-6 4l-23 20h-8q-6 0 -10 2h-13q0 4 -2 4 h-10q-1 1 -6 5.5t-8 5.5l-12 4v8q2 2 22 43l-4 4q0 6 12 19t39.5 26.5t59.5 13.5q23 0 51.5 -10t32.5 -10h12q72 -27 139 -39q33 -20 105 -20q19 0 43 22.5t24 42.5h8l21 12l4 17v14l-10 17l-13 12l-24 22l-15 7l-20 14l-41 22l-16 13q0 4 -11.5 12t-11.5 12 q0 13 -19.5 27.5t-65.5 43t-81 56.5l-28 35q-46 35 -65.5 71.5t-41.5 129.5q5 29 8 35q-1 2 -2 7.5t-2 8.5q16 77 53 186q0 16 23.5 41t23.5 33q5 6 10.5 20t24.5 29.5t70 48.5q49 34 79 51.5t41.5 22.5t36.5 11.5t44 13.5q24 9 77 17t76 13q6 0 10 -2q4 2 17 2q10 0 16 -2 q4 2 10 2q7 0 9 -2l24 -10q16 -4 29.5 -13.5t22 -18.5t28.5 -33z" />
<glyph unicode="T" horiz-adv-x="989" d="M1208 1065q-1 0 -16 -18q-13 -7 -57.5 -21t-87.5 -33h-43q-1 -1 -7.5 -5t-7.5 -5h-4q-1 1 -4.5 2t-5.5 2q-13 0 -23 -2l-6 -6q-2 1 -8.5 4t-11.5 4q-5 -1 -27 -6l-12 -6q-27 0 -45 -2l-11 -2h-49q-16 0 -26 -2h-13q-7 -7 -12 -20t-11.5 -45t-14.5 -72.5t-25.5 -121.5 t-40.5 -173q-4 -17 -22.5 -101t-37 -163.5t-28.5 -114.5l-7 -22q-8 -23 -13 -42.5t-5 -32.5v-43v-6q0 -13 -10 -55v-12q-9 -24 -14 -29q-2 -2 -31.5 -19.5t-30.5 -17.5h-2q-11 -7 -22 -10h-6q-2 -2 -4 -2h-5q-5 8 -9.5 60.5t-4.5 70.5q1 2 2 7t2 7q0 3 -2 10.5t-2 10.5v57 q0 8 3.5 33t4.5 39q-2 2 -2 10q1 33 15 150v12q1 3 2.5 8.5t3 11.5t2.5 11q0 6 -2 10q8 35 10 65l4 9q2 23 6 42.5t13.5 63.5t19.5 104q3 10 5 26.5t14 71.5t38 150q-4 0 -10.5 19.5t-9.5 19.5q-3 9 -5.5 13.5t-7.5 7t-8 3.5t-13.5 1.5t-16.5 1.5q-2 -2 -13 -2h-51 q-32 0 -50.5 0.5t-57 3.5t-64.5 10.5t-56 19.5t-49.5 33t-27.5 49q0 9 18.5 22t30.5 13q7 0 19 -6q32 12 94 12h35q1 0 13.5 3t20.5 4h7q10 0 16 2q13 -9 24 -11q4 1 15.5 2t17.5 2l92 -6q73 6 144 6q19 0 37.5 -1t48.5 -3t59 -4h-2q31 4 92 8q3 1 7 0.5t19.5 -1.5t31.5 -1 h57q31 0 72 -2q8 0 47 -7t51 -7q4 0 30.5 -22t26.5 -25z" />
<glyph unicode="U" horiz-adv-x="1128" d="M1208 1016q0 -6 -6 -41l-6 -33q-3 -21 -20.5 -75.5t-26.5 -90.5l2 4q-1 0 -3 -13t-15.5 -53t-38.5 -91q-5 -20 -15.5 -41.5t-37.5 -77t-60 -133.5q-15 -13 -54.5 -87.5t-60.5 -105.5q-2 -3 -12 -17l-20 -28t-32 -35t-48 -39l-23 -24q-2 -1 -15 -12t-25 -20t-15 -9 q-78 -68 -121 -64q-10 5 -14 9q-27 -21 -109 -13q-38 4 -82 31t-94 89t-82 147q0 6 -12.5 42.5t-11.5 40.5q0 5 -8.5 46t-8.5 51q-7 67 -2 121q0 1 2.5 17t6 36.5t9.5 51t13 60.5t17.5 65t21.5 64q46 117 93 182t73 62q8 -16 8 -18l6 12q0 -6 2 -6t2 6q-1 0 -2 -1.5t-2 -3.5 t-2 -3q2 0 4.5 -5.5t1.5 -8.5q0 -4 -2.5 -13t-3.5 -14q0 -10 8 -31q0 -4 -2 -6l1 -1q3 -2 7 -7t20.5 -28t39.5 -60q8 -28 12 -92l-4 -39q-2 -8 -6 -24.5t-6 -24.5l-3 -25q-2 -4 -3.5 -15t-4 -31.5t-4.5 -35.5q-4 -40 -4 -70q2 -4 2.5 -33t0.5 -55.5t3 -27.5q3 -2 16.5 -51 t24.5 -50q3 0 11 -31.5t14 -31.5h4q5 -1 11 -22t9 -21q3 6 6 6t8.5 -9t8.5 -9l2 -2q30 -15 35 -15q1 0 4 -1t4 -1q2 -2 8 -2q19 -2 32.5 1t34.5 16.5t46.5 49t54.5 93.5q-1 -4 1 0q21 37 64 170q38 118 42 176q3 11 0.5 27t-4 20.5t-8.5 23.5t-13 37l-2 29l2 6q0 11 8 11 l58 114q-2 0 24.5 36.5t53 73.5t24.5 38q1 0 20.5 8.5t30.5 7.5q2 -2 10 -2q4 -1 13 -1t12 -1q5 0 8 -3l4 -3q5 -1 25.5 10t23.5 10q6 0 10.5 -12.5t6.5 -13.5l6 4q4 0 4 -4q0 2 -2 2v-2q9 -1 13.5 -14.5t2.5 -22.5z" />
<glyph unicode="V" horiz-adv-x="960" d="M1049 1401q-6 -6 -43 -113l-45 -135q-2 -3 -8.5 -13t-8.5 -14t-9.5 -21.5t-16 -42.5t-24 -68.5t-36.5 -106.5l-12 -56q-3 -14 -7 -33q-8 -43 -64 -223q-6 -18 -18 -58l-1 -1v-1v-1l-1 -1v-1v-1v-1l-1 -2q-15 -37 -15.5 -46.5t-1 -15t-36.5 -85.5t-117 -252 q-17 -51 -47 -73t-58 -22q-13 0 -21 1t-13 2t-19.5 4.5t-30.5 7.5l-10 4q-10 2 -35 20q-59 43 -74 115q-15 60 -23 108.5t-20 96.5q-3 30 -79 602l-10 34q-9 34 -9 42q0 14 3 22t11.5 10.5t11 3t13.5 0.5q44 -15 89 -64q79 -87 95 -232l17 -72q7 -30 13 -82.5t9 -67.5 q-2 -2 -2 -4q3 -20 7.5 -47t7 -45.5t4.5 -32.5q0 -47 10 -92q15 -65 16 -65q10 0 20 13t26.5 49t32 74t47.5 116t61 147l10 20q11 30 99.5 249t90.5 223q32 63 45 104q1 3 14.5 30.5t24.5 45.5t17 18q-1 0 19 9t41 17l20 9h6q5 0 26 6q3 -3 9 -12z" />
<glyph unicode="W" horiz-adv-x="1247" d="M1434 1292l4 -8l-4 -8h-7l3 -10l-13 -13v-12l-16 -18l-4 -19l-17 -41l-22 -90l-10 -12l-37 -94l-25 -33l-14 -55l-72 -185l-18 -24l-15 -37l-20 -68l-27 -49l2 -8l-26 -78l-25 -27l-20 -32l-13 -35l-28 -51l-64 -144l-37 -57l-22 -51l-13 -4l-2 -15l-10 -10l-12 -27 l-23 -18l9 -10l-17 -19h-14v-6l-31 -10h-18l-6 8l-29 8l-12 23l-9 51l-32 129l-21 197l10 112v207l31 279l-8 33l-25 -37h-10l-14 -29l-29 -35l-41 -78l-29 -73l-20 -56l-37 -63l-6 -47l-10 -8l-4 -48l-13 -16l-30 -141l-17 -45l-6 -39l6 -10l-12 -19l4 -31v-71l-10 -45 l-12 -25v-12v-33l-15 -27h-22l-27 -14l-22 -25l-41 -4l-11 7l-61 36l-2 37l-39 115l-49 246l-2 37l6 34l-10 37v68v84l8 82l12 61l21 150l6 16l10 39l27 86l18 18l37 4l31 -8v-6l26 -8v-25l10 -118v-48l11 -47l28 -229v-164l21 92l29 70l57 106l20 31l31 70l43 63l45 80 l35 33l2 6l43 43l35 12h65l47 -12l25 -67l6 -39v-31l-14 -197v-88l-4 -63l-19 -181l6 -10l-10 -12l8 -16l-12 -125l8 -9l-4 -22v-59l21 30l73 154l89 211l26 51l27 35l14 49l31 49l4 21l18 32l31 70l10 8l135 221v33l72 101h6l8 24l15 19v6l55 61l12 -2v-6z" />
<glyph unicode="X" horiz-adv-x="950" d="M356 1116h4l35 -26l35 -56l47 -86l37 -84l31 -59l98 121l98 100l60 45l4 8l22 11l33 4l33 -2l10 -9l31 -49l10 -30l-4 -43l-6 -7l-16 -45l-27 -55l-25 -33l-2 -8l-16 -18l-84 -119l-12 -8l-62 -88l-4 -29l49 -98l70 -148l102 -188l35 -58l-2 -24l-16 -6h-13l-20 -21 l-23 25l-293 334l-32 12h-11l-110 -137l-90 -103l-37 -51l-31 -29l-41 -61l-6 -4l-49 -70l-25 -6h-16l-25 -12l-6 -8h-39l6 8l19 80l70 178l61 121l94 170l8 8l13 26l88 136v10l-35 67l-35 76l-47 154v80v71l18 25l17 4l20 -12l4 6z" />
<glyph unicode="Y" horiz-adv-x="841" d="M987 1290l19 15l28 14l2 -19l-28 -49l-13 -28l-41 -62l-14 -28l-293 -435l-10 -24l-35 -58l-14 -16l-19 -35v-6l-8 -6l-12 -21l-23 -38v-11l-24 -157l-8 -17l-17 -135l2 -18l-16 -101l-6 -12l-2 -25l-9 -28l-12 -31l2 -14l-8 -17l-22 -16l-74 -8l-49 16l-25 53l-12 62 v141l8 100l14 66l29 150l6 55l-96 125l-47 84l-39 59l-19 55l-8 93l17 30l39 37l18 -10l8 -10l12 14l45 -16l27 -27l68 -84l34 -51l66 -111l23 -51l26 31l33 61l41 58l6 4l14 24l113 137l131 150l55 53l60 53l35 17z" />
<glyph unicode="Z" horiz-adv-x="1427" d="M930 1159q74 0 110 -8q1 -1 10 -3.5t28.5 -12.5t41.5 -27q3 -5 8 -10t7.5 -10t5 -23.5t2.5 -50.5l-2 -5q-2 -5 -7 -15t-12 -23.5t-16 -29.5t-18.5 -32.5t-21.5 -34.5t-24 -34l-18 -25q-4 -4 -11.5 -12.5t-21 -24t-24.5 -28.5l-27 -31q-71 -81 -383 -365q1 -1 3 -2t3 -2 q3 1 23 6q1 -1 3 -2t3 -2q-2 -2 -2 -4q2 -2 8 -2h25q1 0 12 -3t23 -7t16 -8q60 19 137 37q31 5 77 18t175 33l65 10q6 -1 19.5 0t36.5 2.5t45 1.5h35q1 0 24 0.5t42 -4.5t32 -18q-1 -1 -2 -3.5t-2 -3.5l-4 -4q8 1 92 15l6 -6q6 -5 10 -5l-63 -30q-18 -9 -23 -11q2 0 2 -2 q0 -7 -45 -24q0 6 -2 6q-7 0 -17.5 -22t-28 -44t-42.5 -22q-3 -1 -106 -33l-11 -10q-5 -1 -30.5 -9t-59.5 -16l-202 -73q-53 -34 -183 -66q-59 -37 -291 -92l-26 -8q-50 -6 -62 -6t-57 10l-49 12q-52 23 -90 78l-15 31q0 18 48 92q35 32 39 38q16 21 237 232l129 123 q31 25 107 107q18 15 41 34.5t34.5 29.5t40 40.5t74.5 81.5q34 27 49 53h-2q-15 0 -36.5 8.5t-51.5 8.5q-16 0 -39 -6t-68 -20t-83 -24q-11 -4 -25.5 -10.5t-26.5 -9t-52 -10t-124 -21.5h-26q-1 0 -6.5 1.5t-7.5 2t-8.5 2.5t-10.5 4.5t-11 6.5t-13.5 9t-15 12.5t-17.5 16.5 h2l-9 9q2 6 2 22l-6 43q-3 21 -4 21v-4l41 20q0 5 23 21t30 16q9 2 277 84q6 0 8 -2q19 11 170 41z" />
<glyph unicode="[" horiz-adv-x="739" d="M840 1290q-4 -5 -14 -11t-15 -10.5t-2 -8.5v-3l-6 -6q-14 -47 -64 -88q-7 -5 -47 -35q-15 -6 -33 -18q-11 -4 -71 -35q-19 -39 -49 -86q-110 -253 -144 -352l-8 -8q-1 -4 -2 -15t-2 -16q-3 -7 -11 -22.5t-12 -24.5q-60 -181 -84 -289q-13 -58 -16 -143q0 -14 9 -30 t26 -23q21 -16 51 -29q29 -13 29 -17q36 -18 90 -69l6 -12q-2 -4 -2 -13v-6q-6 -6 -6 -20v-11q-6 -12 -6 -28l-11 -56l-6 -6q-80 -9 -153 33q-48 28 -119 105q-30 51 -35 112q-2 18 -2 70q0 9 5 44.5t5 43.5q2 58 64 295q59 219 88 291q48 125 117 284q-3 3 0 13l-9 16 q0 28 29 78q3 13 19 35l16 16q58 45 74 59q26 33 59 64q6 3 18 6h13q8 0 14 2q21 18 59 18q40 0 48 -8q7 -3 21 -11.5t17 -10.5l50 -49q2 -2 2 -15z" />
<glyph unicode="\" horiz-adv-x="837" d="M264 1417l25 -16l41 -31l41 -57l82 -148l79 -159l95 -242l67 -211l51 -199l25 -151l18 -178l-2 -125l2 -60l-10 -35l-22 -10l-19 -2l-22 35h-6l-11 22l-10 60l-16 43l-29 135l-8 27l-19 14l-14 59l-8 17l-12 53l-9 27l-26 88l-17 20l-4 41l-8 33l-8 6l-21 66h-6l-26 88 l-95 252l-73 157l-47 111l-39 100l-19 66l4 24v25l9 24l41 31h26z" />
<glyph unicode="]" horiz-adv-x="735" d="M412 1378q6 9 10 13l65 16h45q20 4 51.5 -18t37.5 -43q2 -2 5.5 -5t4.5 -4l12 -6q8 -8 12 -16q19 -63 21 -84q19 -54 33 -88l6 -23q2 -21 -2 -39q3 -53 -13 -82l-16 -10q-2 -6 -6 -10q-12 -131 -41 -305q-12 -81 -70 -295q-59 -228 -92 -289q-31 -67 -35 -80 q-14 -26 -37 -59q-41 -60 -86 -80q-103 -33 -165 -33q-73 0 -140 49l-2 9l19 53q7 11 10 28l4 9q9 12 6 20l2 6q2 2 7 9t10 10q34 9 69 12q36 4 43 4q25 2 66 -2q3 3 26 0q40 -3 56 29q39 74 57 133q37 117 72 291q4 40 4 53q8 14 12 29l-2 10q27 136 51 377v100 q-13 24 -45 66q-6 12 -18 32q-20 45 -23 54q-18 47 -18 63l6 43l-2 10q4 8 4 11q1 1 -3 7.5t-8 14t-3 10.5z" />
<glyph unicode="^" horiz-adv-x="1566" d="M586 662l100 -5l47 -10l29 -14l18 -31l21 -49l-2 -23l-6 -30l-15 -23l-6 -6l-67 -98l-152 -166l-18 -17l-19 -12l-39 -37l-6 -20l182 67l133 37l170 27l156 8l154 -10l84 -10l159 -31l105 -29l106 -26l19 -25l2 -16l-41 -13l-8 -4l-27 -6l-59 14l-50 5l-69 -3l-29 9 l-8 -13l-139 13l-17 -9l-104 7l-37 -11l-47 -2l-21 -6h-24l-66 -12l-51 -4l-70 -19l-32 -10l-70 -22l-24 -7l-86 -34l-156 -56l-135 -55l-90 -35l-76 -18l-43 2l-27 -6l-22 10l-2 22l-9 7l-6 20l6 29l19 47l51 49l473 508l-135 -18l-156 -33l-188 -58l-49 -6l-17 19l-18 -4 l-21 20l-6 16l2 39l25 39l27 15l24 12l21 20l24 2l201 60l147 24z" />
<glyph unicode="_" horiz-adv-x="1024" d="M1028 -354l4 -13l-20 -10l-29 -10l-20 -2l2 -10l-19 4l-4 -8l-31 2l-28 -11l-2 -10h-9l-2 -6l-73 2l-17 -2l-6 2l-6 -8l-39 -2l-29 6l-2 -8l-57 4l-27 -2l-34 -10l-23 -5l-14 -4h-4l-9 2h-20l-21 -2l-14 6l-14 -2l-29 -2l-10 4l-29 -12l-16 2l-19 -4l-30 2l-29 -6l-29 2 l-8 -4l-33 -2l-16 -6l-53 -15l-31 9l-49 20l-29 -18l-10 6l-16 8l-17 18l-2 19l-12 35l4 22v19l25 24l12 23l16 4l10 -4l84 22l48 11l22 -5l64 7h45l55 6h20l4 4l9 -2l30 -2l72 -6l117 -9l301 -45z" />
<glyph unicode="`" horiz-adv-x="690" d="M588 1167q-3 -15 -4 -16l-4 -4h-7l-6 -6h-4q-9 -6 -26 -6q-24 0 -56 14q-16 5 -49 20q-54 24 -100 60q-72 54 -92 67q-36 30 -45 37q-16 20 -33 37q-3 3 -19 35q-14 22 -14 45l2 2q3 33 21 33q47 1 43 4q10 0 18 -2l12 -4q6 -3 15 -6q1 -1 3 -2t3 -2l10 -5q7 -3 10 -10 q17 -15 70.5 -61t89.5 -78q3 -3 35.5 -32.5t48.5 -45.5q78 -72 78 -74z" />
<glyph unicode="a" d="M879 612q0 -2 -8.5 -21t-8.5 -24q-1 -7 -3.5 -28.5t-4.5 -36.5q-14 -14 -30 -60.5t-36.5 -114.5t-37.5 -108q-21 -50 -39 -166l-27 -170q-2 -10 -2 -33q0 -31 4 -49q-9 15 -43 49q-31 31 -40 58t-9 80q0 81 14 121q-9 12 -18 12q-7 0 -14.5 -4.5t-21 -17.5t-29.5 -28.5 t-47.5 -44.5t-67.5 -59q-10 -31 -45.5 -55.5t-145.5 -81.5q-41 -47 -84 -47q-4 0 -19 8.5t-34.5 28t-26.5 43.5q-9 31 -42 82t-33 94q0 35 20 108q22 8 57 43q2 11 3.5 17.5t3.5 13.5t7 16.5t9.5 17.5t15.5 25.5t20.5 32.5t29.5 46t38 59q21 16 46.5 57.5t68.5 79.5 q95 128 158.5 190t113.5 62q33 0 84 -51q20 0 31 -7.5t34.5 -22t67.5 -26.5l32 -15q59 -35 59 -73zM647 580q-1 0 -9 -3.5t-9 -3.5q6 -6 12 -8q1 1 6 15zM614 541q0 24 -20 24q-17 0 -64 -41q-33 -20 -83.5 -74t-182.5 -208q-2 -3 -19.5 -29t-34.5 -52.5t-36 -57.5t-31 -55 t-12 -34q0 -16 14 -16t37.5 20t65.5 60t76 67q5 9 14.5 19.5t21.5 22t43.5 42t65.5 64.5q0 16 39.5 76.5t64.5 79.5q38 92 41 92z" />
<glyph unicode="b" horiz-adv-x="845" d="M862 354q-3 0 -12 -2t-12 -2q0 15 18 15q6 -6 6 -11zM899 479q0 -24 -5 -31t-32 -14q10 -10 10 -24q0 2 -6 8v-23q0 -8 -6 -8q-4 2 -12 2l6 6q-2 -2 -8 -6l-23 -16q12 4 29 4q-7 -3 -13.5 -12.5t-10.5 -18t-5 -8.5t-3 2t-3 2q-2 -4 -2 -8h16q0 -2 -2 -2q9 -3 9 -13 q0 -4 -4 -8q0 1 -7 8q-1 -1 -14 -24l-6 10l8 8l-14 -4q0 -3 4 -10.5t4 -9.5t-4 -6q2 0 2 -4q0 -5 -12.5 -20.5t-12.5 -20.5l-170 -170q-45 -25 -98 -72q2 -6 2 -29q-4 -3 -121 -82q-6 -3 -27 -15.5t-45 -23t-49 -14.5q-20 -20 -41 -20q-2 0 -38 4l-48 6l-11 14 q-10 13 -25 26.5t-25 14.5q-10 22 -31 53q5 0 29.5 -10t30.5 -10q7 0 22 9t23 9q98 0 205 82q102 77 174 172q206 184 231 314q14 14 14 16q0 4 -4 16l-8 19q-4 4 -12 4l4 8q4 8 4 10v4q-1 0 -3 -3t-3 -3q3 0 -2 4q-3 2 -6 2q-7 0 -11 -2l11 -6q-2 0 -2 -2q0 -6 2 -8 q-3 0 -15 -3t-16 -3t-20.5 6t-20.5 6q-61 0 -174 -43q-44 -32 -84.5 -54t-57.5 -29.5t-36.5 -26t-35 -49.5t-40.5 -93q2 -2 2 -4l-4 -16q-23 -33 -60 -81t-64 -86t-48 -77q2 -4 2 -22q-22 -31 -37 -31q-23 0 -84 49q3 10 6 10q-26 20 -26 39v55q0 23 54 109.5t54 97.5 q0 73 6 88l13 13q3 28 38 84q32 51 60.5 159.5t48 212.5t23.5 115q0 2 9 12.5t9 18.5t-6 14q0 1 10 22t10 29t-6 17q0 1 17.5 22t17.5 29q0 4 -4 12q28 20 55.5 61t67.5 121v33q3 43 47 144l-4 -488q0 -3 -7.5 -13t-7.5 -14v-20q0 -46 -18 -165t-33 -179q-1 -3 -12.5 -28.5 t-11.5 -30.5q0 -17 18 -29q168 149 311 149q18 0 31 -1t24 -1.5t20.5 -5.5t16 -7.5t14.5 -13t13 -15.5t13.5 -22t13.5 -26.5t17.5 -35t19.5 -40.5l2 -20l5 -2q5 -2 7 -8t2 -21zM717 586q-4 2 -10 2q-11 0 -11 -13q3 0 21 11z" />
<glyph unicode="c" horiz-adv-x="677" d="M745 113l-28 -11q-65 -47 -121 -88q-62 -45 -186.5 -109.5t-163.5 -64.5q-24 0 -34.5 1.5t-27 11t-32 31t-37.5 59.5q-23 27 -35 42t-36 53.5t-36 73t-20 86.5t-2 107q5 64 22 115l5 4q5 5 13 12.5t16.5 18t17 26t12.5 31.5q61 54 69 147q8 7 16 9.5t14.5 8.5t34 44 t77.5 115q53 3 67 7.5t25 20.5q105 -43 211 -166l-4 -34q-4 0 -22 -4.5t-23 -4.5q-7 0 -33 9.5t-33 9.5q-82 0 -199 -234q-100 -195 -106 -264q-12 -118 9.5 -157t111.5 -39q73 0 176.5 45.5t187.5 101.5q2 1 11.5 8t16.5 12.5t19 17.5t22 25t21.5 33.5t20.5 44.5l20 -94z " />
<glyph unicode="d" horiz-adv-x="1038" d="M1143 1034q-7 -56 -11.5 -77.5t-30 -86.5t-83.5 -186q-58 -125 -92.5 -187t-63 -103.5t-53.5 -86.5q-4 -32 -14.5 -68t-18.5 -58.5t-8 -24.5q0 -105 102 -105q5 0 22.5 2t22.5 2q22 0 33 -8q18 0 35 14q0 -19 8 -55q-8 4 -14 8q0 -7 -6 -16q-50 -19 -81 -28t-40.5 -10.5 t-28 0t-26.5 1.5q-17 0 -29.5 5t-21 12.5t-20 28t-19.5 38.5t-26.5 59t-35.5 76q-2 2 -10 2q-11 0 -21 -10q-13 -12 -52.5 -48.5t-62 -56.5t-59.5 -50.5t-74 -55.5t-77 -47q-2 -1 -9 -1t-16 -8t-29 -32h-10h-7h-12t-14.5 0.5t-16.5 1.5t-17 3t-18 5t-17.5 8t-16.5 10.5 t-13.5 14t-10.5 18.5q-51 66 -51 107q0 86 47 127q8 72 125 223q3 2 11 5t13.5 7t17.5 22t27 50q19 8 32 19t21.5 24t32.5 40.5t56 57.5q32 16 86 74q-9 0 -9 2q0 5 54 19t59 14q25 0 80 -14q14 -14 34.5 -22t78.5 -21q5 12 34 77t91 224q1 5 6.5 28t10 38t12 34t17 29 t21.5 10q4 0 24.5 -8t24.5 -8q9 0 13 4q12 -21 43 -41.5t49 -20.5h2zM735 563v15q-20 10 -22 10q-13 0 -33 -13l-25 -16q-42 -16 -202 -158q-13 -12 -30 -34t-32 -31q-79 -79 -141 -160.5t-87.5 -127.5t-25.5 -58q0 -5 5 -13l5 -8h13q23 9 43 16.5t30.5 11.5t19 6t17.5 7.5 t15.5 9.5t23.5 17t31 24t48 37.5t67 51.5q9 12 24 30l31 21q6 12 20 26q18 7 30 19t36 42.5t49 57.5q27 15 42 45.5t26 108.5q1 4 6.5 19.5t10.5 29t5 14.5z" />
<glyph unicode="e" horiz-adv-x="866" d="M817 608q0 -51 -18.5 -94t-47 -70.5t-66 -49t-72.5 -33t-70 -18.5t-54.5 -9t-29.5 -2q-155 0 -201 37q-78 -128 -78 -195q0 -14 29 -57q28 -38 42.5 -46t70.5 -14q1 -1 7.5 -5.5t12.5 -8t16.5 -7.5t24.5 -6.5t31 -2.5q69 0 192 57q40 19 83 46.5t67.5 45t29.5 17.5t15 -5 q-3 -25 -19 -69l-11 -13q-11 -12 -24.5 -27.5t-37 -37.5t-49 -42t-60 -41t-70 -36.5t-78.5 -25t-87 -9.5q-60 0 -135 62.5t-134 136.5q-45 57 -65.5 140.5t-20.5 140.5q11 23 27 90q0 7 4.5 11.5t10.5 8.5t14 20t14 42q16 10 28 39.5t48 58.5l37 31q29 39 100 110l63 35 q32 14 39 47h17q4 0 22 -15t23 -16q38 -6 75.5 -11.5t52 -8t15.5 -2.5q72 -18 144.5 -81.5t72.5 -117.5zM555 639q-25 25 -37 25l-59 -37q-37 -21 -68 -49t-45.5 -46t-44 -60t-41.5 -58q11 -3 22 -6.5t15.5 -5t5.5 -1.5q21 0 103 52q28 18 50 34.5t36.5 32.5t24 27 t16.5 26.5t9.5 22.5t7 23t5.5 20z" />
<glyph unicode="f" horiz-adv-x="864" d="M575 518q-12 -4 -14 -4q0 18 8 21q6 -3 6 -17zM1090 1399l-21 -111q3 -12 16 -12h5q-22 -46 -97 -92q8 8 8 16q0 20 -32 45q-62 -27 -62 -63q0 1 -20.5 -27.5t-41 -58.5t-20.5 -33q0 -2 3 -6.5t3 -5.5q-14 -13 -28 -27l-27 -27q4 -4 4 -10q0 -23 -10 -41 q-19 -3 -27.5 -10t-42.5 -45q13 -8 31 -8q-9 -9 -15.5 -17.5t-12 -16.5t-21 -31.5t-33.5 -49.5l21 -10v-15q-18 -7 -41 -20q2 -4 2 -18q-1 -1 -5.5 -4.5t-7.5 -6.5q5 -5 5 -12q0 -18 -52 -74q4 -8 4 -18q0 -2 -35.5 -50t-35.5 -57q0 -4 18 -16q18 3 25 16q12 -6 12 -10 q0 -7 -8 -12l8 -6l45 18q6 19 35 33.5t33 25.5l9 7q88 62 89 94q0 4 -6 10q43 -38 50 -51.5t7 -48.5q0 -21 -4 -37q1 4 -4 -2q-4 -7 -24 -36q-120 -181 -156 -189q0 20 10 20q-14 5 -19 16t-3.5 21t-3.5 18t-19 8q-15 0 -100 -49q-40 -22 -59.5 -34.5t-29.5 -24t-11.5 -18 t-5.5 -24.5t-11 -36q-13 -7 -20 -25t-9.5 -38.5t-15.5 -47.5t-37 -47q2 -2 2 -8q0 -10 -20 -43q9 -2 41 -16v-10q-18 -3 -33.5 -14.5t-27 -27t-22.5 -42t-18.5 -48.5t-16.5 -57t-14 -59t-13 -63t-13 -60q-62 -38 -92 -133q-8 -4 -15 -4q-26 0 -26 14q0 9 21.5 116t21.5 136 q0 186 -49 340q-3 11 -84 49q-3 6 -7 10.5t-12 10.5t-15.5 11t-24.5 16.5t-32 21.5q3 25 46 100q15 -18 32 -18q4 0 24 5t25 5q4 0 6.5 -2t6.5 -2q6 0 23.5 6.5t40.5 15.5t36 13q2 1 51 9.5t94.5 23t69.5 36.5v6q0 17 2 27q53 95 53 137q11 3 19 12.5t13.5 27t8.5 33t8 43.5 t9 46q55 44 55 68q0 9 -2 21t-2 13q5 4 13.5 11.5t22 30t13.5 44.5q0 7 -4 14.5t-10 8.5q26 26 47.5 67.5t66.5 143.5q35 12 35 41q0 8 -2 14q62 95 160 287q1 0 19.5 12.5t33.5 20.5q53 -35 66 -35h6q0 2 6 2h-2q0 -11 150 -47zM297 -125h-6l-6 12l6 2zM705 379 q-50 -41 -50 -57q0 -5 2 -7q5 7 22 29t26 35zM539 444q0 8 -7 15q-14 -14 -18 -17q6 0 12 2h13zM233 174h-18q-37 -6 -68.5 -32t-31.5 -56q0 -8 2 -10q-10 -13 -13 -13v9q1 1 2 -22.5t2 -49.5t1 -37q0 -5 -10.5 -19.5t-10.5 -47.5q0 -47 21 -68q6 5 12.5 16t11 22t13 34.5 t14.5 38.5v38q0 23 20 37q-4 8 -4 13q0 7 8 22t22.5 48t26.5 77z" />
<glyph unicode="g" horiz-adv-x="985" d="M-59 164zM788 809q-2 0 -2 2q2 0 2 -2zM987 104l2 -12l-33 -37l-4 -2l-4 -8l-22 -20l-19 -17l-2 -6l-39 -33l-28 -22l-25 -17l-35 -24l-20 -12l-56 -33l-12 -4l-35 -21l-51 -29l-10 -8h-4q-11 -31 -19.5 -62t-13 -46t-10.5 -23q4 -5 -11 -52l-14 -48q0 -8 -10 -29 t-10 -22q1 -9 -0.5 -18t-3.5 -14l-2 -5q-10 -10 -40 -60.5t-40 -76.5q-5 -2 -34 -46t-32 -45q-12 -25 -25 -47.5t-23 -40t-25 -38.5t-23 -32.5t-26 -32.5t-24.5 -29t-29 -31.5t-28.5 -29.5t-33.5 -34t-34.5 -35q-24 -8 -86.5 -52t-83.5 -44q-60 0 -86 16q-4 28 -4 50 q0 55 14 112v8q0 28 12 74q217 390 404 580q18 36 78.5 98t66.5 98l4 2q-4 41 4 80q1 5 16 36.5t15 35.5q0 13 -14 27q-21 -5 -72 -50q-74 -67 -129 -90.5t-117 -23.5h-21q-32 -1 -46 0.5t-35 9.5t-34.5 26t-31 50.5t-36.5 83.5l-15 14q0 7 17 16l-12 15q-13 15 -13 20 l33 29q0 2 -6 2t-10 -2l-5 -2l19 37q12 -15 20 -15q2 2 2 19q8 -10 10.5 -4t4.5 6q-5 -5 1 -3q4 2 11 5l-8 10q-12 6 -3 11q-3 1 -5 1v31l6 -4q12 -4 14 -4q16 0 16 -2l4 8q0 1 2 5q2 6 -2 7l9 7l4 36q4 0 8.5 3.5t8 8.5t5.5 10l4 10l2 5l3 7q3 6 2 8v16q7 2 10.5 6t5.5 15 t2 12q1 6 3.5 11.5t5 10.5t7.5 11t8 10.5t10.5 11.5t11.5 11t14 13t15 13t17.5 15t18.5 16q12 21 50 51.5t40 48.5q18 8 53 39q-2 6 -2 20q10 8 48.5 38t55.5 42.5t47.5 33t54 30t44.5 12.5q1 0 22 14.5t27 14.5h96q38 0 98 -29q-1 0 -13 -10.5t-27 -19.5t-27 -9q-4 0 -9 2 t-8 2q-30 0 -60.5 -11t-53.5 -24t-57 -45t-54 -53t-64.5 -70t-68.5 -75q-48 -57 -266 -381q-3 -11 -7.5 -28t-11.5 -42t-12 -45q4 -4 4 -6q0 -4 -4 -12t-4 -9q5 0 11 15l5 14q2 -1 23 -29q8 0 8 5l-4 8h16q75 0 127 23t217 130q40 18 56 41t37.5 77t54.5 106q35 78 61 114.5 t49 61t44 65.5q-3 6 -3 23q4 18 46 47q26 -20 86 -55q-13 -10 -13 -17q0 -10 10.5 -24.5t10.5 -18.5q0 -7 -15 -47q-5 -16 -11 -36t-8.5 -28.5t-8.5 -21.5t-14 -25.5t-21 -29.5q-42 -56 -52 -84.5t-16.5 -63.5t-36.5 -90q-1 -2 -3.5 -13.5t-5.5 -22.5t-10.5 -33.5 t-18.5 -49.5h2l-2 -2q-5 -14 -19 -47t-22 -53l10 4l88 41l29 16l18 7l14 12l17 6l14 8l59 31l27 16l29 21l8 2l39 22zM281 -573l127 297q-21 -4 -121.5 -120t-108.5 -141q-34 -3 -58 -47t-74 -176q-5 -12 -7 -18q-31 -46 -53.5 -85.5t-30.5 -59.5t-8 -27q9 -66 37 -66 q5 0 66 69.5t73 88.5q23 34 89 152.5t69 132.5z" />
<glyph unicode="h" horiz-adv-x="1058" d="M1143 84q-2 -5 -5.5 -21.5t-9 -29t-17 -28t-35.5 -26.5t-58 -16l-68 -24q-52 0 -97 22.5t-70.5 54.5t-39.5 61t-14 46q0 10 8 22q-8 108 -20 174v5q0 2 -8 2q-15 0 -22.5 -15t-9.5 -33t-3 -20q-2 2 -9 7t-12 9q-12 -13 -30.5 -52.5t-41.5 -91.5t-36 -77 q-11 -32 -19.5 -51t-15.5 -30t-25 -40.5t-39 -68.5h-26q-13 0 -69.5 55t-59.5 70v45q-10 10 -21 12q-13 31 -26 90.5t-13 102.5v26q-2 2 -12 2l-76 -47q-1 1 -6 4.5t-10 5.5q-5 -2 -7 -5.5t-9 -16.5t-21 -29q-2 2 -12 2q-19 0 -41 -16t-78 -66q-12 8 -35 31q1 26 22 55 t48 52.5t85 74t105 95.5q2 1 9.5 6.5t9.5 6.5t9 6.5t9.5 8t9.5 8t11.5 10.5t12 12.5t14 15.5t15.5 18t19 22q0 3 -2 10.5t-2 10.5q0 8 1 15.5t4 16t5.5 14t9 18.5t9.5 20q-6 12 -9 34l39 152q25 85 62 154q2 2 2 12q0 9 -3 31t-3 24q0 18 37 70q8 27 19.5 45.5t53.5 66.5 q-2 8 -2 35q8 39 129 248q8 5 33.5 27t51.5 38.5t61 32.5q11 0 20 -18h21l32 25l29 -17q27 43 41 43q2 0 46.5 -25.5t45.5 -25.5q5 0 8 2t7 2q31 0 56 -57t25 -113q-18 -32 -44 -75t-64.5 -106.5t-67.5 -111.5q-14 -7 -49 -28q-1 -1 -3 -10.5t-5 -13t-15 -11.5t-34 -17 q0 -5 11 -14l11 -8q-6 -2 -12 -2q-8 0 -10 2q-27 -17 -27 -45q0 -13 2 -19q-19 0 -44 -18.5t-25 -36.5l6 -12h-45q-5 -25 -14 -42t-50 -73q-6 -16 -61.5 -95.5t-109.5 -166.5t-60 -129l-37 -246q0 -1 -0.5 -6t-1 -14t-0.5 -19q0 -1 -1.5 -18.5t-0.5 -30t4 -29t13 -25.5 t26 -9q17 0 27.5 17t20.5 51t21.5 74.5t38.5 97.5t64 110q24 16 39 40.5t24 49.5t40 69.5t81 92.5q7 21 35 41t49 20q8 0 61.5 -20.5t59.5 -26.5q-16 -90 -42 -200t-42 -178.5t-16 -88.5q0 -38 15 -56t52 -18q20 0 54 9q14 27 116 118q6 -23 23 -100zM881 1372 q-32 -6 -70 -33q-12 -20 -107.5 -122t-109.5 -130q4 -6 4 -12l-14 -39q-15 -38 -49 -133t-72 -209q168 198 299 434q26 16 48.5 54t34 70t24 75.5t12.5 44.5z" />
<glyph unicode="i" horiz-adv-x="520" d="M651 928q0 -4 -13.5 -29.5t-14.5 -30.5q-71 -65 -99 -65q-26 0 -60 77t-34 121q0 36 15.5 87t33.5 51t79.5 -62t64.5 -78q1 -6 14.5 -34.5t13.5 -36.5zM403 465v-19q0 -30 -7 -53.5t-14 -36.5t-33 -49.5t-42 -62.5q-6 -24 -13 -54.5t-10.5 -42.5t-11.5 -35.5t-23 -53.5 t-36.5 -74t-60.5 -119q-41 0 -77 66.5t-46 136.5q-1 7 -17 25t-16 52q0 25 22 53t31 70q21 68 34.5 89t84.5 92q15 15 18 45q62 41 82 41q12 0 135 -70z" />
<glyph unicode="j" horiz-adv-x="557" d="M604 899q-38 -14 -61 -14q-9 0 -68 52t-80 79q0 21 -26 57q17 17 28 17q78 0 99 -7q25 -9 63.5 -59t38.5 -74q0 -1 -1 -3t-1 -3q8 -19 8 -24v-21zM451 692v2q-2 0 -17 -61q2 -18 2 -53q-3 -56 -25.5 -165t-50.5 -192q-1 -2 -13 -39.5t-20 -59t-27 -66.5t-42 -91 q-1 -2 -3.5 -23t-22 -71.5t-64.5 -144.5q0 -9 -2.5 -20t-8.5 -28t-11 -29t-16.5 -39.5t-18.5 -43.5q0 -3 1 -14t0 -16t-4 -14.5t-12 -19t-24 -20.5q4 -28 4 -37t-6.5 -20.5t-18 -29t-18.5 -32.5h2v-22q0 -19 -8 -19q-1 0 -10.5 27.5t-10.5 27.5q-2 0 -2 -8v-20q16 4 23 4 v-17q-7 -4 -35 -42t-35 -41q16 -29 16 -41q-34 -70 -34 -80h-19q-45 0 -82 23t-37 63q0 16 2 18q8 13 13.5 36.5t7 43t3 39.5t1.5 22q2 4 8.5 16t10 19.5t10.5 24t15 41t19 59.5q2 6 6.5 24.5t6.5 25.5t7 24t10.5 30t14 33t19.5 43t25 50q0 17 17 57.5t30 93.5 q10 15 14.5 28.5t20.5 58.5t44 112q2 2 20.5 6t18.5 16q0 3 -11 17t-11 18t13.5 37t13.5 37q0 16 -23 16q-10 0 -57 -47l-50 -49q-49 -36 -153 -84q-4 0 -4 10q0 4 8 17t8 16t-8 12t-8 13q0 16 31 47l36 28q-1 1 -2 4t-2 5q39 49 180 196q7 1 36.5 34.5t66 88.5t55.5 102 q3 25 12 39.5t27.5 20.5t32.5 7t42 1h9q7 -2 64 -35z" />
<glyph unicode="k" horiz-adv-x="858" d="M567 1204h11l26 -26l4 -64l-20 -59l-21 -35l-18 -51l-31 -56l-49 -118l-23 -45l-36 -95l-17 -41l99 52l90 30h39l53 -30l10 -29l-6 -57l-21 -29l-4 -16l-51 -37l-90 -64l-49 -24l-41 -31l-105 -55l334 -199l109 -76l10 -12l33 -25l108 -78l27 -36l2 -17l-12 -4l10 -12 v-15l-27 11l-16 -2l-23 12l-30 6l-94 41l-328 158l-172 108l-6 -16l-47 -139l-2 -27l-7 -8v-43l-10 -47l-8 -4v-19l-45 -14v-19l-27 -14l-12 6l-31 4l-6 21l-27 26l-4 29l11 27l22 108l8 17l6 32l21 74l12 53l33 95l10 57l23 51l6 27l18 47l35 102l6 6l101 232l86 158 l92 139l33 37z" />
<glyph unicode="l" horiz-adv-x="651" d="M866 1325q4 -28 4 -47q0 -56 -14 -113v-10q0 -25 -12 -74q-216 -388 -404 -579q-18 -36 -78.5 -97.5t-66.5 -97.5q-7 -9 -22.5 -21.5t-27.5 -22.5t-22 -31.5t-10 -49.5q0 -31 8 -47l8 -20q26 -30 76 -49t103 -19q74 0 120 35q12 -1 13.5 -2.5t1.5 -7.5q40 16 55 16 q56 0 68 -61q0 -13 -2 -17l-2 -8q-27 21 -66 21q-13 0 -137 -31q-67 -35 -180 -39l-37 -2l-15 4q-128 13 -170 106q-5 12 -9 28.5t-7 25.5t-6 10q-11 0 -39.5 -13.5t-32.5 -13.5h-2q-19 -8 -66 -33t-55 -28h-28q-35 0 -45 29q10 6 37 22t58.5 34t65.5 34v-2q5 7 31.5 22.5 t46.5 32.5q13 11 28.5 37t22.5 33l15 81l8 25l10 35q1 2 4 21.5t11.5 44t25.5 63.5l2 14q17 35 23 51l22 60l12 16q6 46 41 84q16 63 74 152l8 24l27 51q3 0 10 7l10 26l109 127q8 23 39 47l16 -2q51 67 92 111q77 26 138 26q88 0 112 -18zM649 928q31 46 53.5 85.5 t30.5 59.5t8 27q-9 65 -36 65q-5 0 -66.5 -69t-73.5 -88q-24 -36 -89 -154t-68 -131q-1 -5 -32.5 -79.5t-63 -146.5t-31.5 -73q21 6 121 122t108 140q36 3 67 63q19 39 72 179z" />
<glyph unicode="m" horiz-adv-x="1378" d="M1350 506q0 -8 -2 -14q-44 -52 -108 -200.5t-64 -201.5q0 -38 55 -53v-23q-3 -1 -35.5 -35t-34.5 -34q-16 0 -32 25.5t-51 75.5t-85 91q-40 -30 -80.5 -62t-62.5 -49.5t-43.5 -33.5t-34.5 -22.5t-24 -6.5q-12 0 -39 32.5t-56 92.5l-7 10q-86 101 -89 142q6 46 6 141 l-10 10q-47 -50 -74 -92l-100 -168q-10 -13 -57.5 -81t-95 -116t-132.5 -114q-20 3 -26 51q-6 45 -17.5 74t-21.5 38t-17.5 19t-7.5 23q0 11 64 282q8 9 26 33q84 243 154 391q56 113 90 113q27 0 60.5 -30t33.5 -56q0 -7 -20 -51q-14 -27 -50 -143t-86 -238v-17v-2 q3 -2 11 -2q28 0 51 29q8 16 16.5 31.5t11 21.5t9.5 17.5t9 15.5t14 19.5t20.5 25.5t31.5 37.5t43.5 51t60.5 70.5t79 93q21 0 52.5 20.5t43.5 20.5q2 0 16 -3.5t37.5 -13.5t44.5 -23.5t36.5 -37.5t15.5 -53v-11l-113 -393q0 -24 22 -24q16 0 107 96.5t113 130.5l9 24 q9 25 20.5 53t26.5 51.5t26 23.5q5 0 8 -3.5t8 -3.5q4 0 37 12.5t41 12.5l16 -6q17 -6 41.5 -16t49 -21t42 -24t17.5 -23z" />
<glyph unicode="n" horiz-adv-x="815" d="M934 16q2 -2 -0.5 -9.5t-1.5 -10.5q0 -3 -1 -9.5t-1.5 -11.5t-3 -11t-6.5 -11q-3 -3 -8.5 -10t-9 -11t-10.5 -11t-15 -13q-13 -9 -23 -20.5t-23 -20.5t-25 -17.5t-24 -17.5q-7 -5 -16 -5.5t-16 -4.5q-6 -2 -19 -9t-24 -10q-10 -3 -30.5 -8.5t-29.5 -7.5q-7 -1 -21 -3.5 t-18 -2.5q-28 0 -61 29q-5 3 -10 8t-8 9t-8.5 12.5t-7.5 12t-8.5 15t-8.5 14.5q-36 56 -45 88q-2 9 -7 29t-7 34t-1 27q0 11 2 17l-8 24l4 11l-4 28v113l-10 6l16 41l-2 16l6 9v61l2 -29q0 7 1 27t1 35q1 12 10.5 29.5t8.5 21.5q-2 10 -21 10q-21 0 -43 -28q-30 -42 -37 -52 l-55 -108l-4 -19l-24 -45v-16l-13 -16l-28 -62l-23 -31l-16 -4l-4 -4v-6h-7q-8 -8 -8 -10q-60 -89 -82 -111q-32 -30 -65 -30q-7 0 -9 4.5t-6 19.5q-1 4 -10.5 24t-7.5 29q3 16 13.5 51t15.5 56q3 14 8 43t10 56t10 52v39q1 7 15.5 34t17.5 48q1 13 12 68q2 10 -1 29.5 t-1 27.5q3 15 19 38.5t20 35.5q13 29 41 80q5 9 12.5 23.5t12 23t10.5 18t12 15.5q30 30 45 30q9 0 13 -30q6 -57 4 -76q-5 -25 -11.5 -48t-11.5 -44q-5 -22 -13.5 -44.5t-12.5 -47.5q-5 -20 0.5 -48.5t5.5 -29.5v-8v-7t0.5 -5.5t2 -3.5t3.5 -1q10 0 37 27q11 12 71 84 q20 27 50 75t45 66q17 20 41 44l28 28l30 33t32.5 34.5t23.5 20.5q39 28 66 28q3 0 4.5 -4t3 -11t2.5 -11q1 -3 5 -9.5t6 -12t1 -9.5q-9 -37 -16 -73t-16 -72q-11 -42 -33 -146q-1 -5 -6.5 -25t-7.5 -33.5t-1 -27.5q0 -14 4 -29t10 -34.5t9 -30.5q0 -2 14 -62t21 -89 q4 -22 7 -45.5t3.5 -37t1.5 -14.5q20 -40 35 -51q6 -4 10.5 -16.5t14.5 -12.5q5 0 17 7t19 8q6 2 25 3.5t29 4.5q11 3 20.5 9.5t15.5 8.5q8 2 21 -3t16 -5q4 0 12.5 5.5t10.5 4.5z" />
<glyph unicode="o" horiz-adv-x="966" d="M936 475q0 -102 -45 -188q-11 -49 -29.5 -87t-47 -71.5t-78.5 -68.5t-110 -69t-155 -83q-4 -2 -57 -8q-59 -68 -164 -68q-53 0 -66 10l-75 64h-7q-37 0 -56.5 32.5t-26 72.5t-7.5 42q11 18 11 25q0 4 -6.5 13.5t-6.5 12.5q0 12 6.5 56t6.5 57q7 1 17.5 5.5t22 15 t11.5 22.5q0 4 -5.5 26t-5.5 25q19 16 32.5 32t21.5 28.5t29.5 49t41.5 68.5q27 42 167 179t161 137q4 0 17.5 -3t17.5 -3q16 0 55 57q1 0 43 -33l62 -14q33 -16 73 -31q48 0 80 -26.5t47 -75t20 -95t5 -106.5zM707 502v22q-11 3 -23 15q6 9 6 22q0 21 -11.5 43.5 t-27.5 22.5q-28 0 -129 -88q-46 -40 -84 -77t-71.5 -75.5t-51 -59t-50.5 -64t-42 -54.5q-6 -6 -24.5 -61t-18.5 -66q0 -17 18 -36t35 -19q113 0 256 96q28 7 78 33q11 11 64 112q1 2 20.5 76t30.5 80q0 69 25 78z" />
<glyph unicode="p" horiz-adv-x="897" d="M872 543q0 -5 -13.5 -35t-14.5 -33q-4 -46 -35 -168q-2 -4 -28 -54t-56 -90t-68 -65v2q0 3 -10 13q-10 -10 -10 -21q-1 1 -3.5 8.5t-6 14t-6.5 6.5q-32 0 -177 -127q-17 -4 -33 -12.5t-48.5 -29.5t-53.5 -34q-29 0 -84 -12l-11 -19q-10 -19 -27.5 -63t-28.5 -94 q-2 -18 -21 -72.5t-53 -124.5q4 -12 4 -25q0 -2 -1 -6t-1 -6v6q0 19 -14 60q-9 0 -15 -80q-24 -42 -43.5 -113t-39 -108t-58.5 -37t-39 61q0 10 6 36.5t11 37.5q6 18 10.5 50.5t10.5 84t13 92.5q-2 8 -2 39q71 301 230 731q23 38 53 140q12 12 26.5 43.5t14.5 68.5q0 2 -8 2 q-1 1 -4 -1t-13.5 -10t-19.5 -15q-43 -32 -87 -56t-65 -32.5t-24 -8.5q-27 0 -27 80q0 35 12 64t22 41.5t39.5 39.5t35.5 33q177 60 184 60q3 0 8 -2t8 -2q4 0 27.5 14t28.5 14q4 0 10 -5t10 -5t15 3t14 3q33 0 78 -4.5t120.5 -28t118.5 -63.5q50 0 85 -50t42 -108 q0 -3 6 -13.5t6 -14.5zM676 328q-4 0 -13.5 -2.5t-9.5 -3.5h2q1 0 9 3t12 3zM711 614q-32 21 -60 35q-4 0 -7 -3t-7 -3q-2 0 -27.5 7.5t-58.5 14.5t-51 7q-28 0 -49 -21q-70 -296 -99 -399q-44 -89 -92 -242l10 -12q10 7 20.5 12.5t30 14.5t37.5 18q43 43 43 53q0 5 -4 13 l-6 4q36 31 119 98q2 1 8.5 2.5t10 2.5t8 5.5t8.5 11.5q-25 13 -25 23q35 15 82 53q-12 6 -12 21q0 3 9 10t24 33t26 73q62 112 62 168z" />
<glyph unicode="q" horiz-adv-x="837" d="M791 559q0 -3 -13 -47q-4 -14 -9.5 -35.5t-7.5 -29t-7.5 -21t-13 -25.5t-19.5 -30q-37 -56 -45.5 -84.5t-14.5 -63.5t-32 -90q-16 -79 -78 -242q2 -6 2 -28q-9 -15 -45 -138t-45 -137q6 -12 6 -22q0 -8 -9 -29t-9 -22l4 -29q-15 -18 -33 -74q-12 -7 -20.5 -18.5 t-16.5 -35.5t-12.5 -40.5t-14.5 -59.5t-16 -67q2 -10 2 -43q-18 -82 -45 -147l14 579q3 0 13 19q-4 32 -4 71q4 17 8.5 47t13 87t18.5 118q1 4 14 36t13 36q0 14 -12 26q-21 -6 -64 -49q-65 -67 -113.5 -90.5t-103.5 -23.5h-19q-28 -1 -41 0.5t-31.5 9.5t-30.5 26 t-27.5 50.5t-32.5 83.5q0 1 -4 6t-8 8q0 8 14 16l-10 15q-10 15 -10 20q0 4 14 14.5t14 14.5q0 2 -6 2q-5 0 -8 -2l-4 -2q2 6 8 19.5t8 17.5q9 -15 19 -15q2 2 2 19q23 -23 32 -23q8 8 33 23v12q-25 14 -57 14v31l6 -4q8 -4 12 -4q21 0 28.5 3t14.5 15q0 9 -10 9 q-1 0 -4 -1.5t-4 -1.5q0 4 2 18.5t2 18.5q15 0 21 4.5t13.5 19.5t14.5 25q0 5 -2 7l-33 16q24 6 31 29q2 7 5 14.5t6 13t9.5 14t10.5 13t14 15t15 15.5l18.5 18.5l19.5 19.5q11 21 44.5 51.5t35.5 48.5q16 8 47 39q-2 6 -2 20q7 6 42.5 37.5t49.5 43t41.5 32.5t48 30.5 t39.5 12.5q2 1 20 15t23 14h86q37 0 89 -31q0 2 -9.5 -7t-25 -19.5t-27.5 -10.5q-3 0 -7 2t-7 2q-48 0 -107 -42.5t-97.5 -85.5t-118.5 -139q-7 -8 -10.5 -12.5t-9 -11t-10.5 -12.5q-48 -67 -235 -381q-3 -11 -7 -28t-9.5 -42t-10.5 -45q4 -4 4 -6q0 -3 -4 -11t-4 -9 q5 0 10 14l5 14q4 -2 20 -28q8 0 8 4q-1 1 -2 4t-2 4h14q73 0 137 27t201 127q35 18 49.5 47t33 87.5t48.5 112.5q41 101 80.5 152t57.5 90q-2 4 -2 23q4 19 39 47q31 -28 75 -56q-10 -10 -10 -16q0 -10 9.5 -24.5t9.5 -18.5zM-12 276q0 -3 -3 -13t-3 -13q0 -4 2 -6 q-5 0 -17 3l-12 3zM12 -86v18q-5 5 -10 5q-2 0 -4 -1t-5 -2t-5 -2q9 -18 24 -18z" />
<glyph unicode="r" horiz-adv-x="569" d="M784 784q2 -4 2 -26q-3 -11 -30 -17q-7 -3 -30 -10t-38 -12q-10 -5 -43 -25q-9 -5 -19.5 -13.5t-23.5 -14.5q-55 -22 -90 -48q-84 -62 -170 -176q-19 -21 -35 -59q-12 -24 -24 -72q-1 -2 -4 -7t-6.5 -13.5t-6.5 -18.5q-6 -20 -20 -92q-4 -21 -17 -61q-5 -20 -16 -51 q-1 -2 -4 -11q0 -1 0.5 -4.5t-0.5 -5.5q0 -4 -1 -8.5t-1 -9.5q0 -4 2 -8.5t2 -8.5q-2 -10 -3.5 -16t-4 -13t-4.5 -16q-1 -4 -11 -43q-1 -2 -3 -3t-3 -3q-1 -1 -1 -4.5t-0.5 -5t-2.5 -0.5q-7 2 -11.5 8t-8.5 8q-3 3 -6 9t-4.5 6.5t-8.5 -0.5q-6 -4 -7.5 -7.5t-2 -10.5 t-2.5 -13q-1 -4 -2 -14t-6 -17q-1 -4 -7 -2.5t-8 0.5t-4.5 -2.5t-3 -2t-4.5 0.5q-3 0 -5 2.5t-5 3.5q-1 1 -4.5 1.5t-5.5 2.5q-2 1 -2 2t1 3t1 3q-1 1 -4 7q-4 7 -19 28q-15 26 -16 29q-2 3 -1.5 7t-0.5 7t-3.5 7t-2.5 8q0 1 1 2.5t1 3.5t-2 6v4q-1 1 -3 1t-2 1l-4 12 q-1 3 -3 6.5t-3 6.5q0 2 2.5 4t3.5 4q2 4 2 8q-2 0 -1 9l1 9q0 4 1 11t1 10q8 31 18.5 79t14.5 64q4 18 14 52.5t13 50.5q2 4 2.5 7.5t0.5 7t1 7.5q2 6 4 12.5t4 12.5q0 2 2 2v-2q2 7 5.5 15.5t4.5 10.5q1 3 1 6t1 5q5 25 7 43q1 9 2 29t2 30q9 51 10 61q3 28 6 43 q3 27 19 52q14 31 36 53q0 1 1 2t1 2q1 2 0 3.5t0 2.5t23 27q4 5 8.5 12t11.5 14q8 5 13 7l4 4q3 3 8 4q4 1 8.5 -1.5t9.5 -2.5q3 0 9.5 2.5t9.5 -0.5q3 -1 10 -11q1 -2 3 -5t5 -5q2 -2 10.5 -5.5t12.5 -6.5q3 -3 9.5 -11t10.5 -12q26 -26 33 -30q12 -9 27 -9q3 0 41 19 q2 1 33 15.5t51 25.5q80 37 102 43q39 10 74 10q6 0 22 -4q18 -4 23 -8q16 -9 22 -19z" />
<glyph unicode="s" horiz-adv-x="692" d="M768 821q0 -89 -80 -166q-5 -4 -34.5 -25.5t-49 -36.5t-50 -44t-49 -54.5t-32.5 -60.5t-14 -69q0 -7 30 -166l31 -166q0 -17 -31 -99q-11 -29 -20.5 -48.5t-15.5 -29.5t-12.5 -14.5t-9.5 -5t-8 0.5t-7 1q-122 0 -203 23q-10 16 -33 30t-45.5 25.5t-48.5 43t-41 79.5 q-9 27 -45 27q-9 0 -52.5 -35t-96 -72.5t-80.5 -42.5q8 32 36 92q22 35 128 95.5t139 72.5q16 13 59.5 46t64 49.5t51.5 44t51.5 53t35.5 51.5q0 9 4 127q0 23 68 180q38 87 41 147q9 6 110 91l8 -6q146 -110 189 -111h12v-27zM391 55v86q0 54 -55 191l-277 -213 q30 -21 52 -21q5 0 24.5 6.5t24.5 6.5q4 0 21 -14.5t22 -14.5q3 0 9.5 3t10.5 3q8 0 71 -19.5t75 -19.5q5 0 13 3z" />
<glyph unicode="t" horiz-adv-x="712" d="M883 772q-1 -3 -36.5 -22t-39.5 -23q3 -8 16 -8h13q6 2 12 2q-4 -9 -31 -23t-54.5 -25.5t-29.5 -13.5q-6 0 -10.5 -5.5t-10 -13t-21.5 -16.5t-40 -14q-4 -12 -29.5 -18.5t-80 -23.5t-107.5 -46q-25 -67 -84 -178q0 -24 -33 -74l-14 -41q0 -11 -6 -26q-7 -12 -22.5 -49.5 t-29 -68.5t-18.5 -34q-16 -37 -16 -57q2 -14 2 -33q0 -14 -2 -18q-3 -3 -13.5 -34t-29.5 -71.5t-41 -66.5q-8 57 -8 129q1 4 3.5 25t4.5 36q-6 6 -12 21q0 8 5 34.5t5 34.5q-1 2 -6 17q0 16 4 53t23.5 115t50.5 145q7 46 51 135q0 5 -5 13t-18.5 24t-28.5 33t-43 48.5 t-53 61.5q8 3 16 8.5t15 8t21 2.5q62 0 163 -8q5 5 9.5 11.5t7.5 13l12 26t18 37.5q0 16 6 33t25 66.5t39 117.5q31 31 62 190h16h2l32 22q32 21 42 13q4 0 29.5 -14.5t29.5 -14.5q3 0 8 -5t10.5 -13.5t10 -16.5l9 -16t5.5 -10l-14 -21q-2 -13 -17 -51q-33 -62 -74.5 -172.5 t-58.5 -150.5l2 2q3 0 9 -19q43 -6 81 -6q64 0 107.5 8t144.5 35h15z" />
<glyph unicode="u" horiz-adv-x="788" d="M803 176q0 2 -2 -2q0 -1 -2 -5q-34 -83 -80 -83q-36 0 -109 20q-11 2 -39.5 43t-33.5 41q-10 0 -19 -12q-99 -184 -158 -237q-4 -2 -72 -28t-71 -26q-25 0 -98 25q-10 20 -72.5 87t-62.5 85q0 2 -0.5 37t0.5 52t3.5 51t10.5 66t20 64q24 19 38.5 45t37.5 101q7 3 13 18 t23.5 51.5t47.5 79.5q0 18 36.5 99t55.5 81t36.5 -31.5t17.5 -58.5q0 -5 -9.5 -32.5t-9.5 -32.5q0 -2 -0.5 -10t-1.5 -23t-2 -31q11 -19 14 -49q-23 -47 -61 -151q-10 -5 -16 -9q4 -12 4 -18q0 -8 -22.5 -56t-45 -112.5t-22.5 -112.5q0 -4 24 -15.5t25 -14.5h12q11 13 61 39 q14 8 26.5 17.5t21 16.5t17.5 18.5t13.5 17.5t12 20t9.5 19t9.5 22.5t9.5 21.5l146 342q4 0 17 3t17 3q3 0 43 -28.5t50 -28.5q12 0 16 4q6 -6 16.5 -37.5t10.5 -42.5q0 -13 -19 -121l-20 -116q0 -33 32 -33q0 3 91 33q10 -42 10 -66z" />
<glyph unicode="v" horiz-adv-x="913" d="M1227 909l-27 -16l4 -10l-4 -11l-37 -22l4 -2l-30 -14l-2 -3l8 -2l4 2l10 -6h-2l4 -2l-14 -6l-15 -8l5 -10l-5 -11l-30 -18l-13 -25q-114 -92 -169 -135l-41 -37l-33 -24v-12l-43 -33v-6l-242 -238l-59 -43l-51 -37q-104 -87 -156 -139q-9 -10 -16.5 -23.5t-10.5 -21.5 l-4 -8q-61 -72 -69 -84q-3 -5 -3 -11t2 -11l3 -5q-5 -33 -17 -37l-37 2q-33 21 -37 37q-19 65 -22 60q-10 116 -10 241l-9 53l9 183l32 157l19 111l35 125l6 6q20 76 29 80q8 -6 22 -16l18 6l13 -4l12 4l35 -6l16 -13l2 -10l13 -16l6 -131l-51 -326q3 -2 83.5 55.5 t208 140.5t222.5 128q43 18 178 98q29 19 111.5 59t115.5 45h4l15 6z" />
<glyph unicode="w" horiz-adv-x="1089" d="M1260 1200h2l-15 -41v-12l-6 -6l2 -25l-14 -39l-37 -53l4 -18l-45 -101l-39 -96l-6 -39l-19 -37l7 -12l-7 -27l-34 -86l-19 -71l-24 -45l-9 -31l3 -21l-19 -43l4 -22l-14 -37l-10 -8l-19 -64l-59 -145l-47 -92l-21 -17l-55 -45l-23 -10h-61l-62 31l-45 57l-30 84l-39 113 v321h-8l-21 -39l-43 -147v-35l-26 -96l2 -33l-31 -123l-49 -143l-39 -25h-31l-47 33l-31 31l-30 59l-27 86v266v213l18 199l33 47l19 12h36l35 -39l25 -45v-161l-4 -39l6 -60v-71l-6 -27v-84l88 242l51 86l35 37l84 24h47l31 -24l24 -27l21 -41l18 -70l6 -37v-151v-12v-123 l10 -66l9 -16h8l149 309l138 309l49 90l45 74l28 66l33 51l29 35v12l41 49z" />
<glyph unicode="x" horiz-adv-x="712" d="M795 854h4l14 -35l4 -59l-2 -10l-45 -64h-6l-68 -80l-75 -78l-115 -133l-19 -16l-8 -19l-8 -4l-10 -26l63 -172l78 -170l25 -37l6 -21l6 -2l8 -37l-2 -6l23 -37l12 -22h-8l-8 12h-9l15 -22l-37 12l-21 4l-6 -6l-18 10l-13 25l-16 -6l-117 141l-125 192l-41 -43l-4 -10 l-100 -125l-22 -33l-60 -67l-8 -2l-27 -43h-10l-12 -21l-8 4l-25 -20l-27 -6l-6 10l-6 33l10 37l43 82l31 39l92 133l123 161l-47 136l-43 178v76v69l12 23l29 28l31 11h22l12 10l25 -29l39 -80l29 -69l43 -156l116 139l111 113l80 72l31 14h26l8 -4z" />
<glyph unicode="y" horiz-adv-x="966" d="M901 651q0 -3 -8 -20t-8 -25q0 -2 -1 -14t-3 -32t-5.5 -47t-10.5 -69t-17 -88q0 -1 -7.5 -32t-11 -45t-14.5 -50t-21.5 -64.5t-27.5 -70.5t-37 -84q-9 -44 -47 -131q0 -2 1 -6.5t1 -7.5q0 -12 -1.5 -22t-7.5 -25t-10 -23.5t-17 -36t-21 -43.5q0 -2 -1 -7t-1.5 -7t-2 -6.5 t-3.5 -8.5t-6 -10.5t-9.5 -15t-13.5 -20.5q2 -4 2 -23q-30 -69 -53 -127l-4 -4q-1 0 -6.5 10t-6.5 10q-6 0 -16.5 -8t-17.5 -16l-7 -8q6 -15 6 -23q0 -3 -10.5 -10.5t-11.5 -15.5q6 -9 6 -19t-34 -20.5t-34 -22.5q0 -8 23 -18q0 -10 -18 -42q-20 -37 -52 -69q7 -11 13 -37 q-18 -24 -27 -84q-4 -2 -76 -2q-22 0 -50 25.5t-28 72.5q0 7 7 17l6 14q6 48 24 150q6 18 42 101t44 83q3 0 12.5 -4t12.5 -4q10 0 61 147q16 26 48.5 112.5t33.5 88.5l45 147q13 5 51 25v12q-5 2 -28 21q26 26 26 80q0 11 -6 20h-14q-55 -55 -102 -95.5t-77 -62t-61.5 -36 t-44.5 -18t-37 -8t-30 -5.5q-193 168 -193 270q0 3 6 9.5t6 9.5q9 41 9 77q0 23 -2 35q7 3 36 29q-2 6 -2 22q0 5 2.5 12.5t8.5 18t11.5 19.5t16.5 25t18 26t21 29.5t21 29.5l8 10q7 11 17.5 24.5t27.5 30.5t34.5 30.5t40 22.5t44.5 9q26 0 50 -29t24 -59q0 -17 -19.5 -43.5 t-44.5 -52.5t-29 -33q0 -20 -15 -58.5t-42 -99.5t-43 -104q-1 -5 -12 -26.5t-11 -34.5q0 -35 21 -35q28 0 90 39t98 67t58 47l4 11q1 4 3 7.5t5.5 7.5t6.5 7t9 8l9 7.5t11.5 9.5t12.5 10l21 20q9 9 16 9q1 0 3 -1t3 -1q3 14 24.5 45.5t45 61.5t24.5 32q19 26 29 61t14 54.5 t27 34t70 14.5l24 -4q4 -2 14.5 -6.5t29.5 -13.5t38 -17v-17z" />
<glyph unicode="z" horiz-adv-x="1032" d="M524 262l-8 -86q3 -12 20 -15t19 -11l-16 -39q1 -2 10 -0.5t16 3t8 -0.5q0 -3 13.5 -12.5t13.5 -12.5q0 -11 45 -36.5t45 -39.5q0 -4 -4 -16l152 61l22 6l17 13l108 45l66 37l71 28l2 -12l-39 -37l-6 -2l-4 -8l-49 -37l-2 -6l-82 -55l-70 -41l-90 -45l-16 -4l-119 -58 q-12 -27 -33 -80.5t-35.5 -87t-21.5 -41.5q8 -11 8 -22q0 -6 -5 -16.5t-11.5 -22t-7.5 -12.5l6 -29q-119 -102 -135 -139q-23 -8 -32.5 -22.5t-15 -36.5t-14.5 -34q-29 -41 -82 -109t-82.5 -110t-29.5 -57q4 2 8 10q-71 -91 -161 -145.5t-169 -54.5q-42 0 -106 32 q-4 28 -4 49q0 58 16 113v8q0 24 16 74q259 388 482 580q19 32 60.5 68t74.5 67.5t39 60.5q3 0 4 15t2.5 36.5t3.5 30.5q1 4 -18.5 20.5t-39.5 32.5t-20 19l4 24q20 -4 21 -4q10 0 10 6q0 22 -76.5 96t-87.5 74l74 95l196 59q17 3 80.5 42.5t73.5 49.5q10 14 15.5 19.5 t12 11t13.5 12.5q2 2 4.5 10t5.5 11q7 7 14 13t10.5 6.5t7 5t4.5 6t2 12.5t1 20v33q0 5 -3 14l-3 8h-86q-54 0 -191 -55l-81 -18q-3 0 -62 2q-25 0 -180 67q-87 38 -148 41q-18 25 -90 111q2 0 27 20.5t50.5 51.5t25.5 53v12h26q89 0 166 -80q0 -1 15.5 -20.5t19 -24 t19.5 -21.5t25 -23t28 -18t36 -16.5t41 -9t50 -4.5q2 0 166 31l165 30q19 0 99 -30q98 -38 98 -62q0 -147 -24 -231q-14 -8 -48.5 -35t-67.5 -52t-83 -53t-98 -44zM307 -504l121 289q-24 -6 -144.5 -121t-129.5 -139q-44 -30 -78 -78t-88 -164q-37 -46 -67 -91.5t-44 -71.5 t-14 -33q5 -27 22 -27q6 0 18.5 3t18.5 3q5 -2 78 68t88 90q11 14 69 82t103 124t47 66z" />
<glyph unicode="{" horiz-adv-x="673" d="M870 1542l7 -20q-1 0 -6 2t-7 2q-7 -35 -37 -35q-8 0 -27 3t-28 3q-31 0 -55 -12.5t-50.5 -37t-35.5 -30.5l-19 4q-6 -4 -20.5 -7t-22.5 -9.5t-8 -22.5q0 -28 12.5 -62t28.5 -52q5 -7 34.5 -17t29.5 -30q0 -18 -10 -35t-20.5 -27t-10.5 -12q0 -5 4 -15t4 -12l-70 -67 q-19 -25 -78.5 -95t-87.5 -112l-67 -74q-6 -10 -10.5 -37.5t-10.5 -38.5q0 -3 5 -12.5t5 -13.5l-4 -13q-1 -3 -26 -12.5t-29 -17.5l27 -70q-2 -6 -2 -16q1 -21 19.5 -56.5t37.5 -58.5q8 -10 28 -25t32 -30t12 -35q0 -6 -3 -21.5t-3 -21.5v-8l-23 -29q-3 -13 -9 -63.5 t-16 -73.5q0 -2 1 -5t1 -5q0 -5 -17.5 -6.5t-18.5 -6.5l-2 -26q-2 -4 -2 -11q0 -4 1 -11.5t1 -10.5q0 -29 -5 -90l-6 -60l21 -69v-15q0 -11 -3 -33t-3 -34q0 -17 4 -23l22 -12q1 -4 9 -10.5t8 -9.5q0 -4 -3 -12t-3 -11v-2l10 -10l-4 -39l37 -41q3 -10 25 -35t22 -41 q0 -19 -23.5 -32.5t-46.5 -22t-23 -13.5l-16 9l-16 -27q-54 13 -91.5 61.5t-50.5 112.5l5 37q0 7 11 21t11 20t-5.5 17.5t-6.5 15.5q-5 27 -18 89t-21 107.5t-12 87.5l8 50v88l-31 16v4q0 20 20.5 56t22.5 46q0 6 -14 26.5t-15 23.5q-4 22 -8 28l-10 37l2 23q-1 1 -11.5 1.5 t-11.5 2.5q-8 21 -16 62t-14 59l12 28l-20 21q-3 16 -16 45.5t-15 46.5l2 2q0 6 3 12t3 11v10q1 9 10 24.5t10 18.5q0 3 -4 11.5t-4 12.5q0 6 4 6q3 0 10 -1t9 -1q1 0 19.5 33.5t40.5 70.5t30 44l31 43l34 37q15 10 30.5 38t15.5 52q0 11 -6.5 36t-6.5 38q0 8 14.5 21 t14.5 22q0 5 -4 16.5t-4 17.5l2 27q1 6 16 14.5t17 14.5q1 3 -9 13t-10 13v2l37 15v24q1 2 -5 6t-12 8.5t-6 6.5q54 119 209 207q8 16 44.5 39.5t66.5 27.5l25 -10h18q0 -2 2 -2v2h-2q-1 0 -2.5 1t-3.5 2.5t-4 2.5q12 0 20 -3t15.5 -8t13.5 -7l31 8q16 0 20.5 -10.5 t7.5 -12.5l23 4l10 -12q42 -19 51 -43h8z" />
<glyph unicode="|" horiz-adv-x="1273" d="M905 1595q3 0 5 -1.5t3 -4.5t1 -5.5t-0.5 -6.5t-0.5 -6q-2 0 -5.5 1t-4.5 1q-9 -18 -13 -39t-5.5 -53.5t-3.5 -46.5q0 -8 1 -25t1 -25q-2 -14 -9.5 -39.5t-9.5 -39.5q0 -5 1 -15.5t1 -15.5q0 -19 -5 -45t-12.5 -57.5t-10.5 -45.5q-35 -311 -76 -483q0 -28 -14.5 -100.5 t-14.5 -104.5v-30q0 -22 -14 -80t-14 -80v-31q0 -29 -17.5 -100.5t-17.5 -89.5q-6 -23 -10 -69.5t-11 -70.5q0 -43 -23.5 -138.5t-23.5 -121.5q0 -7 6 -43q0 -58 -21.5 -80t-86.5 -22v10q-22 2 -38.5 14t-25.5 23.5t-14 11.5q0 29 9.5 82.5t12.5 87.5q10 170 33 334 q1 7 18 62.5t17 99.5q0 24 5 44t14 41t12 30q0 66 22 133q1 9 13 64.5t25 125t18 117.5q15 56 34 194t23 162q0 8 -2 25.5t-2 25.5q1 6 7.5 36t6.5 46v41q0 23 7 66t7 63v31q0 14 13 53q2 12 4.5 38.5t4.5 37.5t9 29t18 26t30.5 14.5t47.5 6.5q0 -2 -1 -7.5t-1 -7.5 q25 -3 49.5 -16.5t28.5 -30.5z" />
<glyph unicode="}" horiz-adv-x="708" d="M-182 -485l-6 20q1 0 5.5 -2t6.5 -2q7 35 37 35q8 0 27 -3t28 -3q31 0 55 12.5t50.5 37t35.5 30.5l19 -5q6 4 20.5 7t22.5 9.5t8 22.5q0 28 -12.5 62.5t-28.5 52.5q-5 7 -34 17t-29 30q0 18 10 35t20 27t10 12q0 4 -4 15t-4 12l70 67q19 25 78.5 95t87.5 112l67 74 q6 10 10.5 37t10.5 38q0 3 -5 13t-5 14l4 12q1 3 26 13t29 18l-27 70q2 6 2 16q-1 21 -19.5 56.5t-37.5 58.5q-8 10 -28 25t-32 30t-12 35q0 6 3.5 21.5t3.5 21.5v8l22 29q3 13 9 63.5t16 73.5q0 2 -1 5t-1 5q0 5 17.5 6.5t18.5 6.5l3 26q2 4 2 10q0 4 -1 12t-1 11 q0 41 4 90l6 59l-21 70v14q0 11 3 34t3 34q0 16 -4 22l-22 13q-1 4 -9 10.5t-8 9.5q0 4 3.5 12t3.5 11v2l-11 10l4 39l-36 41q-3 10 -25.5 35t-22.5 41q0 19 23.5 32.5t46.5 21.5t23 13l16 -8l16 27q54 -13 91.5 -61.5t50.5 -112.5l-4 -37q0 -7 -11.5 -21t-11.5 -20 t5.5 -17.5t6.5 -15.5q6 -29 18.5 -89.5t21 -107t12.5 -88.5l-9 -49v-88l31 -16v-4q0 -20 -20.5 -56.5t-22.5 -46.5q0 -6 14 -26t15 -23q4 -24 8 -29l10 -36l-2 -23q1 -1 11.5 -1.5t11.5 -2.5q8 -21 16 -62t14 -59l-12 -29l21 -20q3 -15 15.5 -45t14.5 -47l-2 -2q0 -6 -3 -12 t-3 -11v-10q-1 -9 -10 -24.5t-10 -18.5q0 -3 4 -12t4 -13q0 -6 -4 -6q-3 0 -10 1t-9 1q-1 0 -19.5 -33t-40.5 -70t-30 -44l-31 -43l-34 -37q-15 -10 -30 -37.5t-15 -52.5q0 -11 6 -36t6 -38q0 -8 -14.5 -21t-14.5 -22q0 -5 4 -17t4 -18l-2 -26q-1 -6 -15.5 -14.5 t-16.5 -14.5q-1 -3 8.5 -13.5t9.5 -13.5v-2l-37 -14v-25q-1 -2 5 -6l12 -8t6 -6q-54 -119 -209 -207q-8 -16 -44.5 -39.5t-66.5 -27.5l-24 10h-19q0 2 -2 2v-2h2q1 0 2.5 -1t3.5 -2.5t4 -2.5q-12 0 -20 3t-15.5 8t-13.5 7l-30 -8q-16 0 -21.5 10t-7.5 12l-23 -4l-10 13 q-42 19 -51 43h-8z" />
<glyph unicode="~" horiz-adv-x="1206" d="M807 1270h63l39 -6l54 -33l47 -53l20 -29l27 -53l4 -52l-8 -26l-23 -39l-51 -59h-4l-14 -15l-68 -82l-43 -35l4 -16l-70 -47v-8l-8 -15l-26 -8v-16l-60 -51l29 -58l35 -55l34 -53l19 -21l49 -80l100 25l117 37l148 14l-4 -4l-43 -31l-9 -12l-35 -18l-6 -9l-32 -20l4 -14 l-52 -27l5 -12l-11 -8l-8 -27h8l-53 -43l80 -102l61 -78l-4 -8h-20l-6 12l-13 -4l-12 -25l-31 -22h-12l-22 -21h-21l-27 8l-84 95l-28 40l-23 -24l-26 -2l-31 -21l-12 -18l-58 -18l-49 -23l-33 -31l-49 -18l-61 -12l-86 10h-156l-51 20l-8 8l-10 -4l-33 19l-43 31l-41 51 l-21 39l-8 43l4 63l29 70l65 94l101 117l258 252v198l14 76l17 53l47 70l55 51l53 35l64 29zM801 1061l-27 -4l-43 -10l-59 -33l-47 -45l-7 -58v-47h7l186 183v14h-10zM547 453l-4 -4l-39 -13l-17 -18v-12h-14v-13l-12 -8v-6l-66 -55l-24 -35l-27 -27l-12 -24l-2 -27l67 4 l90 21l78 26l45 4l54 35l-9 18l-18 -4v27l-37 64l-18 16v18l-13 17z" />
<glyph unicode="&#xa1;" horiz-adv-x="671" d="M410 1167q2 6 4 12.5t3 10t5 10t10 14.5v11l6 6q0 6 -2 10v8q1 1 7.5 4t7.5 4v5q7 7 16 22l2 2q4 2 10 8q12 -2 37 2l8 4v11q9 3 15 6q3 12 22 12q6 -6 12 -8l2 2q0 1 3 4h8l14 -14q2 0 4 2h4q4 0 6 -2q21 -37 23 -43q2 2 6 2q2 -2 8 -17.5t6 -19.5q-1 -4 -2 -15t-2 -16 v-20q-3 -13 -12 -49q-27 -27 -45 -52q-24 -6 -29 -8q-2 2 -41 2q-7 7 -45 23q-12 3 -37 28q0 7 -2 9q-3 3 -10 9t-10 9q-6 3 -12 12zM496 766q0 -24 -11 -35q-2 -6 -11 -38t-15 -56q-2 -16 -6 -53q0 -7 -11 -64l-8 -8v-16q-3 -3 -6 -21q-8 -31 -37.5 -153.5t-44.5 -178.5 q2 -2 2 -10q-10 -53 -39 -176q-4 -16 -10 -43l-16 -64l-13 -24q-1 -1 -4 -3t-4 -3q-10 -10 -45 -10q-8 0 -37 16q-26 14 -26 20q-9 24 -11 33v43q20 65 37 164q5 29 33 164q21 95 94 313q6 19 53 154q2 6 13.5 32.5t19.5 47.5q18 40 39 49q2 1 17 6q15 -6 38 -39 q2 -10 2 -37q4 -4 7 -10z" />
<glyph unicode="&#xa2;" horiz-adv-x="931" d="M565 412l-67 -154l-43 -102q77 9 163.5 42t141.5 74q1 1 8 6t10.5 8t11.5 10.5t13.5 14.5t13.5 18t13.5 22.5t12 28t11.5 34.5l33 -95l-33 -61l-25 -10q-22 -16 -112 -88q-50 -39 -165.5 -91.5t-162.5 -56.5l-39 -86l-90 -149l-29 -76l-30 -41l-6 2l-29 -29l-12 -14 l-23 10l-14 -6l-8 47l-3 19l25 75l80 197l49 127q-1 2 -8 11.5t-12 15.5q-67 72 -93 112q-77 115 -77 250q0 72 14 115l4 4q5 5 11.5 12.5t14 18t13.5 25.5t8 32q55 49 58 147q7 7 14 9.5t13 8.5t28.5 44t64.5 115q53 3 66.5 7.5t21.5 20.5q5 -1 34 -4t65.5 -11.5 t68.5 -23.5q7 -3 68 -30l10 26l141 307l37 74l17 23l8 -2l-19 -52l5 -10l-7 -16l-14 -62l6 -12l-10 -41l-2 -24l-4 -31l-35 -105l-20 -61v-12l-9 -43l2 -8l-4 -17q30 -22 55.5 -45.5t61 -60.5t37.5 -39v-35q-4 0 -22 -4t-23 -4q-14 0 -154 61l-61 -186zM328 260l149 350 l76 170l20 45q-54 21 -55 21q-82 0 -174 -234q-78 -203 -78 -264q0 -126 33 -164z" />
<glyph unicode="&#xa3;" horiz-adv-x="1290" d="M1178 344l53 35q74 -80 74 -156q0 -69 -56 -124t-130 -81t-142 -26q-104 0 -361 41q-112 16 -186 16q-106 0 -174 -24l-176 -41l10 5t10.5 5.5t9 5t9 5.5t7 6t6.5 7t4.5 7.5t3.5 9.5t1 10q-35 14 -61 14q-39 0 -184 -22q7 2 58.5 38.5t113.5 71.5t98 37l12 72 q73 29 111 141q56 159 60 147q2 -7 -5 -17q-3 4 -4 12v106q0 24 12 45q-30 21 -69 21q-17 0 -75 29.5t-77 29.5q-91 0 -94 98q24 23 107 19.5t149.5 -13t103.5 8.5q7 29 21.5 117.5t15.5 93.5q23 141 96.5 219t186.5 78q98 0 162.5 -37t89.5 -103l-58 -182q-39 63 -101 96 t-161 47q0 -3 -6.5 -12t-13 -20.5t-12 -39.5t-5.5 -67q0 -13 -5 -67t-6 -84.5t7 -55.5l271 -51l-11 3l35 -9q5 -2 -6 -2q-17 0 -20 -0.5t2 -2.5t11 -6t8 -10.5t-7 -15.5q20 -20 -29 -31q-44 -9 -43 -9q-3 -1 4 -4l15 -3l-78 -33q6 -28 65 -37l-258 23q12 -50 8 -74 q-8 -65 -46 -136t-140 -226h17q20 0 63.5 -9t133 -28.5t171.5 -34.5q68 -12 123 -12q107 0 175.5 45.5t105.5 140.5z" />
<glyph unicode="&#xa4;" horiz-adv-x="612" />
<glyph unicode="&#xa5;" horiz-adv-x="1198" d="M1255 1280l-8 -29h6l-16 -37l-18 -24v-12l-13 -23l-22 -16l-2 -21l10 -10l18 4l9 -10l-103 -115l-29 -41l-26 -55l-57 -80l-46 -53l-8 -17l-55 -67l-23 -25l-10 -16l-31 -29l7 -10h172l67 -4l76 -17l6 -6l41 -12l31 -10l-6 -10l8 -15l-10 -8l-15 -4h-24l-6 -4l2 -17 l-43 5l-11 -5l-2 -16l11 -6l-2 -6l-17 -6v-9l-57 -6l-51 -10l-52 -2l-71 -4l-11 -6l-65 -6l-104 -17l-72 -16l-19 -31l-18 -47l-8 -8l2 -10l-10 -21l-13 -29l33 7l88 10l109 16l159 19h39l13 -7l2 -10l-25 -10l-4 -12l-8 -2l-29 -21l-2 -14l-18 -12l-13 -15l-12 -10l-51 -23 l-29 -14l-6 -8l-18 -14l-2 -11l-58 -22l-102 -31l-88 -22l-64 -21l-4 -10l-10 -49l-25 -47l-24 -50l-6 -4l-11 -32l-8 -7l-10 -26l-12 -39l-9 -51l-6 -25l-4 -35l-8 -28l-10 -11l-4 -12l-15 -10l-12 16l-18 39v23l-11 26l2 92l19 160l8 49l-8 -2l-82 21l-39 -12l-22 10 l-2 10l-19 16l-8 7l-2 34l-6 15l16 39l6 12l37 16l98 25l78 20l45 152l-166 -37l-71 -8l-47 2l-23 4l-35 12l-24 21l-17 22v25l13 24l41 27l133 53l159 54l-18 69l-14 82v96l2 52l18 116l16 86l44 82l36 27l21 10l12 2l25 -2l6 -10h6l29 -17l18 -20l23 -86l8 -61l-10 -74 l2 -33l-21 -172l17 -10l28 24l99 92l528 512l18 -10z" />
<glyph unicode="&#xa7;" horiz-adv-x="929" d="M879 1178q39 -34 28 -74q-2 -5 -6 -7t-11 -3t-11 -2q-2 -1 -15 -10t-20 -9q-5 0 -17.5 -4.5t-19.5 -5.5q-28 0 -49 8q-9 3 -20 18t-15 17q-27 18 -33 18q-17 0 -30 -8.5t-27.5 -24t-20.5 -20.5q-3 -3 -15.5 -12t-18.5 -14t-13.5 -16t-11.5 -23q-2 -14 -1.5 -21t3.5 -21 t4 -18q0 -16 16 -32l3 -3q18 -17 33 -40.5t22 -28.5q10 -7 29.5 -28t33.5 -34q4 -4 18 -12t21 -14q35 -30 58 -41q11 -4 33.5 -6t29.5 -5q17 -8 31 -32q6 -10 2 -56q0 -23 -15 -77q-13 -50 -24 -68q-3 -5 -8.5 -15.5t-9 -17t-10 -14.5t-13.5 -14q-5 -5 -39 -15 q-6 -2 -21 -4.5t-31 -7t-30 -12.5q-11 -6 -14 -29.5t-4 -24.5q-8 -15 -11 -32q0 -2 -4 -4t-8 -3l-4 -2h14q-1 -4 -8 -15.5t-8 -20.5q0 -8 3.5 -16.5t10.5 -21.5t11 -22q25 -52 28 -67q7 -32 0 -60q-3 -10 -9.5 -21.5t-12 -19.5t-18 -25t-17.5 -24q-28 -42 -102 -100 q-73 -56 -99 -68q-79 -36 -98 -41q-46 -14 -86 -16q-15 0 -55 11t-64 11q-4 0 -7.5 -2.5t-7 -6.5t-5.5 -5q-1 0 -4.5 -3t-7 -4.5t-7.5 -0.5q-28 3 -69.5 5.5t-55.5 4.5q-13 2 -26 6t-21 6t-12 2q-80 19 -111 47q-23 23 -14 68q15 44 25 53q21 15 71 15q7 0 24 -10t25 -13 q6 -2 32.5 -10.5t43.5 -13.5q61 -18 154 -27q94 -6 219 -6q46 0 82 26q25 18 39 74q9 29 2 72q-3 43 -23 65l-11 14q-11 13 -22 23q-23 20 -71 51q-52 35 -56 37q-5 3 -27.5 8t-39.5 15q-31 22 -43 67q-3 14 10.5 42.5t16.5 41.5q4 14 -2 44.5t-1 43.5q6 15 34 33t32 21 q4 4 9 8.5t13.5 11.5t14.5 12q4 4 22 27t35 33q24 18 41 35q11 9 15 30q4 20 2 31q0 4 4 14.5t5 17t-3 13.5q-9 9 -30 18t-24 11q-5 3 -10.5 6t-8 4.5t-3.5 3.5q-3 5 -10 14t-11.5 17.5t-5.5 15.5q0 10 10.5 29.5t12.5 28.5q1 3 6.5 25t8.5 30t9.5 24t15 27.5t19.5 20.5 q22 20 85.5 41t82.5 30q9 4 24.5 17.5t22.5 17.5q8 4 21 22t22 23q11 4 33 7.5t29 6.5q12 3 43 3q46 0 80 -39zM578 627q-48 0 -103 -45q-58 -54 -69 -97q-7 -27 -3 -39q2 -4 4 -13t6 -16t11 -11q18 -9 45 -9q16 -2 55 -2q76 0 142 19q67 19 77 53q6 28 -10 61 q-6 9 -27 23.5t-26 19.5q-9 11 -30 22.5t-25 14.5q-25 19 -47 19z" />
<glyph unicode="&#xa8;" horiz-adv-x="815" d="M225 1718h4l17 -6l18 -8l17 2l-2 -14l20 -9l29 -26l12 -15l29 -67l2 -14v-25l-15 -25l-14 -16l-2 -4l-31 -4l-35 -4l-36 14l-17 8l-4 4l-49 35l-23 21l-4 10v27l-4 22l4 27l17 32l37 29zM543 1714l45 -14l18 4l25 -31l28 -24l19 -50v-55l-27 -28l-10 -7l-20 -6l-54 8 l-41 21l-43 39l-2 31l-8 12l23 69l20 15l21 6z" />
<glyph unicode="&#xa9;" horiz-adv-x="1273" d="M1165 975q0 -9 -2 -17l-6 -28l2 -6q2 0 4 -2q0 -11 -28 -72q-5 -11 -10 -23.5t-8.5 -20.5t-6.5 -13q-19 -31 -45 -62q-13 -20 -14 -22q-10 -4 -27 -21l2 -6q-2 -1 -4 -4l-2 -4q-1 0 -20 -11t-31 -18q-2 -3 -7.5 -7t-14 -10.5t-13.5 -11.5q-1 -1 -4 -3t-4 -3 q-6 -3 -43 -20q-15 -5 -29 -12q-3 -2 -10.5 -6t-12.5 -7q-2 -1 -21.5 -6t-35.5 -10q-2 -2 -10 -6q-37 -11 -78 -19q-4 -1 -18.5 -3.5t-24.5 -4.5l-20 -2q-13 0 -31 -6q-72 0 -143 12q-87 16 -181 62q-46 24 -84 57q-3 1 -41 43l-30 47q-2 10 -13.5 41t-17.5 51q2 -4 4 3 q4 19 0 73q6 18 6 31l19 61q12 22 24 55q7 8 22 33.5t27 42.5q3 3 70 92q15 16 44.5 47t43.5 46q3 3 12.5 8.5t14.5 9.5l18 18q11 6 23 15q49 38 110 41l12 8l11 4q1 0 15 5t15 5q6 2 25 2q11 7 76 25l4 2l22 2q2 0 6.5 1t6.5 1q16 0 30 -4l27 2q3 -4 35 -16q14 -11 31 -19 q8 -4 18 -4q-5 -3 0 -8q7 -11 20 -21l7 -14q27 -15 51 -25q14 -14 26 -22q1 -1 11 -6l32 -23q25 -25 33 -32l13 -13l5 -7.5t6 -8.5t7 -8l2 -6q-1 -1 4 -5q1 -2 8 -10.5t11 -15.5q3 -2 6.5 -8t7.5 -9l8 -16q4 -6 4 -25q2 -2 6 -2q7 -14 11 -18q1 -10 3.5 -25t7 -38t7.5 -41 l4 -23q-2 -2 2 -4zM969 993q-3 72 -25 109q-4 8 -14 26.5t-15 28.5q-12 12 -18 27q-7 6 -24 18t-25 19l-53 39q-10 4 -38.5 15t-43.5 17q-25 -14 -51 -14l-66 -2q-6 -1 -14 -5t-19.5 -11.5t-21 -15t-25.5 -20t-27 -20.5q-24 -11 -94 -96q-10 -10 -18 -37q-18 -18 -19 -20 q-4 -11 -30 -54q-34 -49 -56 -114q-3 -40 0 -58q-3 -38 9 -65q3 -3 6 -12t6 -13l35 -39q14 -11 75 -39q46 -17 158 -14l34 5l9 1q35 3 51 6q4 1 76 23q17 10 35 18q38 13 72 43l53 62q1 1 4.5 7.5t12 20.5t18.5 29q4 7 14 26t16 29v11q13 35 13 69zM817 815l-14 -6 q-4 -3 -11.5 -8t-24.5 -16.5t-32 -22.5q-31 -22 -101 -50t-93 -28q-17 0 -25.5 2t-21.5 14t-31 39q-15 17 -19 22t-19 27.5t-21.5 39.5t-11.5 45t-3 57q7 45 17 61q22 16 32 47q34 30 39 80q4 4 7.5 4.5t7.5 3.5t19.5 23.5t43.5 60.5q29 1 37 4t16 13q67 -32 121 -88l-4 -19 q-2 0 -12 -2t-13 -2q-4 0 -19 4t-19 4q-46 0 -111 -123q-39 -74 -39 -135q-6 -60 6.5 -75t65.5 -15q93 0 178 55q2 2 11.5 6.5t17.5 9.5t18 18.5t16 31.5l15 -51z" />
<glyph unicode="&#xaa;" horiz-adv-x="702" />
<glyph unicode="&#xab;" horiz-adv-x="983" d="M559 766h2l29 -10l20 -11l11 -34l-5 -33l-6 -12l-67 -62l-111 -86l-121 -108l-20 -33v-15l10 -18l133 -127l21 -22l12 -33l4 -35l-4 -10l-16 -17l-25 -4l-14 4l-23 -16h-27l-38 16l-117 84l-29 33l-28 35l-27 63v29l6 41l21 39l40 65l148 134l96 75l82 52l12 6zM825 754 l35 -15l10 -2l17 -26l12 -45l-4 -23l-23 -43l-28 -29l-13 -22l-79 -64l-101 -92l33 -39l16 -22l60 -70l12 -22l10 -27l11 -31v-16l-23 -4l-49 -33l-33 -6l-45 29l-10 4l-10 -6l-50 24l-84 92l-26 58l-6 43l16 65l23 45l86 90l123 109l94 69z" />
<glyph unicode="&#xac;" horiz-adv-x="1435" />
<glyph unicode="&#xad;" horiz-adv-x="849" d="M485 469l72 2h160l37 -4l14 -8v-10l-29 -9l-2 -10l-10 -2l-29 -16l-4 -15l-22 -10l-27 -22l-53 -17l-31 -10l-6 -8l-31 10l-4 -8l-51 -27l-74 -18l-47 -11l-57 3l-51 -5l-70 9l-39 -9l-22 15v10l-17 18l-8 7l2 34l-4 15l20 37l9 12l39 12l63 6l127 17l74 8z" />
<glyph unicode="&#xae;" horiz-adv-x="1230" d="M1151 977l8 -2q0 -9 -2 -17l-6 -28l2 -6q2 0 4 -2q0 -9 -29 -72q-6 -13 -13.5 -32t-10.5 -25q-19 -31 -45 -62q-1 -2 -3.5 -4.5t-4 -5t-4 -6t-3.5 -6.5q-8 -3 -26 -21l2 -6q-2 -1 -4 -4l-2 -4q-1 0 -20 -11t-31 -18q-2 -3 -7.5 -7t-14 -10.5t-13.5 -11.5q-1 -1 -4 -3 t-4 -3q-6 -3 -43 -20q-15 -5 -29 -12q-3 -2 -10.5 -6t-12.5 -7q-2 -1 -21.5 -6t-35.5 -10q-2 -2 -10 -6q-37 -11 -78 -19q-4 -1 -18.5 -3.5t-24.5 -4.5l-21 -2q-12 0 -30 -6q-74 0 -144 12q-86 16 -180 62q-46 24 -84 57q-3 1 -41 43q-1 3 -5 9t-12 17t-14 21q-2 10 -13 41 t-17 51q2 -4 4 3q4 19 0 73q6 18 6 31l18 61q15 26 25 55q7 8 22 33.5t27 42.5q3 3 70 92q15 16 44.5 47t43.5 46q3 3 12 8.5t14 9.5l19 18q9 4 22 15q49 38 111 41l12 8l11 4q1 0 15 5t15 5q6 2 25 2q11 7 76 25l4 2l22 2q2 0 6.5 1t6.5 1q16 0 30 -4l27 2q3 -4 35 -16 q16 -12 30 -19q8 -4 19 -4q-5 -3 0 -8q7 -11 20 -21q6 -12 6 -14q24 -14 52 -25q14 -14 26 -22q1 -1 11 -6l32 -23q25 -25 33 -32l12 -13q15 -20 19 -24l2 -6q-1 -1 4 -5q2 -2 8 -10.5t10 -15.5q3 -2 7 -8t8 -9l8 -16q4 -6 4 -25q2 -2 6 -2q8 -16 10 -18q1 -13 8.5 -49 t10.5 -55l4 -23q-2 -2 2 -4zM963 993q-3 72 -25 109q-4 8 -14 26.5t-15 28.5q-12 12 -18 27q-7 6 -24 18t-25 19l-54 39q-10 5 -39 16t-42 16q-25 -14 -52 -14l-65 -2q-6 -1 -14 -5t-19.5 -11.5t-21 -15t-25.5 -20t-27 -20.5q-24 -11 -94 -96q-10 -10 -18 -37 q-18 -18 -19 -20q-4 -11 -30 -54q-34 -49 -56 -114q-3 -40 0 -58q-3 -40 8 -65q3 -3 7 -12t6 -13l35 -39q14 -11 75 -39q46 -17 158 -14l34 5l9 1q35 3 51 6q4 1 76 23q17 10 35 18q36 12 71 43l54 62q1 1 4.5 7.5t12 20.5t18.5 29q4 7 14 26t16 29v11q13 35 13 69zM829 778 l-2 -2q-2 -2 -10.5 -4.5t-11.5 -5.5q-6 0 -8 2v-4h-9h-2h-4q-4 4 -26.5 13t-34.5 16l-16 6q-12 4 -78 39l-6 2q-44 20 -64 30l-18 7l-9 -3q-6 -3 -15.5 -8.5t-15 -8.5t-13.5 -6.5t-17 -4.5l-2 -12v-7q-4 -12 -25 -51v-2l-14 -41q-14 -25 -25 -37l-8 -6q0 -2 -8 -2 q-1 0 -5 2.5t-9.5 8.5t-10.5 14v2v14q-2 0 -4 4l4 37q3 3 3 8q0 2 1 4t1.5 3.5t-0.5 2.5q2 5 5.5 23.5t6.5 28.5v2q0 15 10 35q10 28 19 63q10 23 23.5 63t27.5 74v6q3 3 6 9v6q2 3 6 13.5t8 18.5l5 8q5 7 14.5 12.5t29.5 10.5q4 -2 11 -2h10q1 0 5 1t7 1q89 51 115 51 q-1 0 10.5 2t25.5 4.5t19 2.5q12 0 39 -9q37 -18 47 -55q4 -16 2 -33q0 -20 -8 -26v-2q-13 -28 -22 -35t-95 -62l-42 -24q-18 -12 -19 -17v-2l-8 -6q-6 -3 -11 -16v-4q-2 0 -2 -8v-2q0 -3 16.5 -12t71.5 -40t119 -69q4 -3 6 -8.5t2 -10t2 -4.5v2zM750 1141q-1 0 -4.5 1 t-8.5 2.5t-8 2.5l-23 -5l-42 -9q-2 -2 -10 -5t-25.5 -12.5t-42.5 -25.5q-2 -2 -41 -68l-15 -41q57 19 68 23q2 2 12 5.5t35 21t66 54.5q12 9 21.5 23t13.5 24z" />
<glyph unicode="&#xaf;" horiz-adv-x="487" d="M604 1122l31 -30l16 -33l-4 -33l-16 -53l-19 -33l-16 -33l-18 -33l-39 -57l-25 -29l-10 -18l-17 -25l-129 -237l-6 -27l-20 -41l-19 -34l-10 -37l-14 -60l-4 -12v-25l-15 -49v-43l11 -2l-5 -10l5 -43l10 -51l18 -31l-6 -16l23 -29l43 -37l22 -33l-2 -26l-31 -6l-59 16 l-37 22l-41 31l-18 19l-62 75l6 9l-10 12l-22 59l-19 97v55l8 69l11 11l-11 10l37 137l66 135l14 37l53 115l29 41l21 45l45 76l55 88l47 59l57 25z" />
<glyph unicode="&#xb0;" horiz-adv-x="0" />
<glyph unicode="&#xb1;" horiz-adv-x="944" />
<glyph unicode="&#xb4;" horiz-adv-x="681" d="M524 1749h8l11 -6l2 -8l-8 -2l-7 -17l2 -6l-10 -4l-16 -10v-6l6 -9l-8 -8l4 -16l-8 -6v-6l24 4v-2l-28 -23l-7 -20l-14 -23l-12 -14l-25 -23l-22 -16l-82 -49l-74 -33l-14 -2h-35l-25 8h-16l-12 6v8l-8 9l-11 28l2 10l-4 13l4 8l13 12v4l61 56l29 20l84 62l61 36l60 15z " />
<glyph unicode="&#xb5;" horiz-adv-x="796" d="M793 240q10 -42 10 -66q0 2 -2 -2q0 -1 -2 -5q-34 -83 -80 -83q-36 0 -109 20q-11 2 -39.5 43t-33.5 41q-10 0 -19 -12q-99 -184 -158 -237q-4 -2 -72 -28t-71 -26q-25 0 -98 25q-10 17 -29 39q-7 -18 -37 -84q4 -12 4 -25q0 -2 -1 -6t-1 -6v6q0 19 -14 60q-8 0 -14 -80 q-24 -42 -44 -113t-39.5 -108t-58.5 -37t-39 61q0 10 6 36.5t11 37.5q6 18 10.5 50.5t11 84t13.5 92.5q-2 8 -2 39q72 308 229 731q1 2 9 14.5t11 17.5t10.5 18t11.5 23t10 24.5t11 29.5q7 33 19 33q21 0 69 -43.5t48 -67.5q0 -5 -9.5 -32.5t-9.5 -32.5q0 -2 -0.5 -8 t-1.5 -17.5t-2 -23.5l21 -39q-1 -3 -4.5 -9.5t-4.5 -9.5q2 -2 2 -6q-1 -1 -2.5 -4l-3 -6t-2.5 -6q-27 -98 -28 -101q-4 -11 -23.5 -43.5t-26.5 -56.5l-34 -104q-17 -25 -35 -68q-8 -50 -8 -70q0 -4 24 -15.5t25 -14.5h12q11 13 61 39q14 8 26.5 17.5t21 16.5t17.5 18.5 t13.5 17.5t12 20t9.5 19t9.5 22.5t9.5 21.5l146 342q4 0 17 3t17 3q3 0 43 -28.5t50 -28.5q12 0 16 4q6 -6 16.5 -37.5t10.5 -42.5q0 -13 -19 -121l-20 -116q0 -33 32 -33q0 3 91 33z" />
<glyph unicode="&#xb6;" horiz-adv-x="765" />
<glyph unicode="&#xb7;" horiz-adv-x="432" d="M154 635l53 -17l59 -10l15 -22l10 8l6 -4l16 -29l11 -20h4l6 10l8 -4l6 -10l19 -23l10 -65l-2 -33l2 -15l-10 5v-5l4 -10l-27 -14l-31 -8l-18 -25l-37 4h-8l-49 17l-51 32l-15 19l-18 4l4 6l-12 12v15l-33 18l-23 10l6 13h2v10l9 10l-4 14l8 9h10l6 36l45 50z" />
<glyph unicode="&#xb8;" horiz-adv-x="819" />
<glyph unicode="&#xba;" horiz-adv-x="722" />
<glyph unicode="&#xbb;" horiz-adv-x="983" d="M102 96l-36 15l-25 28l-14 45l4 23l22 43l29 29l14 22l90 61l121 80l-65 54l-17 22l-57 70l-14 22l-11 27l-8 31v16l23 4l49 33l31 6l47 -29l8 -4l10 6l47 -51l74 -76l70 -98l10 -49l-33 -55l-59 -35l-66 -53l-125 -109l-94 -72zM541 762l28 -4l15 -10l8 -7h8l18 -22 l168 -109l62 -69l35 -58l8 -20v-8l8 -15l-2 -20l4 -8l-4 -54l-4 -24l-6 -4l-15 -17l-51 -43l-65 -32l-27 -19l-10 -2l-19 -2l-18 10l-16 -6l-4 -14l-21 -2l-6 -8l-19 -5l-53 -10l-20 -6h-8l-23 -4l-18 -4l-35 -12l-49 -29l-7 6l-45 -27l-43 -14l-10 -6h-22v29l8 41l26 47 l41 30l74 41l227 90l23 17l-84 70l-51 53l-25 45l-18 28l-17 25l-8 51l-6 19v16l10 23l15 26l10 6z" />
<glyph unicode="&#xbf;" horiz-adv-x="972" d="M66 0q-18 35 -21 66q0 36 12 73q0 5 4 21q9 24 11 33q20 23 59 75q17 22 45 41q5 5 21 25q12 12 32.5 31.5t28.5 27.5q19 24 49 51q129 109 172 154q74 77 109 152q15 35 58.5 74.5t76.5 39.5q25 0 25 -26q0 -6 -3 -15l9 -8q1 -4 -5.5 -18.5t-18.5 -36.5t-15 -29 q-71 -142 -164 -258q-12 -14 -71.5 -79.5t-94.5 -113t-43 -83.5v-4q0 -36 8 -64q1 -2 4.5 -8t5.5 -8q9 -9 19 -9l3 -5q3 -5 4.5 -7t6 -4.5t10.5 -1.5q-3 -10 3 -10l8 4q0 -2 4 -2q6 -6 10 -17q18 -6 41 -6q43 0 90 26.5t91.5 54.5t76.5 30q17 0 28 -14t11 -29h10 q23 0 23 -14q0 -8 -8 -21l2 -6q0 -30 -63 -89.5t-114 -84.5q-72 -33 -102 -46t-84 -27.5t-102 -14.5q-86 0 -161 50t-101 130zM649 1081q0 2 -2 4l-8 37q0 5 4 13q12 46 41 94q48 29 82 57q8 4 33 4h6q29 -6 39 -16q21 -21 35 -31q8 -16 14 -26q1 -1 6 -11l-4 -12 q6 -5 16 -16.5t13 -14.5q-7 -21 -47 -69q0 -8 -9 -23q-2 -1 -9 -3.5t-11 -4.5l-2 -6q-5 -5 -33 -29q-4 -3 -14.5 -8.5t-16.5 -9.5q-3 -2 -39 2q-2 0 -6 1.5l-12 4.5l-16 6l-9 -6q-2 2 -4 2l-12 18q-2 -2 -10 -2q-17 20 -17 47q-4 -2 -8 -2z" />
<glyph unicode="&#xc0;" horiz-adv-x="817" d="M588 1247q35 0 76 -14q6 -5 18 -8q3 -2 16 -10t21 -13q34 -40 43 -67q6 -15 12 -33q0 -17 2 -29q0 -6 4 -18v-74q-2 -12 -2 -57q-2 -10 -2 -37q-5 -27 -8 -99q-1 -10 -2.5 -22t-4 -28t-3.5 -27q0 -15 -2 -25q-9 -31 -11 -53q-7 -15 -10 -82q-2 -6 -2 -21l-2 -2 q-3 -6 -6 -26q2 -2 2 -6q0 -1 -4 -13l-4 -12q0 -4 6 -10q16 -16 16 -25q-2 -6 -2 -12q2 0 2 -2q-2 -11 -14 -27q-1 -1 -3 -4t-3 -4q2 -10 2 -22q-1 -1 -2 -5t-2 -6q0 -10 2 -16q-2 -8 -2 -33q0 -4 -6 -10q1 -5 2 -15.5t2 -15.5q0 -4 2 -8q-2 -6 -2 -20q1 -2 2 -8t2 -9 q-2 -2 -2 -6q0 -8 2 -14q-2 -6 -2 -23q1 -11 10 -96q2 -6 2 -21v-10q1 -5 2 -17t2 -18q0 -8 -2 -14v-12q0 -5 -2 -27t-2 -27q2 -4 2 -16q-1 -1 -2 -3t-2 -3q-4 -22 -10 -33q0 -5 -6 -14t-12 -15.5t-5 -7.5q-8 -2 -14 4l-2 -10l4 -20q-5 -5 -8 -2q-18 55 -31 112v6 q-3 13 -10.5 43t-11.5 48q-1 6 -2.5 16.5t-2.5 15.5q-12 60 -16 88q-1 5 -2 18t-2 19l-18 13q-4 8 -27 30q-12 16 -41 45q-10 13 -35 35q-12 -4 -20 -6q-15 -3 -43 -6q-2 0 -2 -2h-2q-8 -1 -117 -15q-19 -44 -21 -63q-34 -87 -47 -129l-6 -19l-4 -12l-8 -26q-9 -26 -10 -29 l-15 -35q-10 -22 -18 -63q-2 -2 -12 -17q-36 -26 -58 -26q-19 0 -39 20q-30 30 -30 66q0 31 18 77q14 50 39 127l35 109q4 15 12 37q9 12 12 31q-3 15 -6 36q3 12 10 35q4 8 13 35v2q12 10 37 31q10 25 16 39q7 21 45 110q2 2 14 39q2 0 8 13q96 204 146 321q4 4 6 10l8 19 q15 29 47 100q3 8 13 18q23 51 61 103q9 3 10 4q17 10 21 10zM563 967q-11 0 -67 -140q-8 -13 -52 -129q-3 -5 -47 -116q-8 -20 -28 -82q-6 -24 -7 -29h46q8 1 34.5 2t57 3t63.5 5q1 1 2 3t2 3q0 11 4 121q9 147 9 213q0 29 -2 68q0 11 -3 45q-15 30 -12 33zM854 1167 q-3 -15 -4 -16l-4 -4h-6l-6 -6h-5q-9 -6 -26 -6q-23 0 -55 14q-20 7 -50 20q-54 24 -100 60q-72 54 -92 67q-36 30 -45 37q-16 20 -33 37q-1 1 -18 35q-15 24 -15 45l2 2q3 33 21 33q47 1 43 4q10 0 18 -2l13 -4q8 -4 14 -6q1 -1 3 -2t3 -2l10 -5q7 -3 10 -10 q17 -15 70.5 -61t89.5 -78q3 -3 35.5 -32.5t48.5 -45.5q78 -72 78 -74z" />
<glyph unicode="&#xc1;" horiz-adv-x="817" d="M588 1247q35 0 76 -14q6 -5 18 -8q3 -2 16 -10t21 -13q34 -40 43 -67q6 -15 12 -33q0 -17 2 -29q0 -6 4 -18v-74q-2 -12 -2 -57q-2 -10 -2 -37q-5 -27 -8 -99q-1 -10 -2.5 -22t-4 -28t-3.5 -27q0 -15 -2 -25q-9 -31 -11 -53q-7 -15 -10 -82q-2 -6 -2 -21l-2 -2 q-3 -6 -6 -26q2 -2 2 -6q0 -1 -4 -13l-4 -12q0 -4 6 -10q16 -16 16 -25q-2 -6 -2 -12q2 0 2 -2q-2 -11 -14 -27q-1 -1 -3 -4t-3 -4q2 -10 2 -22q-1 -1 -2 -5t-2 -6q0 -10 2 -16q-2 -8 -2 -33q0 -4 -6 -10q1 -5 2 -15.5t2 -15.5q0 -4 2 -8q-2 -6 -2 -20q1 -2 2 -8t2 -9 q-2 -2 -2 -6q0 -8 2 -14q-2 -6 -2 -23q1 -11 10 -96q2 -6 2 -21v-10q1 -5 2 -17t2 -18q0 -8 -2 -14v-12q0 -5 -2 -27t-2 -27q2 -4 2 -16q-1 -1 -2 -3t-2 -3q-4 -22 -10 -33q0 -5 -6 -14t-12 -15.5t-5 -7.5q-8 -2 -14 4l-2 -10l4 -20q-5 -5 -8 -2q-18 55 -31 112v6 q-3 13 -10.5 43t-11.5 48q-1 6 -2.5 16.5t-2.5 15.5q-12 60 -16 88q-1 5 -2 18t-2 19l-18 13q-4 8 -27 30q-12 16 -41 45q-10 13 -35 35q-12 -4 -20 -6q-15 -3 -43 -6q-2 0 -2 -2h-2q-8 -1 -117 -15q-19 -44 -21 -63q-34 -87 -47 -129l-6 -19l-4 -12l-8 -26q-9 -26 -10 -29 l-15 -35q-10 -22 -18 -63q-2 -2 -12 -17q-36 -26 -58 -26q-19 0 -39 20q-30 30 -30 66q0 31 18 77q14 50 39 127l35 109q4 15 12 37q9 12 12 31q-3 15 -6 36q3 12 10 35q4 8 13 35v2q12 10 37 31q10 25 16 39q7 21 45 110q2 2 14 39q2 0 8 13q96 204 146 321q4 4 6 10l8 19 q15 29 47 100q3 8 13 18q23 51 61 103q9 3 10 4q17 10 21 10zM563 967q-11 0 -67 -140q-8 -13 -52 -129q-3 -5 -47 -116q-8 -20 -28 -82q-6 -24 -7 -29h46q8 1 34.5 2t57 3t63.5 5q1 1 2 3t2 3q0 11 4 121q9 147 9 213q0 29 -2 68q0 11 -3 45q-15 30 -12 33zM922 1749h8 l10 -6l2 -8l-8 -2l-6 -17l2 -6l-10 -4l-17 -10v-6l6 -9l-8 -8l4 -16l-8 -6v-6l25 4v-2l-29 -23l-6 -20l-15 -23l-12 -14l-24 -23l-23 -16l-82 -49l-74 -33l-14 -2h-35l-24 8h-17l-12 6v8l-8 9l-10 28l2 10l-4 13l4 8l12 12v4l61 56l29 20l84 62l61 36l60 15z" />
<glyph unicode="&#xc2;" horiz-adv-x="817" d="M588 1247q35 0 76 -14q6 -5 18 -8q3 -2 16 -10t21 -13q34 -40 43 -67q6 -15 12 -33q0 -17 2 -29q0 -6 4 -18v-74q-2 -12 -2 -57q-2 -10 -2 -37q-5 -27 -8 -99q-1 -10 -2.5 -22t-4 -28t-3.5 -27q0 -15 -2 -25q-9 -31 -11 -53q-7 -15 -10 -82q-2 -6 -2 -21l-2 -2 q-3 -6 -6 -26q2 -2 2 -6q0 -1 -4 -13l-4 -12q0 -4 6 -10q16 -16 16 -25q-2 -6 -2 -12q2 0 2 -2q-2 -11 -14 -27q-1 -1 -3 -4t-3 -4q2 -10 2 -22q-1 -1 -2 -5t-2 -6q0 -10 2 -16q-2 -8 -2 -33q0 -4 -6 -10q1 -5 2 -15.5t2 -15.5q0 -4 2 -8q-2 -6 -2 -20q1 -2 2 -8t2 -9 q-2 -2 -2 -6q0 -8 2 -14q-2 -6 -2 -23q1 -11 10 -96q2 -6 2 -21v-10q1 -5 2 -17t2 -18q0 -8 -2 -14v-12q0 -5 -2 -27t-2 -27q2 -4 2 -16q-1 -1 -2 -3t-2 -3q-4 -22 -10 -33q0 -5 -6 -14t-12 -15.5t-5 -7.5q-8 -2 -14 4l-2 -10l4 -20q-5 -5 -8 -2q-18 55 -31 112v6 q-3 13 -10.5 43t-11.5 48q-1 6 -2.5 16.5t-2.5 15.5q-12 60 -16 88q-1 5 -2 18t-2 19l-18 13q-4 8 -27 30q-12 16 -41 45q-10 13 -35 35q-12 -4 -20 -6q-15 -3 -43 -6q-2 0 -2 -2h-2q-8 -1 -117 -15q-19 -44 -21 -63q-34 -87 -47 -129l-6 -19l-4 -12l-8 -26q-9 -26 -10 -29 l-15 -35q-10 -22 -18 -63q-2 -2 -12 -17q-36 -26 -58 -26q-19 0 -39 20q-30 30 -30 66q0 31 18 77q14 50 39 127l35 109q4 15 12 37q9 12 12 31q-3 15 -6 36q3 12 10 35q4 8 13 35v2q12 10 37 31q10 25 16 39q7 21 45 110q2 2 14 39q2 0 8 13q96 204 146 321q4 4 6 10l8 19 q15 29 47 100q3 8 13 18q23 51 61 103q9 3 10 4q17 10 21 10zM563 967q-11 0 -67 -140q-8 -13 -52 -129q-3 -5 -47 -116q-8 -20 -28 -82q-6 -24 -7 -29h46q8 1 34.5 2t57 3t63.5 5q1 1 2 3t2 3q0 11 4 121q9 147 9 213q0 29 -2 68q0 11 -3 45q-15 30 -12 33zM936 1466 q0 -11 -12 -41q-12 -6 -21 -6q-24 0 -33 6q-19 19 -88 127q-12 16 -45 68q-12 15 -26 18q-2 -2 -17 -6q-3 -2 -67 -76q-1 -1 -19 -24q-2 -3 -80 -94q-26 -20 -32 -47q-31 -17 -41 -17q-23 3 -29 12q-17 8 -33 52q0 2 2 4q0 18 39 74q4 6 14 18t18.5 23t16.5 22 q38 48 111 131q10 8 35 33q16 12 26 22q6 6 19 11q34 0 49 -15q3 -2 11.5 -6.5t13.5 -7.5q7 -5 23 -19t24 -20q9 -15 24 -33l68 -135q17 -30 33 -49v-2q10 -15 16 -23z" />
<glyph unicode="&#xc3;" horiz-adv-x="817" d="M588 1247q35 0 76 -14q6 -5 18 -8q3 -2 16 -10t21 -13q34 -40 43 -67q6 -15 12 -33q0 -17 2 -29q0 -6 4 -18v-74q-2 -12 -2 -57q-2 -10 -2 -37q-5 -27 -8 -99q-1 -10 -2.5 -22t-4 -28t-3.5 -27q0 -15 -2 -25q-9 -31 -11 -53q-7 -15 -10 -82q-2 -6 -2 -21l-2 -2 q-3 -6 -6 -26q2 -2 2 -6q0 -1 -4 -13l-4 -12q0 -4 6 -10q16 -16 16 -25q-2 -6 -2 -12q2 0 2 -2q-2 -11 -14 -27q-1 -1 -3 -4t-3 -4q2 -10 2 -22q-1 -1 -2 -5t-2 -6q0 -10 2 -16q-2 -8 -2 -33q0 -4 -6 -10q1 -5 2 -15.5t2 -15.5q0 -4 2 -8q-2 -6 -2 -20q1 -2 2 -8t2 -9 q-2 -2 -2 -6q0 -8 2 -14q-2 -6 -2 -23q1 -11 10 -96q2 -6 2 -21v-10q1 -5 2 -17t2 -18q0 -8 -2 -14v-12q0 -5 -2 -27t-2 -27q2 -4 2 -16q-1 -1 -2 -3t-2 -3q-4 -22 -10 -33q0 -5 -6 -14t-12 -15.5t-5 -7.5q-8 -2 -14 4l-2 -10l4 -20q-5 -5 -8 -2q-18 55 -31 112v6 q-3 13 -10.5 43t-11.5 48q-1 6 -2.5 16.5t-2.5 15.5q-12 60 -16 88q-1 5 -2 18t-2 19l-18 13q-4 8 -27 30q-12 16 -41 45q-10 13 -35 35q-12 -4 -20 -6q-15 -3 -43 -6q-2 0 -2 -2h-2q-8 -1 -117 -15q-19 -44 -21 -63q-34 -87 -47 -129l-6 -19l-4 -12l-8 -26q-9 -26 -10 -29 l-15 -35q-10 -22 -18 -63q-2 -2 -12 -17q-36 -26 -58 -26q-19 0 -39 20q-30 30 -30 66q0 31 18 77q14 50 39 127l35 109q4 15 12 37q9 12 12 31q-3 15 -6 36q3 12 10 35q4 8 13 35v2q12 10 37 31q10 25 16 39q7 21 45 110q2 2 14 39q2 0 8 13q96 204 146 321q4 4 6 10l8 19 q15 29 47 100q3 8 13 18q23 51 61 103q9 3 10 4q17 10 21 10zM563 967q-11 0 -67 -140q-8 -13 -52 -129q-3 -5 -47 -116q-8 -20 -28 -82q-6 -24 -7 -29h46q8 1 34.5 2t57 3t63.5 5q1 1 2 3t2 3q0 11 4 121q9 147 9 213q0 29 -2 68q0 11 -3 45q-15 30 -12 33zM1036 1673 q-4 -10 -12 -22l2 -2q-10 -19 -39 -56q-2 -6 -12 -26l-4 -2v-6q-5 -11 -19 -33v-6q0 -5 2 -7q-12 -20 -20 -32q2 2 2 0q-2 0 -2 -4q-9 -6 -27 -21l-2 -2q-14 -14 -22 -18q-32 -13 -82 -13q-72 6 -146 47q-7 7 -28 19q-3 3 -25 16q-4 0 -20 8.5t-17 8.5q1 -2 -3 -3.5t-9 -4 t-10 -12.5t-6 -27q-12 -33 -45 -33q-11 0 -17 2h-8q-2 1 -6.5 2t-7.5 2h-9q-10 2 -20 20q-3 3 -12 27q1 1 2 3t2 3q-2 2 -2 8q0 14 8 45q30 68 51 86q44 38 72 35q6 2 20 2q4 -1 20 -3.5t27 -4.5q3 -1 9.5 -4t9.5 -4q6 -4 25 -16.5t32 -20.5q27 -27 43 -45q2 -2 6 -10v-2 q7 -16 19 -35l2 -2l12 -4h14q10 2 16.5 3.5t11.5 4t7.5 4t7.5 5.5t7 5q14 18 79 94q36 39 50 39q43 0 43 2q4 0 20 -4q2 -2 10 -6z" />
<glyph unicode="&#xc4;" horiz-adv-x="817" d="M588 1247q35 0 76 -14q6 -5 18 -8q3 -2 16 -10t21 -13q34 -40 43 -67q6 -15 12 -33q0 -17 2 -29q0 -6 4 -18v-74q-2 -12 -2 -57q-2 -10 -2 -37q-5 -27 -8 -99q-1 -10 -2.5 -22t-4 -28t-3.5 -27q0 -15 -2 -25q-9 -31 -11 -53q-7 -15 -10 -82q-2 -6 -2 -21l-2 -2 q-3 -6 -6 -26q2 -2 2 -6q0 -1 -4 -13l-4 -12q0 -4 6 -10q16 -16 16 -25q-2 -6 -2 -12q2 0 2 -2q-2 -11 -14 -27q-1 -1 -3 -4t-3 -4q2 -10 2 -22q-1 -1 -2 -5t-2 -6q0 -10 2 -16q-2 -8 -2 -33q0 -4 -6 -10q1 -5 2 -15.5t2 -15.5q0 -4 2 -8q-2 -6 -2 -20q1 -2 2 -8t2 -9 q-2 -2 -2 -6q0 -8 2 -14q-2 -6 -2 -23q1 -11 10 -96q2 -6 2 -21v-10q1 -5 2 -17t2 -18q0 -8 -2 -14v-12q0 -5 -2 -27t-2 -27q2 -4 2 -16q-1 -1 -2 -3t-2 -3q-4 -22 -10 -33q0 -5 -6 -14t-12 -15.5t-5 -7.5q-8 -2 -14 4l-2 -10l4 -20q-5 -5 -8 -2q-18 55 -31 112v6 q-3 13 -10.5 43t-11.5 48q-1 6 -2.5 16.5t-2.5 15.5q-12 60 -16 88q-1 5 -2 18t-2 19l-18 13q-4 8 -27 30q-12 16 -41 45q-10 13 -35 35q-12 -4 -20 -6q-15 -3 -43 -6q-2 0 -2 -2h-2q-8 -1 -117 -15q-19 -44 -21 -63q-34 -87 -47 -129l-6 -19l-4 -12l-8 -26q-9 -26 -10 -29 l-15 -35q-10 -22 -18 -63q-2 -2 -12 -17q-36 -26 -58 -26q-19 0 -39 20q-30 30 -30 66q0 31 18 77q14 50 39 127l35 109q4 15 12 37q9 12 12 31q-3 15 -6 36q3 12 10 35q4 8 13 35v2q12 10 37 31q10 25 16 39q7 21 45 110q2 2 14 39q2 0 8 13q96 204 146 321q4 4 6 10l8 19 q15 29 47 100q3 8 13 18q23 51 61 103q9 3 10 4q17 10 21 10zM563 967q-11 0 -67 -140q-8 -13 -52 -129q-3 -5 -47 -116q-8 -20 -28 -82q-6 -24 -7 -29h46q8 1 34.5 2t57 3t63.5 5q1 1 2 3t2 3q0 11 4 121q9 147 9 213q0 29 -2 68q0 11 -3 45q-15 30 -12 33zM475 1559h4 l17 -7l18 -8l16 2l-2 -14l21 -8l29 -27l12 -14l28 -68l3 -14v-25l-15 -24l-14 -17l-2 -4l-31 -4l-35 -4l-37 14l-16 9l-4 4l-49 34l-23 21l-4 10v27l-4 22l4 27l17 33l36 28zM793 1554l45 -14l18 4l25 -31l28 -24l19 -49v-56l-27 -28l-10 -6l-21 -7l-53 9l-41 20l-43 39 l-2 31l-8 12l22 70l21 14l20 6z" />
<glyph unicode="&#xc5;" horiz-adv-x="817" d="M588 1247q35 0 76 -14q6 -5 18 -8q3 -2 16 -10t21 -13q34 -40 43 -67q6 -15 12 -33q0 -17 2 -29q0 -6 4 -18v-74q-2 -12 -2 -57q-2 -10 -2 -37q-5 -27 -8 -99q-1 -10 -2.5 -22t-4 -28t-3.5 -27q0 -15 -2 -25q-9 -31 -11 -53q-7 -15 -10 -82q-2 -6 -2 -21l-2 -2 q-3 -6 -6 -26q2 -2 2 -6q0 -1 -4 -13l-4 -12q0 -4 6 -10q16 -16 16 -25q-2 -6 -2 -12q2 0 2 -2q-2 -11 -14 -27q-1 -1 -3 -4t-3 -4q2 -10 2 -22q-1 -1 -2 -5t-2 -6q0 -10 2 -16q-2 -8 -2 -33q0 -4 -6 -10q1 -5 2 -15.5t2 -15.5q0 -4 2 -8q-2 -6 -2 -20q1 -2 2 -8t2 -9 q-2 -2 -2 -6q0 -8 2 -14q-2 -6 -2 -23q1 -11 10 -96q2 -6 2 -21v-10q1 -5 2 -17t2 -18q0 -8 -2 -14v-12q0 -5 -2 -27t-2 -27q2 -4 2 -16q-1 -1 -2 -3t-2 -3q-4 -22 -10 -33q0 -5 -6 -14t-12 -15.5t-5 -7.5q-8 -2 -14 4l-2 -10l4 -20q-5 -5 -8 -2q-18 55 -31 112v6 q-3 13 -10.5 43t-11.5 48q-1 6 -2.5 16.5t-2.5 15.5q-12 60 -16 88q-1 5 -2 18t-2 19l-18 13q-4 8 -27 30q-12 16 -41 45q-10 13 -35 35q-12 -4 -20 -6q-15 -3 -43 -6q-2 0 -2 -2h-2q-8 -1 -117 -15q-19 -44 -21 -63q-34 -87 -47 -129l-6 -19l-4 -12l-8 -26q-9 -26 -10 -29 l-15 -35q-10 -22 -18 -63q-2 -2 -12 -17q-36 -26 -58 -26q-19 0 -39 20q-30 30 -30 66q0 31 18 77q14 50 39 127l35 109q4 15 12 37q9 12 12 31q-3 15 -6 36q3 12 10 35q4 8 13 35v2q12 10 37 31q10 25 16 39q7 21 45 110q2 2 14 39q2 0 8 13q96 204 146 321q4 4 6 10l8 19 q15 29 47 100q3 8 13 18q23 51 61 103q9 3 10 4q17 10 21 10zM563 967q-11 0 -67 -140q-8 -13 -52 -129q-3 -5 -47 -116q-8 -20 -28 -82q-6 -24 -7 -29h46q8 1 34.5 2t57 3t63.5 5q1 1 2 3t2 3q0 11 4 121q9 147 9 213q0 29 -2 68q0 11 -3 45q-15 30 -12 33zM530 1495 q0 2 5 37l14 35v10q6 6 8 10q35 66 64 86q22 13 49 25q4 1 9 2.5t13 4t13 3.5q8 -3 53 -12q12 -12 24 -19l19 -18q6 -6 12 -8q12 -12 27 -33q6 -3 12 -12q13 -26 18 -41l7 -28v1q0 -54 -15 -94l-12 -12q-26 -26 -68 -52q-77 -47 -104 -32q-3 0 -15.5 -2.5t-15.5 -2.5 q-10 0 -38 10.5t-34 16.5q-30 30 -37.5 51.5t-7.5 73.5zM770 1532q0 59 -43 59q-7 0 -27 -20l-22 -25q-1 -1 -2 -3t-2 -3q-35 -21 -35 -70q0 -36 18 -36q0 4 62 39q51 26 51 59z" />
<glyph unicode="&#xc6;" horiz-adv-x="1411" d="M1542 1083q0 -9 -8 -12l-98 -24q-23 -10 -70 -13q-46 -13 -59 -16q-2 2 -9 2q-7 -1 -57 -8t-78 -11q-29 0 -41 -4q-2 -2 -6 -2t-6 2q-3 -1 -7.5 -1.5t-11.5 -1t-12 -1.5q-12 -3 -30 -6h-33q-4 -2 -12 -2q-3 1 -9.5 2t-9.5 2q-2 -2 -17.5 -16t-30.5 -30t-30 -34 q-19 -12 -33 -28q-6 -31 -20 -131q-2 -10 -2 -29q4 -11 12 -19q7 0 21 -36q15 -35 22 -35q1 0 5.5 -11.5t5.5 -11.5q3 -13 16 -30q5 1 32.5 4t51.5 6q4 0 86 18l31 4l8 4q25 0 31 -2q8 0 12 2q12 -4 14 -4q2 2 10 2q15 0 29 -14q8 0 16 -14q-2 -2 -2 -6q8 -3 17 -21 q-8 -14 -29 -31q0 -2 -94 -20q-7 -2 -34.5 -9.5t-49 -12t-39.5 -5.5q-1 -1 -4.5 -2t-5.5 -2q-34 -3 -113 -12q-21 -25 -51 -43q-6 -10 -27 -31l-6 -6q-3 -132 -8 -123q0 -1 1 -14t2 -19.5t3.5 -18.5t7.5 -24t13 -24q16 -26 30 -37q70 -43 156 -43q3 -1 9.5 -2t10.5 -2 q32 -2 58 2q10 0 16 2q2 -2 6 -2q16 8 21 10h16q4 -4 8 -4q1 1 4 2t5 2q2 -2 6 -2l-8 -4q0 1 -3 4q-2 0 0 2q-3 -8 0 -22q15 -9 15 -56v-8l-10 -8l-11 -10l-84 -25q-12 -9 -75 -18q-59 -7 -97 -9q-3 0 -24 7q-1 -1 -3 -2.5t-3 -2.5q-18 0 -109 39q-5 3 -19.5 10.5 t-23.5 12.5q-27 27 -55 49q-2 4 -13 16q-6 16 -26 56q-1 3 -25 63q-14 101 -18 131q-20 6 -41 27l-2 2q-19 9 -35 29h-45q-3 -1 -11 -2t-12 -2q-27 -22 -32 -25q-11 -15 -68 -66q-24 -24 -76 -67q-5 -6 -12 -13t-15.5 -15t-13.5 -13q-17 -29 -20 -35q-3 -8 -25 -51 q-3 -7 -22 -45l-27 -27q-5 -5 -29 -20q-12 0 -18 -2h-2q-1 0 -2 2h-2l4 8q3 13 6 10v2q0 -10 -22 -10q-9 3 -9 41q3 37 -2 47q1 -4 2 2q2 9 2 37q0 -10 52 121q9 21 12 49q3 18 6 55q1 3 2 10t2 11l8 8v12q7 10 13 29q8 6 14 14h6q7 2 17 12q72 163 79 177q2 6 23 43 q0 6 2 10l33 57q2 5 96 189q4 8 19 38.5t28 53.5q1 1 6 9t8 15q5 9 21.5 41t28.5 54q8 20 59 104q6 6 14 10q37 26 54 17q8 0 32 -7q3 3 6 0q17 -5 41 -22q10 -3 25 -18v-7q2 -1 7 -4.5t7 -5.5q3 -6 11.5 -17t11.5 -16q16 -46 26 -75q3 0 5 2q7 -7 16 -7q-2 1 -17 -11 q-4 -3 -4 -1h3q6 15 24 15h14q8 2 15 2q4 0 6 -2q1 0 8.5 3.5t13.5 4.5q9 0 15 2q29 0 47 2q12 3 27 6q6 1 26 2.5t42 3.5t46 4q6 1 21.5 2t23.5 2l78 2l8 -4h19l8 4q1 1 4.5 2t5.5 2q8 -2 35 -2q1 0 8 3t12 4q9 -3 23 -3l4 3q12 2 66 2q29 0 47 -9q4 -7 24 -10q9 -3 27 -12 q4 -7 10 -21zM588 956q-17 0 -72 -131q-3 -8 -7.5 -18.5t-12.5 -27t-13 -27.5q-36 -79 -80 -189q-17 -50 -20 -59q145 33 154 35q21 27 63 55v84q2 57 2 88q2 10 2 39t-2 49q4 36 4 64q-1 3 -4 12.5t-4 15.5z" />
<glyph unicode="&#xc7;" horiz-adv-x="772" d="M918 971l10 -72l-21 12v-34h-6l2 -17l-22 25v-13l-37 23q-2 -2 -8 -2l-5 -2h-8l-20 -4h-15l-10 10q-1 1 -16 21l-49 8l-35 -49l-31 -35l-8 -19l-43 -26l-16 -29l-21 -20l-86 -113l-29 -51l-61 -92l-16 -48l-35 -71l-23 -49l-6 -45l-12 -39v-60l4 -30l24 -41l41 -23 l99 -23l94 9l22 -2l15 4l18 -8l2 -23l-4 -16v-17h-4l-20 -10l-60 -18h-6l-31 -9l-2 -4l-32 -4l-78 -6l-8 -25v-14l63 -22l25 -13l26 -30l21 -52l-4 -16h-17l-12 -18l-37 -21l-59 -31l-168 -65l-25 -2l-14 6h-14l-7 8h-10l-6 6l16 11l189 94l33 26h-11l-47 -10l-33 -2v6 l-10 10l-14 2l-2 5l-21 12l-4 45l43 78l4 30l-34 11l-43 20l-84 68l-35 45l-35 78l-2 26l-8 33v70l18 94l12 22l4 21l11 33l53 98l10 20l8 11q10 10 11 12q22 46 71 106l41 50l-2 4l70 82l12 12l2 8l58 70l26 18l64 72l10 2l6 8l33 23l14 20l12 2l2 -4l9 4l49 23l104 16h21 l49 -25l12 -8q0 -2 4.5 -6t7.5 -6l21 -10l16 -8l25 -35l25 -51l-7 -2z" />
<glyph unicode="&#xc8;" horiz-adv-x="1081" d="M1130 1081q-2 -2 -6 -10q-69 -18 -102 -20q-2 -1 -6.5 -2t-7.5 -2q-14 0 -35 -3q-1 -1 -4.5 -2t-5.5 -2q-2 2 -9 2l-20 -12q-1 -1 -3 -4t-3 -4q-3 -1 -12 -2t-13 -2q-6 0 -10 2q0 -3 -39 -12l-29 -9h-10l-8 -4q-2 2 -8 2q-1 -1 -5 -2t-6 -2q-9 -1 -27.5 -2t-27.5 -2h-8 q-3 0 -14 -4l-11 -4q-10 -2 -34 -2q-17 -7 -45 -10q-2 -4 -11 -13q-20 -10 -94 -65q-14 -14 -43 -35q-16 -12 -24 -22q-2 -6 -13 -17q-15 -35 -30 -78q-12 -42 -15 -51q0 -3 -6 -19t-6 -20q0 -6 4 -10h6l60 4q13 1 40.5 2t42.5 2q40 -3 91 0q10 -2 39 -2q6 -2 30 -2l8 -4 l54 12q26 0 34 -8v-4q3 -3 3 -39l-23 -14l-10 -6h-6l-7 -7l-28 -6q-5 -5 -29 -14l-29 -12q-7 -7 -90 -25q-3 -1 -11 -2t-22.5 -3.5t-29.5 -4.5q-18 -20 -57 -51q-8 -8 -17 -11q-20 -32 -43 -49q-10 -22 -29 -45q-23 -6 -65 -12q-3 -66 14 -105q23 -42 90 -45v-10l2 -14 l11 -6l16 -2h27l63 8l23 6l57 8l37 10l33 7l43 12l2 -6q2 -2 2 -6q-2 -6 -2 -13l2 -2q-2 -6 2 -14q-8 -8 -10 -12l-2 4q0 -9 2 -13q-1 1 -3.5 -2.5t-6 -12t-7.5 -21.5q-1 0 -4 -3v-4q-6 -18 -10 -26q-1 -1 -2.5 -3.5t-5 -7t-6.5 -8.5v-8l-52 -26q-9 -3 -24 -9q-4 0 -6 -2 l-70 -14q-18 0 -43 -2h-27q-4 -2 -45 4t-45 6q-6 0 -65 27q-4 1 -25 14l-10 12q-4 4 -17.5 18.5t-23.5 24.5q-1 2 -6 10t-8 13q-1 1 -3.5 2t-3.5 2q-10 24 -24 61q-6 34 -21 84q0 15 -2 23q2 6 2 20q0 5 -2 7q0 22 -2 34q4 28 4 50q4 28 4 49q5 25 17 98q0 4 5 22t5 21 q0 4 2 15t2 14q8 19 10 35q4 13 7 34q12 33 32 107q2 0 2 2q9 27 13 43l-6 12q-12 24 -21 62q6 4 16 14v6l11 10q-2 2 -2 9q5 16 34 57h5l14 14q11 11 43 39q8 8 12 14q-6 3 -6 31q17 11 28 16.5t15 7t13.5 1.5h13.5q10 2 24 2q3 -1 9.5 -2t9.5 -2h6q7 -1 12.5 -1.5 t6.5 -0.5h1q35 3 117 6h72q6 -1 19 -2t20 -2h139q10 -2 33 -2q-5 -1 5 -1l111 -1q17 0 54 -9q40 -9 45 -16q14 -6 28 -14q4 0 6 -2v-13zM899 1249q-3 -15 -4 -16l-4 -4h-6l-6 -6h-5q-9 -6 -26 -6q-23 0 -55 14q-20 7 -50 20q-54 24 -100 60q-72 54 -92 67q-36 30 -45 37 q-16 20 -33 37q-1 1 -18 35q-15 24 -15 45l2 2q3 33 21 33q47 1 43 4q10 0 18 -2l13 -4q8 -4 14 -6q1 -1 3 -2.5t3 -2.5l10 -4q8 -4 11 -10q15 -14 38 -33.5t58 -50.5t63 -55q3 -3 35.5 -32.5t48.5 -45.5q78 -72 78 -74z" />
<glyph unicode="&#xc9;" horiz-adv-x="1081" d="M1130 1081q-2 -2 -6 -10q-69 -18 -102 -20q-2 -1 -6.5 -2t-7.5 -2q-14 0 -35 -3q-1 -1 -4.5 -2t-5.5 -2q-2 2 -9 2l-20 -12q-1 -1 -3 -4t-3 -4q-3 -1 -12 -2t-13 -2q-6 0 -10 2q0 -3 -39 -12l-29 -9h-10l-8 -4q-2 2 -8 2q-1 -1 -5 -2t-6 -2q-9 -1 -27.5 -2t-27.5 -2h-8 q-3 0 -14 -4l-11 -4q-10 -2 -34 -2q-17 -7 -45 -10q-2 -4 -11 -13q-20 -10 -94 -65q-14 -14 -43 -35q-16 -12 -24 -22q-2 -6 -13 -17q-15 -35 -30 -78q-12 -42 -15 -51q0 -3 -6 -19t-6 -20q0 -6 4 -10h6l60 4q13 1 40.5 2t42.5 2q40 -3 91 0q10 -2 39 -2q6 -2 30 -2l8 -4 l54 12q26 0 34 -8v-4q3 -3 3 -39l-23 -14l-10 -6h-6l-7 -7l-28 -6q-5 -5 -29 -14l-29 -12q-7 -7 -90 -25q-3 -1 -11 -2t-22.5 -3.5t-29.5 -4.5q-18 -20 -57 -51q-8 -8 -17 -11q-20 -32 -43 -49q-10 -22 -29 -45q-23 -6 -65 -12q-3 -66 14 -105q23 -42 90 -45v-10l2 -14 l11 -6l16 -2h27l63 8l23 6l57 8l37 10l33 7l43 12l2 -6q2 -2 2 -6q-2 -6 -2 -13l2 -2q-2 -6 2 -14q-8 -8 -10 -12l-2 4q0 -9 2 -13q-1 1 -3.5 -2.5t-6 -12t-7.5 -21.5q-1 0 -4 -3v-4q-6 -18 -10 -26q-1 -1 -2.5 -3.5t-5 -7t-6.5 -8.5v-8l-52 -26q-9 -3 -24 -9q-4 0 -6 -2 l-70 -14q-18 0 -43 -2h-27q-4 -2 -45 4t-45 6q-6 0 -65 27q-4 1 -25 14l-10 12q-4 4 -17.5 18.5t-23.5 24.5q-1 2 -6 10t-8 13q-1 1 -3.5 2t-3.5 2q-10 24 -24 61q-6 34 -21 84q0 15 -2 23q2 6 2 20q0 5 -2 7q0 22 -2 34q4 28 4 50q4 28 4 49q5 25 17 98q0 4 5 22t5 21 q0 4 2 15t2 14q8 19 10 35q4 13 7 34q12 33 32 107q2 0 2 2q9 27 13 43l-6 12q-12 24 -21 62q6 4 16 14v6l11 10q-2 2 -2 9q5 16 34 57h5l14 14q11 11 43 39q8 8 12 14q-6 3 -6 31q17 11 28 16.5t15 7t13.5 1.5h13.5q10 2 24 2q3 -1 9.5 -2t9.5 -2h6q7 -1 12.5 -1.5 t6.5 -0.5h1q35 3 117 6h72q6 -1 19 -2t20 -2h139q10 -2 33 -2q-5 -1 5 -1l111 -1q17 0 54 -9q40 -9 45 -16q14 -6 28 -14q4 0 6 -2v-13zM1030 1749h8l11 -6l2 -8l-9 -2l-6 -17l2 -6l-10 -4l-16 -10v-6l6 -9l-8 -8l4 -16l-8 -6v-6l24 4v-2l-29 -23l-6 -20l-14 -23l-12 -14 l-25 -23l-22 -16l-82 -49l-74 -33l-14 -2h-35l-25 8h-16l-12 6v8l-9 9l-10 28l2 10l-4 13l4 8l12 12v4l62 56l29 20l84 62l61 36l59 15z" />
<glyph unicode="&#xca;" horiz-adv-x="1081" d="M1130 1081q-2 -2 -6 -10q-69 -18 -102 -20q-2 -1 -6.5 -2t-7.5 -2q-14 0 -35 -3q-1 -1 -4.5 -2t-5.5 -2q-2 2 -9 2l-20 -12q-1 -1 -3 -4t-3 -4q-3 -1 -12 -2t-13 -2q-6 0 -10 2q0 -3 -39 -12l-29 -9h-10l-8 -4q-2 2 -8 2q-1 -1 -5 -2t-6 -2q-9 -1 -27.5 -2t-27.5 -2h-8 q-3 0 -14 -4l-11 -4q-10 -2 -34 -2q-17 -7 -45 -10q-2 -4 -11 -13q-20 -10 -94 -65q-14 -14 -43 -35q-16 -12 -24 -22q-2 -6 -13 -17q-15 -35 -30 -78q-12 -42 -15 -51q0 -3 -6 -19t-6 -20q0 -6 4 -10h6l60 4q13 1 40.5 2t42.5 2q40 -3 91 0q10 -2 39 -2q6 -2 30 -2l8 -4 l54 12q26 0 34 -8v-4q3 -3 3 -39l-23 -14l-10 -6h-6l-7 -7l-28 -6q-5 -5 -29 -14l-29 -12q-7 -7 -90 -25q-3 -1 -11 -2t-22.5 -3.5t-29.5 -4.5q-18 -20 -57 -51q-8 -8 -17 -11q-20 -32 -43 -49q-10 -22 -29 -45q-23 -6 -65 -12q-3 -66 14 -105q23 -42 90 -45v-10l2 -14 l11 -6l16 -2h27l63 8l23 6l57 8l37 10l33 7l43 12l2 -6q2 -2 2 -6q-2 -6 -2 -13l2 -2q-2 -6 2 -14q-8 -8 -10 -12l-2 4q0 -9 2 -13q-1 1 -3.5 -2.5t-6 -12t-7.5 -21.5q-1 0 -4 -3v-4q-6 -18 -10 -26q-1 -1 -2.5 -3.5t-5 -7t-6.5 -8.5v-8l-52 -26q-9 -3 -24 -9q-4 0 -6 -2 l-70 -14q-18 0 -43 -2h-27q-4 -2 -45 4t-45 6q-6 0 -65 27q-4 1 -25 14l-10 12q-4 4 -17.5 18.5t-23.5 24.5q-1 2 -6 10t-8 13q-1 1 -3.5 2t-3.5 2q-10 24 -24 61q-6 34 -21 84q0 15 -2 23q2 6 2 20q0 5 -2 7q0 22 -2 34q4 28 4 50q4 28 4 49q5 25 17 98q0 4 5 22t5 21 q0 4 2 15t2 14q8 19 10 35q4 13 7 34q12 33 32 107q2 0 2 2q9 27 13 43l-6 12q-12 24 -21 62q6 4 16 14v6l11 10q-2 2 -2 9q5 16 34 57h5l14 14q11 11 43 39q8 8 12 14q-6 3 -6 31q17 11 28 16.5t15 7t13.5 1.5h13.5q10 2 24 2q3 -1 9.5 -2t9.5 -2h6q7 -1 12.5 -1.5 t6.5 -0.5h1q35 3 117 6h72q6 -1 19 -2t20 -2h139q10 -2 33 -2q-5 -1 5 -1l111 -1q17 0 54 -9q40 -9 45 -16q14 -6 28 -14q4 0 6 -2v-13zM1040 1466q0 -11 -12 -41q-12 -6 -20 -6q-24 0 -33 6q-19 19 -88 127q-12 16 -45 68q-12 15 -27 18q-3 -3 -16 -6q-11 -11 -68 -76 q-6 -9 -18 -24q-2 -3 -80 -94q-27 -21 -33 -47q-31 -17 -41 -17q-23 3 -29 12q-16 8 -32 52q0 2 2 4q0 18 39 74q4 6 14 18t18.5 23t16.5 22q48 60 110 131q10 8 35 33q20 15 27 22q6 6 18 11q34 0 49 -15q3 -2 11.5 -6.5t13.5 -7.5q7 -5 23 -19t24 -20q6 -11 25 -33 l67 -135q17 -30 33 -49v-2q10 -15 16 -23z" />
<glyph unicode="&#xcb;" horiz-adv-x="1081" d="M1130 1081q-2 -2 -6 -10q-69 -18 -102 -20q-2 -1 -6.5 -2t-7.5 -2q-14 0 -35 -3q-1 -1 -4.5 -2t-5.5 -2q-2 2 -9 2l-20 -12q-1 -1 -3 -4t-3 -4q-3 -1 -12 -2t-13 -2q-6 0 -10 2q0 -3 -39 -12l-29 -9h-10l-8 -4q-2 2 -8 2q-1 -1 -5 -2t-6 -2q-9 -1 -27.5 -2t-27.5 -2h-8 q-3 0 -14 -4l-11 -4q-10 -2 -34 -2q-17 -7 -45 -10q-2 -4 -11 -13q-20 -10 -94 -65q-14 -14 -43 -35q-16 -12 -24 -22q-2 -6 -13 -17q-15 -35 -30 -78q-12 -42 -15 -51q0 -3 -6 -19t-6 -20q0 -6 4 -10h6l60 4q13 1 40.5 2t42.5 2q40 -3 91 0q10 -2 39 -2q6 -2 30 -2l8 -4 l54 12q26 0 34 -8v-4q3 -3 3 -39l-23 -14l-10 -6h-6l-7 -7l-28 -6q-5 -5 -29 -14l-29 -12q-7 -7 -90 -25q-3 -1 -11 -2t-22.5 -3.5t-29.5 -4.5q-18 -20 -57 -51q-8 -8 -17 -11q-20 -32 -43 -49q-10 -22 -29 -45q-23 -6 -65 -12q-3 -66 14 -105q23 -42 90 -45v-10l2 -14 l11 -6l16 -2h27l63 8l23 6l57 8l37 10l33 7l43 12l2 -6q2 -2 2 -6q-2 -6 -2 -13l2 -2q-2 -6 2 -14q-8 -8 -10 -12l-2 4q0 -9 2 -13q-1 1 -3.5 -2.5t-6 -12t-7.5 -21.5q-1 0 -4 -3v-4q-6 -18 -10 -26q-1 -1 -2.5 -3.5t-5 -7t-6.5 -8.5v-8l-52 -26q-9 -3 -24 -9q-4 0 -6 -2 l-70 -14q-18 0 -43 -2h-27q-4 -2 -45 4t-45 6q-6 0 -65 27q-4 1 -25 14l-10 12q-4 4 -17.5 18.5t-23.5 24.5q-1 2 -6 10t-8 13q-1 1 -3.5 2t-3.5 2q-10 24 -24 61q-6 34 -21 84q0 15 -2 23q2 6 2 20q0 5 -2 7q0 22 -2 34q4 28 4 50q4 28 4 49q5 25 17 98q0 4 5 22t5 21 q0 4 2 15t2 14q8 19 10 35q4 13 7 34q12 33 32 107q2 0 2 2q9 27 13 43l-6 12q-12 24 -21 62q6 4 16 14v6l11 10q-2 2 -2 9q5 16 34 57h5l14 14q11 11 43 39q8 8 12 14q-6 3 -6 31q17 11 28 16.5t15 7t13.5 1.5h13.5q10 2 24 2q3 -1 9.5 -2t9.5 -2h6q7 -1 12.5 -1.5 t6.5 -0.5h1q35 3 117 6h72q6 -1 19 -2t20 -2h139q10 -2 33 -2q-5 -1 5 -1l111 -1q17 0 54 -9q40 -9 45 -16q14 -6 28 -14q4 0 6 -2v-13zM475 1559h4l17 -7l18 -8l16 2l-2 -14l21 -8l29 -27l12 -14l28 -68l3 -14v-25l-15 -24l-14 -17l-2 -4l-31 -4l-35 -4l-37 14l-16 9l-4 4 l-49 34l-23 21l-4 10v27l-4 22l4 27l17 33l36 28zM793 1554l45 -14l18 4l25 -31l28 -24l19 -49v-56l-27 -28l-10 -6l-21 -7l-53 9l-41 20l-43 39l-2 31l-8 12l22 70l21 14l20 6z" />
<glyph unicode="&#xcc;" horiz-adv-x="503" d="M467 1149h14l29 -12l16 -23l6 -49l-6 -102l-26 -60l-29 -61l-74 -211l-67 -185l-17 -61l-16 -33l-6 -35l-15 -30l-8 -35l-20 -123l-15 -61l-12 -68l-28 -74l-27 -28l-33 -19l-22 12l-7 95l5 12l-5 16v60l5 47l-5 10l-2 100l2 74l13 57l14 80l14 45l27 125l12 25l23 76 l37 108l2 29l18 29l19 43l26 45l2 14l43 74l11 6l18 35l41 37zM725 1167q-3 -15 -4 -16l-4 -4h-6l-6 -6h-5q-9 -6 -26 -6q-24 0 -56 14q-16 5 -49 20q-54 24 -100 60q-72 54 -92 67q-36 30 -45 37q-16 20 -33 37q-1 1 -18 35q-15 24 -15 45l2 2q3 33 21 33q47 1 43 4 q10 0 18 -2l12 -4q6 -3 15 -6q1 -1 3 -2t3 -2l10 -5q7 -3 10 -10q17 -15 70.5 -61t89.5 -78q3 -3 35.5 -32.5t48.5 -45.5q78 -72 78 -74z" />
<glyph unicode="&#xcd;" horiz-adv-x="503" d="M467 1149h14l29 -12l16 -23l6 -49l-6 -102l-26 -60l-29 -61l-74 -211l-67 -185l-17 -61l-16 -33l-6 -35l-15 -30l-8 -35l-20 -123l-15 -61l-12 -68l-28 -74l-27 -28l-33 -19l-22 12l-7 95l5 12l-5 16v60l5 47l-5 10l-2 100l2 74l13 57l14 80l14 45l27 125l12 25l23 76 l37 108l2 29l18 29l19 43l26 45l2 14l43 74l11 6l18 35l41 37zM797 1749h8l10 -6l2 -8l-8 -2l-6 -17l2 -6l-10 -4l-17 -10v-6l6 -9l-8 -8l4 -16l-8 -6v-6l25 4v-2l-29 -23l-6 -20l-14 -23l-13 -14l-24 -23l-23 -16l-82 -49l-74 -33l-14 -2h-35l-24 8h-17l-12 6v8l-8 9 l-10 28l2 10l-4 13l4 8l12 12v4l61 56l29 20l84 62l62 36l59 15z" />
<glyph unicode="&#xce;" horiz-adv-x="503" d="M467 1149h14l29 -12l16 -23l6 -49l-6 -102l-26 -60l-29 -61l-74 -211l-67 -185l-17 -61l-16 -33l-6 -35l-15 -30l-8 -35l-20 -123l-15 -61l-12 -68l-28 -74l-27 -28l-33 -19l-22 12l-7 95l5 12l-5 16v60l5 47l-5 10l-2 100l2 74l13 57l14 80l14 45l27 125l12 25l23 76 l37 108l2 29l18 29l19 43l26 45l2 14l43 74l11 6l18 35l41 37zM809 1466q0 -11 -12 -41q-12 -6 -21 -6q-24 0 -33 6q-19 19 -88 127q-12 16 -45 68q-12 15 -26 18q-2 -2 -17 -6q-2 -2 -67 -76q-1 -1 -19 -24q-2 -3 -80 -94q-26 -20 -32 -47q-31 -17 -41 -17q-23 3 -29 12 q-17 8 -33 52q0 2 2 4q0 18 39 74l49 63q38 48 111 131q10 8 35 33q16 12 26 22q6 6 19 11q34 0 49 -15q3 -2 11.5 -6.5t13.5 -7.5q7 -5 23 -19t24 -20q9 -15 24 -33l68 -135q17 -30 33 -49v-2q10 -15 16 -23z" />
<glyph unicode="&#xcf;" horiz-adv-x="503" d="M467 1149h14l29 -12l16 -23l6 -49l-6 -102l-26 -60l-29 -61l-74 -211l-67 -185l-17 -61l-16 -33l-6 -35l-15 -30l-8 -35l-20 -123l-15 -61l-12 -68l-28 -74l-27 -28l-33 -19l-22 12l-7 95l5 12l-5 16v60l5 47l-5 10l-2 100l2 74l13 57l14 80l14 45l27 125l12 25l23 76 l37 108l2 29l18 29l19 43l26 45l2 14l43 74l11 6l18 35l41 37zM356 1718h4l17 -6l18 -8l17 2l-2 -14l20 -9l29 -26l12 -15l29 -67l2 -14v-25l-15 -25l-14 -16l-2 -4l-31 -4l-34 -4l-37 14l-17 8l-4 4l-49 35l-23 21l-4 10v27l-4 22l4 27l17 32l37 29zM674 1714l45 -14l18 4 l25 -31l29 -24l18 -50v-55l-27 -28l-10 -7l-20 -6l-54 8l-41 21l-43 39l-2 31l-8 12l23 69l20 15l21 6z" />
<glyph unicode="&#xd0;" horiz-adv-x="980" d="M956 662q0 -51 -16 -89l4 -4q0 -28 -24.5 -85t-79.5 -119q-25 -42 -62.5 -79.5t-94 -83.5t-81.5 -69q-8 -2 -19 -9.5t-37.5 -26t-62.5 -38.5l-6 -6q-36 -11 -108 -53q-66 -6 -66 -18l-20 -5q-18 -6 -45 -12q-10 13 -35 17q-2 -2 -6 -2h-11q-3 -3 -10 -3q-1 1 -3 2.5 t-3 2.5q-5 -5 -8 -5q-4 0 -15 11v-4h-2q-4 0 -4 -2q-11 8 -14 18l-2 -2q2 0 2 -2h-6q-8 8 -10 8q-3 0 -11 -4l-4 -4h-22l-2 4q-2 -2 -9 -2q-8 5 -8 25q2 2 6 10l2 14q4 9 16 34.5t19 41.5v98q0 9 2 27l2 33q3 24 10 66t11 69l-43 -4l-70 8l-39 -8l-22 14v10l-17 19l-8 6 l2 35l-4 14l21 37l8 12l39 12l63 7l92 12q0 7 5 37l6 6l10 55q-7 -13 -1 18q16 82 30 119l4 17q0 8 7 38.5t7 49.5q0 39 7.5 63t15 30t20 10t14.5 5q0 2 16.5 17t42.5 31t44 16q16 0 24 -2q51 11 64 16q6 0 10 -2l8 8q25 -14 101 -32q6 -1 17 -2.5t17 -3.5t23.5 -10.5 t47.5 -26t79 -46.5q5 -5 22.5 -15.5t37.5 -31.5t42 -57q3 -13 5 -13q6 0 17 -16q14 -21 38 -69q1 -6 9 -27.5t14.5 -49.5t6.5 -60zM788 598q3 18 3 33q0 26 -7 47q0 1 -2.5 8.5l-4.5 13.5t-7.5 19t-12 26.5t-18.5 33.5t-26 42l-39 39q-17 13 -33 21.5t-39.5 16.5t-38.5 12 t-52.5 12.5t-57.5 13.5l-7 -4q-8 -4 -19.5 -10t-23.5 -13t-20 -15.5t-8 -14.5q0 -17 2 -27q-5 -23 -17 -90v-21q-6 -10 -22 -133h59h160l37 -4l14 -8v-10l-28 -8l-2 -11l-11 -2l-28 -16l-4 -14l-23 -11l-27 -22l-53 -17l-31 -10l-6 -8l-30 10l-5 -8l-51 -25 q-2 -13 -8.5 -41.5t-12.5 -69t-9 -97.5l-5 -13v-24q0 -3 -3 -12.5t-3 -12.5q3 -16 6 -49q44 19 80 31q23 8 45 21t104 65q25 17 40 26q122 92 178.5 165t66.5 165z" />
<glyph unicode="&#xd1;" horiz-adv-x="1366" d="M1247 1341q0 -8 -2 -18l-4 -16q-2 -9 -16 -64v-6q-1 -1 -2 -4.5t-2 -5.5q3 -6 6 -15q0 -4 -0.5 -11t-1.5 -19.5t-2 -22.5q-2 -15 -9 -82q-3 -45 -12 -155q-2 -17 -10 -66.5t-12 -79.5q-2 -8 -9 -43q5 -10 7 -16q-1 -10 -2 -31.5t-2 -32.5q-15 -83 -17 -106v-29 q-17 -118 -20 -143q-3 -3 -15 -56q-12 -50 -12 -53q0 -8 -3 -28t-3 -25q-3 -42 -27 -92q-12 -9 -21 -16.5t-12 -11t-2 -3.5l-12 -8q-8 -8 -26 -8q-7 -4 -21 -8q-13 -8 -35 -11l-2 -2q-2 -2 -10 -6q-8 -12 -17.5 -21.5t-15 -13t-19.5 -12.5t-18 -12q-10 -2 -30 -2 q-12 5 -35 18l-21 14q-1 1 -3.5 4.5t-7.5 12t-11 16.5q-43 52 -101 129q-45 60 -108 180q-1 1 -14 33l-13 19l-61 135q-3 6 -8 17t-13 28t-14 31q-9 24 -35 30q-16 -53 -31 -123q-10 -30 -36 -131q-13 -39 -17 -57v-12q-12 -28 -26 -111q0 -1 -11 -49q-15 -41 -18 -66 q0 -4 -2 -6q-1 -3 -4 -12.5t-4 -15.5q-3 -3 -11 -7q-8 -25 -24 -86q-6 -14 -33 -53q-2 -2 -12 -8t-17 -10q-3 3 -6 0q-3 -21 -35 -21q-2 0 -6 4l-8 9q-22 9 -22 61l2 21v49q0 17 10 55q8 24 16 55q5 28 25 119l14 64q36 182 94 460q3 12 19 82t28 123q1 2 3.5 8t7 16.5 t8.5 22.5q0 9 4 13q13 16 33 16h12q6 2 12 2q31 -3 50 -14q3 -3 10 -12.5t12 -14.5l43 -53q3 -9 13 -28.5t14 -29.5q12 -20 18 -26q1 -6 14 -45q30 -63 64 -129q3 -11 47 -101q23 -54 66 -163q3 -4 6.5 -12.5t9.5 -22t12 -25.5q3 -7 8 -18.5t13 -29.5t14 -32l8 -16l17 -25 q4 -10 16 -30q9 9 25 12q33 17 41 20l16 15l14 63q0 12 19 74q20 56 20 72q0 12 6 50t6 50q9 36 13 61q1 5 6 23t8 29q3 16 12.5 70t16.5 93q1 3 5.5 27.5t15.5 82.5l22 116q22 68 37 129q16 37 20 51q0 8 12 43q11 33 17 33q3 0 27.5 6.5t27.5 5.5q6 6 25 10q20 0 24 -33z M1014 1673q-2 -6 -13 -22l3 -2q-10 -19 -39 -56l-13 -26l-4 -2v-6q-6 -15 -18 -33v-6q0 -5 2 -7q-3 -5 -21 -32q2 2 2 0q-2 0 -2 -4q-4 -3 -26 -21l-2 -2q-13 -13 -23 -18q-32 -13 -82 -13q-71 6 -145 47q-6 6 -29 19q-4 4 -24 16q-4 0 -20 8.5t-17 8.5q0 -1 -2 -2l-6 -3 t-8.5 -6t-8 -13t-4.5 -23q-12 -33 -45 -33q-10 0 -16 2h-9q-2 1 -7 2t-7 2h-8q-11 3 -21 20q-3 3 -12 27q1 1 2 3t2 3q-2 2 -2 8q0 14 8 45q30 67 52 86q44 38 71 35q6 2 21 2q4 -1 20 -3.5t27 -4.5q3 -1 9 -4t9 -4q5 -3 25 -16t33 -21q27 -27 43 -45q2 -2 6 -10v-2 q8 -20 18 -35l2 -2l13 -4h14q12 2 20.5 5t11 4t9.5 6.5t8 6.5q3 3 80 94q36 39 49 39q43 0 43 2q5 0 21 -4q2 -2 10 -6z" />
<glyph unicode="&#xd2;" horiz-adv-x="1200" d="M1104 479q0 -10 -2 -18l-6 -37v-6q2 0 4 -2q-2 -18 -29 -90q-15 -48 -27 -68q-22 -48 -43 -76q-12 -18 -16 -26q-10 -10 -22 -25v-8q-4 -4 -7 -10q-1 -1 -47 -33q-9 -12 -32 -35l-4 -3q-4 -3 -5 -5l-16 -9q-15 -8 -23 -14l-28 -14q-3 -2 -23 -14q-8 -2 -26 -9t-27 -10 q-2 -2 -10 -6q-26 -10 -76 -20q-1 0 -15.5 -4.5t-25.5 -6.5h-18q-3 0 -13.5 -3t-13.5 -3q-63 0 -137 19q-79 22 -166 82q-36 25 -78 73q-8 8 -37 56q-1 3 -4 10t-9.5 21t-12.5 26q-17 79 -25 117q1 -6 2 2l2 90q0 4 3 19.5t3 19.5l19 73q5 11 26 68q38 76 47 92q5 8 28.5 46 t41.5 67q11 15 39 51.5t45 58.5q3 2 12.5 9.5t14.5 13.5l16 20q8 4 23 19q48 45 104 45l12 10l10 4q1 0 13.5 6.5t13.5 6.5q6 2 25 2q16 11 73 26l5 4h18q1 1 4.5 2t5.5 2q9 0 33 -6h20q4 -3 9 -6t13 -7t13 -7q17 -17 27 -25q4 -2 16 -6q0 -4 4 -8q2 -8 17 -27q4 -12 8 -18 q18 -15 45 -33q12 -16 25 -29q2 -2 10 -6l31 -30q12 -20 26 -41l14 -15q6 -15 15 -30v-9q1 -1 4 -3t4 -3q0 -1 14 -33l4 -6t5.5 -7t5.5 -7l6 -21q1 -4 2 -14.5t2 -15.5q1 -1 3 -2t3 -2q5 -20 6 -23q14 -105 17 -129v-27q0 -3 6 -6zM920 510q0 82 -21 135q-4 13 -25 70 q-9 15 -18 33q-12 14 -45 47l-49 49q-27 17 -72 43q-24 -17 -51 -17h-61q-5 0 -12.5 -4t-19 -14t-20 -18t-25 -24t-24.5 -24q-27 -15 -94 -116q-8 -15 -18 -43q-4 -5 -17 -27q-6 -19 -31 -63q-28 -54 -55 -140q-4 -70 -4 -71q0 -49 8 -82q8 -16 13 -31q3 -8 30 -49 q9 -12 70 -49q41 -23 147 -23l41 4q34 3 49 6q5 1 70 27l35 21q34 15 70 51l49 73q1 1 5 8.5t13.5 25.5t18.5 36q17 40 28 68v12q15 50 15 86zM920 1167q-3 -14 -5 -16l-4 -4h-6l-6 -6h-4q-9 -6 -27 -6q-23 0 -55 14q-16 5 -49 20q-54 24 -100 60q-63 47 -93 67 q-36 30 -45 37q-20 25 -32 37q-3 3 -19 35q-14 22 -14 45l2 2q3 33 20 33q47 1 43 4q11 0 19 -2l12 -4q8 -4 14 -6q1 -1 3.5 -2t3.5 -2l10 -5q7 -3 10 -10q17 -15 70.5 -61t89.5 -78q3 -3 35.5 -32.5t48.5 -45.5q78 -72 78 -74z" />
<glyph unicode="&#xd3;" horiz-adv-x="1200" d="M1104 479q0 -10 -2 -18l-6 -37v-6q2 0 4 -2q-2 -18 -29 -90q-15 -48 -27 -68q-22 -48 -43 -76q-12 -18 -16 -26q-10 -10 -22 -25v-8q-4 -4 -7 -10q-1 -1 -47 -33q-9 -12 -32 -35l-4 -3q-4 -3 -5 -5l-16 -9q-15 -8 -23 -14l-28 -14q-3 -2 -23 -14q-8 -2 -26 -9t-27 -10 q-2 -2 -10 -6q-26 -10 -76 -20q-1 0 -15.5 -4.5t-25.5 -6.5h-18q-3 0 -13.5 -3t-13.5 -3q-63 0 -137 19q-79 22 -166 82q-36 25 -78 73q-8 8 -37 56q-1 3 -4 10t-9.5 21t-12.5 26q-17 79 -25 117q1 -6 2 2l2 90q0 4 3 19.5t3 19.5l19 73q5 11 26 68q38 76 47 92q5 8 28.5 46 t41.5 67q11 15 39 51.5t45 58.5q3 2 12.5 9.5t14.5 13.5l16 20q8 4 23 19q48 45 104 45l12 10l10 4q1 0 13.5 6.5t13.5 6.5q6 2 25 2q16 11 73 26l5 4h18q1 1 4.5 2t5.5 2q9 0 33 -6h20q4 -3 9 -6t13 -7t13 -7q17 -17 27 -25q4 -2 16 -6q0 -4 4 -8q2 -8 17 -27q4 -12 8 -18 q18 -15 45 -33q12 -16 25 -29q2 -2 10 -6l31 -30q12 -20 26 -41l14 -15q6 -15 15 -30v-9q1 -1 4 -3t4 -3q0 -1 14 -33l4 -6t5.5 -7t5.5 -7l6 -21q1 -4 2 -14.5t2 -15.5q1 -1 3 -2t3 -2q5 -20 6 -23q14 -105 17 -129v-27q0 -3 6 -6zM920 510q0 82 -21 135q-4 13 -25 70 q-9 15 -18 33q-12 14 -45 47l-49 49q-27 17 -72 43q-24 -17 -51 -17h-61q-5 0 -12.5 -4t-19 -14t-20 -18t-25 -24t-24.5 -24q-27 -15 -94 -116q-8 -15 -18 -43q-4 -5 -17 -27q-6 -19 -31 -63q-28 -54 -55 -140q-4 -70 -4 -71q0 -49 8 -82q8 -16 13 -31q3 -8 30 -49 q9 -12 70 -49q41 -23 147 -23l41 4q34 3 49 6q5 1 70 27l35 21q34 15 70 51l49 73q1 1 5 8.5t13.5 25.5t18.5 36q17 40 28 68v12q15 50 15 86zM885 1528h8l10 -6l2 -9l-8 -2l-6 -16l2 -6l-10 -4l-17 -10v-7l6 -8l-8 -8l4 -16l-8 -6v-7l25 4v-2l-29 -22l-6 -21l-14 -22 l-13 -14l-24 -23l-23 -16l-82 -50l-73 -32l-15 -2h-35l-24 8h-17l-12 6v8l-8 8l-10 29l2 10l-4 13l4 8l12 12v4l61 55l29 21l84 61l62 37l59 15z" />
<glyph unicode="&#xd4;" horiz-adv-x="1200" d="M1104 479q0 -10 -2 -18l-6 -37v-6q2 0 4 -2q-2 -18 -29 -90q-15 -48 -27 -68q-22 -48 -43 -76q-12 -18 -16 -26q-10 -10 -22 -25v-8q-4 -4 -7 -10q-1 -1 -47 -33q-9 -12 -32 -35l-4 -3q-4 -3 -5 -5l-16 -9q-15 -8 -23 -14l-28 -14q-3 -2 -23 -14q-8 -2 -26 -9t-27 -10 q-2 -2 -10 -6q-26 -10 -76 -20q-1 0 -15.5 -4.5t-25.5 -6.5h-18q-3 0 -13.5 -3t-13.5 -3q-63 0 -137 19q-79 22 -166 82q-36 25 -78 73q-8 8 -37 56q-1 3 -4 10t-9.5 21t-12.5 26q-17 79 -25 117q1 -6 2 2l2 90q0 4 3 19.5t3 19.5l19 73q5 11 26 68q38 76 47 92q5 8 28.5 46 t41.5 67q11 15 39 51.5t45 58.5q3 2 12.5 9.5t14.5 13.5l16 20q8 4 23 19q48 45 104 45l12 10l10 4q1 0 13.5 6.5t13.5 6.5q6 2 25 2q16 11 73 26l5 4h18q1 1 4.5 2t5.5 2q9 0 33 -6h20q4 -3 9 -6t13 -7t13 -7q17 -17 27 -25q4 -2 16 -6q0 -4 4 -8q2 -8 17 -27q4 -12 8 -18 q18 -15 45 -33q12 -16 25 -29q2 -2 10 -6l31 -30q12 -20 26 -41l14 -15q6 -15 15 -30v-9q1 -1 4 -3t4 -3q0 -1 14 -33l4 -6t5.5 -7t5.5 -7l6 -21q1 -4 2 -14.5t2 -15.5q1 -1 3 -2t3 -2q5 -20 6 -23q14 -105 17 -129v-27q0 -3 6 -6zM920 510q0 82 -21 135q-4 13 -25 70 q-9 15 -18 33q-12 14 -45 47l-49 49q-27 17 -72 43q-24 -17 -51 -17h-61q-5 0 -12.5 -4t-19 -14t-20 -18t-25 -24t-24.5 -24q-27 -15 -94 -116q-8 -15 -18 -43q-4 -5 -17 -27q-6 -19 -31 -63q-28 -54 -55 -140q-4 -70 -4 -71q0 -49 8 -82q8 -16 13 -31q3 -8 30 -49 q9 -12 70 -49q41 -23 147 -23l41 4q34 3 49 6q5 1 70 27l35 21q34 15 70 51l49 73q1 1 5 8.5t13.5 25.5t18.5 36q17 40 28 68v12q15 50 15 86zM985 1309q0 -11 -12 -41q-12 -6 -21 -6q-23 0 -32 6q-22 22 -89 127q-18 26 -45 67q-13 16 -26 19q-2 -2 -17 -6q-2 -3 -67 -76 q-5 -8 -19 -25q-3 -6 -79 -94q-27 -21 -33 -47q-29 -16 -41 -16q-23 3 -29 12q-17 9 -33 51q0 2 2 4q0 18 39 74l49 63q38 48 111 131q10 8 35 33q16 12 27 23q5 5 18 10q35 0 49 -14q3 -2 6.5 -4t9 -5.5t9.5 -5.5q7 -5 23 -19t24 -20q7 -11 24 -32l68 -136q17 -30 33 -49 v-2q4 -6 16 -22z" />
<glyph unicode="&#xd5;" horiz-adv-x="1200" d="M1104 479q0 -10 -2 -18l-6 -37v-6q2 0 4 -2q-2 -18 -29 -90q-15 -48 -27 -68q-22 -48 -43 -76q-12 -18 -16 -26q-10 -10 -22 -25v-8q-4 -4 -7 -10q-1 -1 -47 -33q-9 -12 -32 -35l-4 -3q-4 -3 -5 -5l-16 -9q-15 -8 -23 -14l-28 -14q-3 -2 -23 -14q-8 -2 -26 -9t-27 -10 q-2 -2 -10 -6q-26 -10 -76 -20q-1 0 -15.5 -4.5t-25.5 -6.5h-18q-3 0 -13.5 -3t-13.5 -3q-63 0 -137 19q-79 22 -166 82q-36 25 -78 73q-8 8 -37 56q-1 3 -4 10t-9.5 21t-12.5 26q-17 79 -25 117q1 -6 2 2l2 90q0 4 3 19.5t3 19.5l19 73q5 11 26 68q38 76 47 92q5 8 28.5 46 t41.5 67q11 15 39 51.5t45 58.5q3 2 12.5 9.5t14.5 13.5l16 20q8 4 23 19q48 45 104 45l12 10l10 4q1 0 13.5 6.5t13.5 6.5q6 2 25 2q16 11 73 26l5 4h18q1 1 4.5 2t5.5 2q9 0 33 -6h20q4 -3 9 -6t13 -7t13 -7q17 -17 27 -25q4 -2 16 -6q0 -4 4 -8q2 -8 17 -27q4 -12 8 -18 q18 -15 45 -33q12 -16 25 -29q2 -2 10 -6l31 -30q12 -20 26 -41l14 -15q6 -15 15 -30v-9q1 -1 4 -3t4 -3q0 -1 14 -33l4 -6t5.5 -7t5.5 -7l6 -21q1 -4 2 -14.5t2 -15.5q1 -1 3 -2t3 -2q5 -20 6 -23q14 -105 17 -129v-27q0 -3 6 -6zM920 510q0 82 -21 135q-4 13 -25 70 q-9 15 -18 33q-12 14 -45 47l-49 49q-27 17 -72 43q-24 -17 -51 -17h-61q-5 0 -12.5 -4t-19 -14t-20 -18t-25 -24t-24.5 -24q-27 -15 -94 -116q-8 -15 -18 -43q-4 -5 -17 -27q-6 -19 -31 -63q-28 -54 -55 -140q-4 -70 -4 -71q0 -49 8 -82q8 -16 13 -31q3 -8 30 -49 q9 -12 70 -49q41 -23 147 -23l41 4q34 3 49 6q5 1 70 27l35 21q34 15 70 51l49 73q1 1 5 8.5t13.5 25.5t18.5 36q17 40 28 68v12q15 50 15 86zM1126 1673q-4 -10 -12 -22l2 -2q-10 -19 -39 -56q-2 -6 -12 -26l-4 -2v-6q-5 -11 -19 -33v-6q0 -5 2 -7q-12 -20 -20 -32q2 2 2 0 q-2 0 -2 -4q-9 -6 -27 -21l-2 -2q-14 -14 -22 -18q-32 -13 -82 -13q-72 6 -146 47q-7 7 -28 19q-3 3 -25 16q-4 0 -20 8.5t-17 8.5q1 -2 -3 -3.5t-9 -4t-10 -12.5t-6 -27q-12 -33 -45 -33q-11 0 -17 2h-8q-2 1 -6.5 2t-7.5 2h-8q-11 3 -21 20q-3 3 -12 27q1 1 2 3t2 3 q-2 2 -2 8q0 14 8 45q30 68 51 86q44 38 72 35q6 2 20 2q4 -1 20 -3.5t27 -4.5q3 -1 9.5 -4t9.5 -4q6 -4 25 -16.5t32 -20.5q27 -27 43 -45q2 -2 6 -10v-2q7 -16 19 -35l2 -2l12 -4h14q10 2 16.5 3.5t11.5 4t7.5 4t7.5 5.5t7 5q3 3 80 94q36 39 49 39q43 0 43 2q4 0 20 -4 q2 -2 10 -6z" />
<glyph unicode="&#xd6;" horiz-adv-x="1200" d="M1104 479q0 -10 -2 -18l-6 -37v-6q2 0 4 -2q-2 -18 -29 -90q-15 -48 -27 -68q-22 -48 -43 -76q-12 -18 -16 -26q-10 -10 -22 -25v-8q-4 -4 -7 -10q-1 -1 -47 -33q-9 -12 -32 -35l-4 -3q-4 -3 -5 -5l-16 -9q-15 -8 -23 -14l-28 -14q-3 -2 -23 -14q-8 -2 -26 -9t-27 -10 q-2 -2 -10 -6q-26 -10 -76 -20q-1 0 -15.5 -4.5t-25.5 -6.5h-18q-3 0 -13.5 -3t-13.5 -3q-63 0 -137 19q-79 22 -166 82q-36 25 -78 73q-8 8 -37 56q-1 3 -4 10t-9.5 21t-12.5 26q-17 79 -25 117q1 -6 2 2l2 90q0 4 3 19.5t3 19.5l19 73q5 11 26 68q38 76 47 92q5 8 28.5 46 t41.5 67q11 15 39 51.5t45 58.5q3 2 12.5 9.5t14.5 13.5l16 20q8 4 23 19q48 45 104 45l12 10l10 4q1 0 13.5 6.5t13.5 6.5q6 2 25 2q16 11 73 26l5 4h18q1 1 4.5 2t5.5 2q9 0 33 -6h20q4 -3 9 -6t13 -7t13 -7q17 -17 27 -25q4 -2 16 -6q0 -4 4 -8q2 -8 17 -27q4 -12 8 -18 q18 -15 45 -33q12 -16 25 -29q2 -2 10 -6l31 -30q12 -20 26 -41l14 -15q6 -15 15 -30v-9q1 -1 4 -3t4 -3q0 -1 14 -33l4 -6t5.5 -7t5.5 -7l6 -21q1 -4 2 -14.5t2 -15.5q1 -1 3 -2t3 -2q5 -20 6 -23q14 -105 17 -129v-27q0 -3 6 -6zM920 510q0 82 -21 135q-4 13 -25 70 q-9 15 -18 33q-12 14 -45 47l-49 49q-27 17 -72 43q-24 -17 -51 -17h-61q-5 0 -12.5 -4t-19 -14t-20 -18t-25 -24t-24.5 -24q-27 -15 -94 -116q-8 -15 -18 -43q-4 -5 -17 -27q-6 -19 -31 -63q-28 -54 -55 -140q-4 -70 -4 -71q0 -49 8 -82q8 -16 13 -31q3 -8 30 -49 q9 -12 70 -49q41 -23 147 -23l41 4q34 3 49 6q5 1 70 27l35 21q34 15 70 51l49 73q1 1 5 8.5t13.5 25.5t18.5 36q17 40 28 68v12q15 50 15 86zM475 1559h4l17 -7l18 -8l16 2l-2 -14l21 -8l29 -27l12 -14l28 -68l3 -14v-25l-15 -24l-14 -17l-2 -4l-31 -4l-35 -4l-37 14l-16 9 l-4 4l-49 34l-23 21l-4 10v27l-4 22l4 27l17 33l36 28zM793 1554l45 -14l18 4l25 -31l28 -24l19 -49v-56l-27 -28l-10 -6l-21 -7l-53 9l-41 20l-43 39l-2 31l-8 12l22 70l21 14l20 6z" />
<glyph unicode="&#xd8;" horiz-adv-x="1124" d="M967 1204q23 -7 32 -33q1 -3 3 -8.5t5 -14t5 -15.5v-23q3 -18 -17 -72q-2 -12 -45 -67v-10q-3 -15 4 -39q-2 -12 -2 -39q11 -19 23 -19q7 -12 29 -43q7 -17 24 -47l16 -16q1 -2 6 -21.5t9 -31.5q1 0 6 -5q1 -6 3.5 -18t5 -23t5.5 -22q2 -2 2 -6q1 -8 6.5 -33t8.5 -41 q1 -6 5 -24t7 -37q0 -15 -2 -21q3 -6 0 -31q0 -7 -0.5 -14t-1 -10t-0.5 -5.5t-1 -5.5l-1.5 -4.5t-3.5 -7.5q-1 -3 -2 -6.5t-1.5 -5t-0.5 -2.5l-7 -35q-7 -16 -18 -53q-6 -18 -14 -41q-11 -8 -21 -39q-8 -7 -18 -25v-8q-1 -1 -2 -4t-2 -4q-3 -2 -8.5 -6t-8.5 -6 q-32 -41 -63 -68q-22 -14 -41 -31q-22 -19 -76 -47q-76 -67 -162 -67q-27 0 -39 2l-18 -8l-21 -2l-14 -7l-12 -2h-10l-13 -6l-41 4l-34 9l-23 8l-25 -49l-14 -19q-2 -7 -9.5 -28l-12.5 -35q-7 -14 -13 -29l-4 -4q-4 -20 -12 -28.5t-19 -6.5q-13 4 -19.5 10.5t-8 11.5 t-2.5 17q3 18 6 45q6 44 6 94q-3 7 18 66q-6 2 -18 10q-15 9 -84 64q-6 8 -20 25t-19 24q-18 31 -31 51q-3 10 -12 32.5t-14 34.5q-5 31 -8 41q0 1 -3 33.5t-4 52.5q3 21 3 52q-2 4 4 39q8 31 8 38t16 50q4 11 8.5 23.5t6.5 18t2 7.5q16 31 20 43q4 22 41 80q38 61 43 75 q39 56 70 99q2 3 11 14.5t15 18.5q15 10 19 14q3 6 18 24q10 6 35 31q4 1 9.5 5t15 12t18.5 14q14 8 41 22q59 20 68 23q12 4 28 6q1 1 2.5 1.5t4.5 1t5 1.5h25q7 1 13 1.5t7 0.5h1q1 -1 24 -14q7 -7 23 -19q3 -1 10.5 -6t15.5 -8q9 -12 15 -12l2 -2q37 28 104 67q1 3 16 35 t23 53q2 5 23.5 20t27.5 15h19zM942 512q0 127 -39 180q-20 39 -55 82q-3 6 -14 17q-11 -32 -68 -138q-62 -115 -64 -123q-41 -59 -86 -145q-12 -37 -14 -41q-2 -3 -6.5 -11.5t-7.5 -13.5q-43 -96 -51 -116q-3 -9 -35 -92q-2 -12 -13 -37l41 -2l9 2l16 4q23 0 63 4 q37 5 95 37q17 7 43 26q49 30 86 76q1 1 5.5 10t14 26t19.5 36q20 47 26 65q1 4 2.5 9.5t4.5 12.5t4 11q3 5 8.5 15t7.5 14q0 8 -2 14q10 52 10 78zM723 889q-2 2 -6 5t-6.5 5.5t-3.5 5.5q-22 -16 -54 -16h-63q-10 0 -78 -45q-10 -14 -53 -68q-26 -30 -70 -102 q-1 -2 -3.5 -6t-5 -7.5t-5.5 -7.5q-5 -15 -19 -43q-8 -16 -14 -26q-3 -9 -11.5 -28.5t-11.5 -27.5l-4 -8q-30 -59 -55 -137q-2 -22 -3 -34t-1.5 -22t-1 -13t-0.5 -1q0 -112 45 -157q38 -35 68 -45q25 57 30 71q37 88 84 211q50 98 109 228q65 121 133 268z" />
<glyph unicode="&#xd9;" horiz-adv-x="1067" d="M866 1169q-3 -15 -4 -16l-4 -4h-6l-6 -6h-4q-9 -6 -27 -6q-23 0 -55 14q-16 5 -49 20q-56 25 -101 60q-72 54 -92 67q-36 30 -45 37q-16 20 -33 37q-1 1 -18 35q-14 22 -14 45l2 2q3 33 20 33q47 1 43 4q11 0 19 -2l12 -4q8 -4 14 -6q1 -1 3 -2t3 -2l11 -5q7 -3 10 -10 q17 -15 70.5 -61t89.5 -78q73 -67 83 -78q78 -72 78 -74zM1153 1122q0 -18 -2 -41l-2 -34q-5 -46 -21 -142q-7 -20 -8 -28l-7 -41q-1 -6 -1 -9q-3 -22 -12 -59q-11 -22 -19 -49q-5 -22 -41 -135q-8 -19 -26 -78q-2 -6 -10 -22t-11 -27q-1 -1 -3 -4.5t-6.5 -10t-8.5 -12.5 q-20 -78 -76 -176q-7 -15 -27 -41l-20 -20q-5 -7 -35 -46q-3 -12 -16 -22l-21 -29q-16 -12 -37 -33q-12 -12 -14 -12q-6 -10 -17 -20t-19.5 -16t-28.5 -19t-29 -19q-6 -2 -19 -2l-14 7q-24 -21 -84 -21q-6 -2 -22 -2q-25 0 -35 10q-40 0 -60 17q-9 3 -14 10q-20 2 -59 41 q-28 21 -43 43q-34 39 -76 117q0 7 -16.5 41t-16.5 38q0 5 -12 45t-12 50q-18 73 -15 145q8 178 37 275q1 3 4 11t4 13q12 53 21 76q21 57 39 78q52 82 73 82q9 -18 9 -19l6 15q0 -6 1 -6t3 6q-1 0 -2 -2l-2 -4t-2 -3q3 -3 6 -12q1 -1 -2 -29q0 -7 12 -28q0 -7 14 -21 q0 -2 2 -5t6.5 -8.5t11 -12.5t18 -20.5t24.5 -29.5q14 -34 20 -90v-39q-1 -8 -3 -24.5t-3 -24.5v-24q-1 -5 -1.5 -16.5t-1 -32t-1.5 -35.5q0 -34 4 -70q6 -6 10 -61q3 -53 9 -56q9 -6 20 -49q15 -45 31 -45q5 0 14 -33q9 -31 19 -28q4 4 9.5 -5.5t10 -21.5t6.5 -12q2 4 4 4 q2 2 7 -3.5t9 -10.5t7 -2q7 -7 12 -7q15 -9 33 -6q16 -3 41 6q9 0 45 25q33 39 74 145q4 22 20 70q3 21 14.5 80t18.5 100q16 88 16 107q-2 28 -16 67q-7 2 -21 37l-6 29l2 6q0 10 8 10l46 119q2 0 43 78q41 80 43 80q2 1 10.5 6.5t18.5 10.5t18 5q4 -4 24.5 -1.5t22.5 -2.5 q1 -4 11.5 2t22.5 14.5t15 8.5q9 0 12 -17q1 0 2 -3q1 -1 1 -1.5t1 -1.5q0 -3 6 0q4 4 7 -2q-2 2 -2 0q9 0 14.5 -12.5t5.5 -22.5z" />
<glyph unicode="&#xda;" horiz-adv-x="1067" d="M1153 1122q0 -18 -2 -41l-2 -34q-5 -46 -21 -142q-7 -20 -8 -28l-7 -41q-1 -6 -1 -9q-3 -22 -12 -59q-11 -22 -19 -49q-5 -22 -41 -135q-8 -19 -26 -78q-2 -6 -10 -22t-11 -27q-1 -1 -3 -4.5t-6.5 -10t-8.5 -12.5q-20 -78 -76 -176q-7 -15 -27 -41l-20 -20q-5 -7 -35 -46 q-3 -12 -16 -22l-21 -29q-16 -12 -37 -33q-12 -12 -14 -12q-6 -10 -17 -20t-19.5 -16t-28.5 -19t-29 -19q-6 -2 -19 -2l-14 7q-24 -21 -84 -21q-6 -2 -22 -2q-25 0 -35 10q-40 0 -60 17q-9 3 -14 10q-20 2 -59 41q-28 21 -43 43q-34 39 -76 117q0 7 -16.5 41t-16.5 38 q0 5 -12 45t-12 50q-18 73 -15 145q8 178 37 275q1 3 4 11t4 13q12 53 21 76q21 57 39 78q52 82 73 82q9 -18 9 -19l6 15q0 -6 1 -6t3 6q-1 0 -2 -2l-2 -4t-2 -3q3 -3 6 -12q1 -1 -2 -29q0 -7 12 -28q0 -7 14 -21q0 -2 2 -5t6.5 -8.5t11 -12.5t18 -20.5t24.5 -29.5 q14 -34 20 -90v-39q-1 -8 -3 -24.5t-3 -24.5v-24q-1 -5 -1.5 -16.5t-1 -32t-1.5 -35.5q0 -34 4 -70q6 -6 10 -61q3 -53 9 -56q9 -6 20 -49q15 -45 31 -45q5 0 14 -33q9 -31 19 -28q4 4 9.5 -5.5t10 -21.5t6.5 -12q2 4 4 4q2 2 7 -3.5t9 -10.5t7 -2q7 -7 12 -7q15 -9 33 -6 q16 -3 41 6q9 0 45 25q33 39 74 145q4 22 20 70q3 21 14.5 80t18.5 100q16 88 16 107q-2 28 -16 67q-7 2 -21 37l-6 29l2 6q0 10 8 10l46 119q2 0 43 78q41 80 43 80q2 1 10.5 6.5t18.5 10.5t18 5q4 -4 24.5 -1.5t22.5 -2.5q1 -4 11.5 2t22.5 14.5t15 8.5q9 0 12 -17 q1 0 2 -3q1 -1 1 -1.5t1 -1.5q0 -3 6 0q4 4 7 -2q-2 2 -2 0q9 0 14.5 -12.5t5.5 -22.5zM866 1520h8l11 -7l2 -8l-8 -2l-7 -16l2 -6l-10 -4l-16 -11v-6l6 -8l-8 -8l4 -17l-8 -6v-6l24 4v-2l-28 -22l-7 -21l-14 -22l-12 -15l-25 -22l-22 -17l-82 -49l-74 -32l-14 -3h-35l-25 9 h-16l-12 6v8l-8 8l-11 29l2 10l-4 12l4 9l13 12v4l61 55l29 21l84 61l61 37l60 14z" />
<glyph unicode="&#xdb;" horiz-adv-x="1067" d="M956 1206q0 -11 -12 -41q-12 -6 -20 -6q-24 0 -33 6q-19 19 -88 127q-12 16 -45 68q-12 15 -27 18q-3 -3 -16 -6q-11 -11 -68 -76q-6 -9 -18 -24q-2 -3 -80 -94q-27 -21 -33 -48q-29 -16 -41 -16q-23 3 -29 12q-16 8 -32 52q0 2 2 4q0 17 39 73q39 51 49 64 q48 60 110 131q10 8 35 33q20 15 27 22q6 6 18 11q34 0 49 -15q3 -2 11.5 -6.5t13.5 -7.5q7 -5 23 -19t24 -20q6 -11 25 -33l67 -135q17 -30 33 -49v-2q10 -15 16 -23zM1153 1122q0 -18 -2 -41l-2 -34q-5 -46 -21 -142q-7 -20 -8 -28l-7 -41q-1 -6 -1 -9q-3 -22 -12 -59 q-11 -22 -19 -49q-5 -22 -41 -135q-8 -19 -26 -78q-2 -6 -10 -22t-11 -27q-1 -1 -3 -4.5t-6.5 -10t-8.5 -12.5q-20 -78 -76 -176q-7 -15 -27 -41l-20 -20q-5 -7 -35 -46q-3 -12 -16 -22l-21 -29q-16 -12 -37 -33q-12 -12 -14 -12q-6 -10 -17 -20t-19.5 -16t-28.5 -19 t-29 -19q-6 -2 -19 -2l-14 7q-24 -21 -84 -21q-6 -2 -22 -2q-25 0 -35 10q-40 0 -60 17q-9 3 -14 10q-20 2 -59 41q-28 21 -43 43q-34 39 -76 117q0 7 -16.5 41t-16.5 38q0 5 -12 45t-12 50q-18 73 -15 145q8 178 37 275q1 3 4 11t4 13q12 53 21 76q21 57 39 78q52 82 73 82 q9 -18 9 -19l6 15q0 -6 1 -6t3 6q-1 0 -2 -2l-2 -4t-2 -3q3 -3 6 -12q1 -1 -2 -29q0 -7 12 -28q0 -7 14 -21q0 -2 2 -5t6.5 -8.5t11 -12.5t18 -20.5t24.5 -29.5q14 -34 20 -90v-39q-1 -8 -3 -24.5t-3 -24.5v-24q-1 -5 -1.5 -16.5t-1 -32t-1.5 -35.5q0 -34 4 -70q6 -6 10 -61 q3 -53 9 -56q9 -6 20 -49q15 -45 31 -45q5 0 14 -33q9 -31 19 -28q4 4 9.5 -5.5t10 -21.5t6.5 -12q2 4 4 4q2 2 7 -3.5t9 -10.5t7 -2q7 -7 12 -7q15 -9 33 -6q16 -3 41 6q9 0 45 25q33 39 74 145q4 22 20 70q3 21 14.5 80t18.5 100q16 88 16 107q-2 28 -16 67q-7 2 -21 37 l-6 29l2 6q0 10 8 10l46 119q2 0 43 78q41 80 43 80q2 1 10.5 6.5t18.5 10.5t18 5q4 -4 24.5 -1.5t22.5 -2.5q1 -4 11.5 2t22.5 14.5t15 8.5q9 0 12 -17q1 0 2 -3q1 -1 1 -1.5t1 -1.5q0 -3 6 0q4 4 7 -2q-2 2 -2 0q9 0 14.5 -12.5t5.5 -22.5z" />
<glyph unicode="&#xdc;" horiz-adv-x="1067" d="M475 1559h4l17 -7l18 -8l16 2l-2 -14l21 -8l29 -27l12 -14l28 -68l3 -14v-25l-15 -24l-14 -17l-2 -4l-31 -4l-35 -4l-37 14l-16 9l-4 4l-49 34l-23 21l-4 10v27l-4 22l4 27l17 33l36 28zM793 1554l45 -14l18 4l25 -31l28 -24l19 -49v-56l-27 -28l-10 -6l-21 -7l-53 9 l-41 20l-43 39l-2 31l-8 12l22 70l21 14l20 6zM1153 1122q0 -18 -2 -41l-2 -34q-5 -46 -21 -142q-7 -20 -8 -28l-7 -41q-1 -6 -1 -9q-3 -22 -12 -59q-11 -22 -19 -49q-5 -22 -41 -135q-8 -19 -26 -78q-2 -6 -10 -22t-11 -27q-1 -1 -3 -4.5t-6.5 -10t-8.5 -12.5 q-20 -78 -76 -176q-7 -15 -27 -41l-20 -20q-5 -7 -35 -46q-3 -12 -16 -22l-21 -29q-16 -12 -37 -33q-12 -12 -14 -12q-6 -10 -17 -20t-19.5 -16t-28.5 -19t-29 -19q-6 -2 -19 -2l-14 7q-24 -21 -84 -21q-6 -2 -22 -2q-25 0 -35 10q-40 0 -60 17q-9 3 -14 10q-20 2 -59 41 q-28 21 -43 43q-34 39 -76 117q0 7 -16.5 41t-16.5 38q0 5 -12 45t-12 50q-18 73 -15 145q8 178 37 275q1 3 4 11t4 13q12 53 21 76q21 57 39 78q52 82 73 82q9 -18 9 -19l6 15q0 -6 1 -6t3 6q-1 0 -2 -2l-2 -4t-2 -3q3 -3 6 -12q1 -1 -2 -29q0 -7 12 -28q0 -7 14 -21 q0 -2 2 -5t6.5 -8.5t11 -12.5t18 -20.5t24.5 -29.5q14 -34 20 -90v-39q-1 -8 -3 -24.5t-3 -24.5v-24q-1 -5 -1.5 -16.5t-1 -32t-1.5 -35.5q0 -34 4 -70q6 -6 10 -61q3 -53 9 -56q9 -6 20 -49q15 -45 31 -45q5 0 14 -33q9 -31 19 -28q4 4 9.5 -5.5t10 -21.5t6.5 -12q2 4 4 4 q2 2 7 -3.5t9 -10.5t7 -2q7 -7 12 -7q15 -9 33 -6q16 -3 41 6q9 0 45 25q33 39 74 145q4 22 20 70q3 21 14.5 80t18.5 100q16 88 16 107q-2 28 -16 67q-7 2 -21 37l-6 29l2 6q0 10 8 10l46 119q2 0 43 78q41 80 43 80q2 1 10.5 6.5t18.5 10.5t18 5q4 -4 24.5 -1.5t22.5 -2.5 q1 -4 11.5 2t22.5 14.5t15 8.5q9 0 12 -17q1 0 2 -3q1 -1 1 -1.5t1 -1.5q0 -3 6 0q4 4 7 -2q-2 2 -2 0q9 0 14.5 -12.5t5.5 -22.5z" />
<glyph unicode="&#xdd;" horiz-adv-x="1228" d="M987 1290l19 15l28 14l2 -19l-10 -20l-18 -29l-13 -28l-41 -62l-14 -28l-293 -435l-10 -24l-35 -58l-14 -16l-19 -35v-6l-8 -6l-12 -21l-17 -24l-6 -14v-11l-12 -69l-12 -88l-8 -17l-17 -135l2 -18l-8 -50l-8 -51l-6 -12l-2 -25l-9 -28l-4 -6l-8 -25l2 -14l-8 -17 l-22 -16l-74 -8l-49 16l-25 53l-8 62l-4 65v76l8 100l14 66l15 78l14 72l6 55l-49 61l-47 64l-47 84l-39 59l-19 55l-2 41l-6 52l17 30l26 25l13 12l18 -10l8 -10l12 14l45 -16l27 -27l68 -84l34 -51l66 -111l23 -51l26 31l19 39l14 22l20 27l21 31l6 4l14 24l74 92l39 45 l45 54l86 96l55 53l25 21l35 32l35 17zM743 1483h9l10 -6l2 -9l-8 -2l-6 -16l2 -6l-11 -4l-16 -10v-7l6 -8l-8 -8l4 -16l-8 -7v-6l24 4v-2l-28 -22l-6 -21l-15 -22l-12 -15l-25 -22l-22 -16l-82 -50l-74 -32l-14 -2h-35l-24 8h-17l-12 6v8l-8 8l-11 29l2 10l-4 13l4 8l13 12 v4l61 55l29 21l84 61l61 37l60 15z" />
<glyph unicode="&#xde;" horiz-adv-x="843" d="M731 385l6 -45l-2 -37l-16 -47l-21 -29l-28 -26l-37 -21l-43 -16h-60h-34l-39 14l-4 -2l-39 14l-11 7h-6l2 8l4 2l-4 4h-4l2 6l-4 4l8 2l-4 6h6l3 9l79 -9l33 2l27 7l22 16l15 22v21l-4 37l-17 53l-14 31l-27 43l-28 39l-5 2l-24 37l-2 4l-10 10l-21 35l-39 45l-63 -172 l-17 -62l-16 -32l-6 -35l-15 -31l-8 -35l-20 -123l-15 -61l-12 -68l-29 -73l-26 -29l-33 -18l-22 12l-7 94l4 12l-4 17v59l4 47l-4 10l-2 101l2 73l13 58l14 80l14 45l27 125l12 24l23 76l37 109l2 28l18 29l19 43l26 45l2 14l43 74l10 6l19 35l41 37l43 16h14l29 -12 l16 -23l6 -49l-6 -102l-26 -59l-29 -62l-20 -55l88 -92l2 -7l10 -8l84 -104l6 -15l10 -10l47 -76l13 -32l10 -15l4 -24l2 -6v-13z" />
<glyph unicode="&#xdf;" horiz-adv-x="1077" d="M600 1198l57 -2l93 -22l73 -41l31 -27l39 -41l37 -53l28 -70l11 -37l4 -35l-21 -51l-2 -16l-59 -74l-33 -16l-24 -19l-11 -6l-16 -4l-12 -20l24 -21l72 -47l63 -61l47 -64l21 -49l12 -68l-4 -51l-12 -29l-6 -26l-31 -35l-39 -39l-24 -20l-19 -23l-37 -31l-8 -2l-23 -20 l-14 -6l-31 -19l-49 -22l-57 -21l-57 -6l-21 -6l-39 -4l-43 -8l-10 4l-21 -8l-145 16l-35 25l-6 20l2 20l-6 17l6 10v29h8l2 10l29 -31l33 -22l49 -10h63l66 8l59 8l43 16l41 19l56 30l30 33l21 35l18 35l8 26v41l-10 31l-10 29l-39 37l-31 22l-65 19l-33 2l-106 -29l-29 -6 l-41 16l-16 4l-11 7l-34 40l-7 7l2 14l-14 27l14 28v10l7 7l-5 16l11 8l14 27l10 8l27 14v13l18 8h33l21 2l14 14l14 -2l41 15l27 10l59 61l35 31l12 20l4 45l-24 52l-21 34l-43 25l-49 2l-51 -2l-55 -25l-39 -38l-25 -35l-20 -56l-31 -79l-90 -295l-8 -39l-37 -144l-25 -53 l-12 -37l-23 -102l-4 -31l-10 -53l-29 -191l-24 -32l-27 -58l-2 -6l-39 -8l-10 14l4 6l-8 37l-6 25l28 295l35 223l74 299l104 332l23 49l6 20l23 46l39 40l32 37l29 23l27 14l71 27z" />
<glyph unicode="&#xe0;" d="M844 893q-3 -15 -4 -16l-4 -5h-7l-6 -6h-4q-9 -6 -26 -6q-24 0 -56 14q-7 2 -49 21q-57 26 -100 59q-85 63 -92 68q-36 30 -45 37q-16 20 -33 37q-4 4 -19 34q-14 22 -14 46l2 2q3 32 21 32q47 1 43 4q10 0 18 -2l12 -4q6 -3 15 -6q1 -1 3 -2t3 -2l10 -4q7 -3 10 -10 q16 -14 38.5 -33.5t59 -51.5t62.5 -55q9 -8 38.5 -34.5t45.5 -42.5q78 -72 78 -74zM879 612q0 -2 -8.5 -21t-8.5 -24q-1 -7 -3.5 -28.5t-4.5 -36.5q-14 -14 -30 -60.5t-36.5 -114.5t-37.5 -108q-21 -50 -39 -166l-27 -170q-2 -10 -2 -33q0 -31 4 -49q-9 15 -43 49 q-31 31 -40 58t-9 80q0 81 14 121q-9 12 -18 12q-7 0 -14.5 -4.5t-21 -17.5t-29.5 -28.5t-47.5 -44.5t-67.5 -59q-10 -31 -45.5 -55.5t-145.5 -81.5q-41 -47 -84 -47q-4 0 -19 8.5t-34.5 28t-26.5 43.5q-9 31 -42 82t-33 94q0 35 20 108q22 8 57 43q2 11 3.5 17.5t3.5 13.5 t7 16.5t9.5 17.5t15.5 25.5t20.5 32.5t29.5 46t38 59q21 16 46.5 57.5t68.5 79.5q95 128 158.5 190t113.5 62q33 0 84 -51q20 0 31 -7.5t34.5 -22t67.5 -26.5l32 -15q59 -35 59 -73zM647 580q-1 0 -9 -3.5t-9 -3.5q6 -6 12 -8q1 1 6 15zM614 541q0 24 -20 24q-17 0 -64 -41 q-33 -20 -83.5 -74t-182.5 -208q-2 -3 -19.5 -29t-34.5 -52.5t-36 -57.5t-31 -55t-12 -34q0 -16 14 -16t37.5 20t65.5 60t76 67q5 9 14.5 19.5t21.5 22t43.5 42t65.5 64.5q0 16 39.5 76.5t64.5 79.5q38 92 41 92z" />
<glyph unicode="&#xe1;" d="M893 1208h8l10 -6l2 -8l-8 -2l-6 -16l2 -7l-10 -4l-17 -10v-6l7 -8l-9 -8l5 -17l-9 -6v-6l25 4v-2l-29 -23l-6 -20l-14 -23l-13 -14l-24 -22l-23 -17l-82 -49l-73 -33l-15 -2h-34l-25 8h-16l-13 7v8l-8 8l-10 29l2 10l-4 12l4 8l12 13v4l62 55l28 20l84 62l62 37l59 14z M879 612q0 -2 -8.5 -21t-8.5 -24q-1 -7 -3.5 -28.5t-4.5 -36.5q-14 -14 -30 -60.5t-36.5 -114.5t-37.5 -108q-21 -50 -39 -166l-27 -170q-2 -10 -2 -33q0 -31 4 -49q-9 15 -43 49q-31 31 -40 58t-9 80q0 81 14 121q-9 12 -18 12q-7 0 -14.5 -4.5t-21 -17.5t-29.5 -28.5 t-47.5 -44.5t-67.5 -59q-10 -31 -45.5 -55.5t-145.5 -81.5q-41 -47 -84 -47q-4 0 -19 8.5t-34.5 28t-26.5 43.5q-9 31 -42 82t-33 94q0 35 20 108q22 8 57 43q2 11 3.5 17.5t3.5 13.5t7 16.5t9.5 17.5t15.5 25.5t20.5 32.5t29.5 46t38 59q21 16 46.5 57.5t68.5 79.5 q95 128 158.5 190t113.5 62q33 0 84 -51q20 0 31 -7.5t34.5 -22t67.5 -26.5l32 -15q59 -35 59 -73zM647 580q-1 0 -9 -3.5t-9 -3.5q6 -6 12 -8q1 1 6 15zM614 541q0 24 -20 24q-17 0 -64 -41q-33 -20 -83.5 -74t-182.5 -208q-2 -3 -19.5 -29t-34.5 -52.5t-36 -57.5t-31 -55 t-12 -34q0 -16 14 -16t37.5 20t65.5 60t76 67q5 9 14.5 19.5t21.5 22t43.5 42t65.5 64.5q0 16 39.5 76.5t64.5 79.5q38 92 41 92z" />
<glyph unicode="&#xe2;" d="M932 889q0 -11 -12 -41q-12 -6 -21 -6q-24 0 -33 6q-19 19 -88 127q-18 26 -45 67q-13 16 -26 19q-2 -2 -17 -6q-2 -3 -67 -76q-5 -7 -19 -25q-2 -3 -80 -94q-26 -20 -32 -47q-29 -16 -41 -16q-23 3 -29 12q-17 9 -33 51q0 2 2 4q0 18 39 74l49 63q47 59 111 132 q15 12 35 32q12 9 26 23q4 4 19 10q35 0 49 -14q9 -6 24 -15q8 -5 24 -19t24 -20q7 -11 24 -32l68 -135q20 -36 32 -50v-2q2 -3 8.5 -11t8.5 -11zM879 612q0 -2 -8.5 -21t-8.5 -24q-1 -7 -3.5 -28.5t-4.5 -36.5q-14 -14 -30 -60.5t-36.5 -114.5t-37.5 -108q-21 -50 -39 -166 l-27 -170q-2 -10 -2 -33q0 -31 4 -49q-9 15 -43 49q-31 31 -40 58t-9 80q0 81 14 121q-9 12 -18 12q-7 0 -14.5 -4.5t-21 -17.5t-29.5 -28.5t-47.5 -44.5t-67.5 -59q-10 -31 -45.5 -55.5t-145.5 -81.5q-41 -47 -84 -47q-4 0 -19 8.5t-34.5 28t-26.5 43.5q-9 31 -42 82 t-33 94q0 35 20 108q22 8 57 43q2 11 3.5 17.5t3.5 13.5t7 16.5t9.5 17.5t15.5 25.5t20.5 32.5t29.5 46t38 59q21 16 46.5 57.5t68.5 79.5q95 128 158.5 190t113.5 62q33 0 84 -51q20 0 31 -7.5t34.5 -22t67.5 -26.5l32 -15q59 -35 59 -73zM647 580q-1 0 -9 -3.5t-9 -3.5 q6 -6 12 -8q1 1 6 15zM614 541q0 24 -20 24q-17 0 -64 -41q-33 -20 -83.5 -74t-182.5 -208q-2 -3 -19.5 -29t-34.5 -52.5t-36 -57.5t-31 -55t-12 -34q0 -16 14 -16t37.5 20t65.5 60t76 67q5 9 14.5 19.5t21.5 22t43.5 42t65.5 64.5q0 16 39.5 76.5t64.5 79.5q38 92 41 92z " />
<glyph unicode="&#xe3;" d="M1014 1047q-4 -9 -13 -23l3 -2q-8 -17 -39 -55q-1 -3 -13 -27l-4 -2v-6q-6 -15 -18 -33v-6q0 -4 2 -6q-9 -15 -21 -33q2 2 2 0q-2 0 -2 -4q-4 -3 -26 -21l-2 -2q-13 -13 -23 -18q-30 -12 -82 -12q-71 6 -145 47q-3 3 -29 18q-6 6 -24 17q-4 0 -20 8t-17 8q0 -1 -2 -2 l-6 -3t-8.5 -6t-8 -13t-4.5 -23q-12 -33 -45 -33q-10 0 -16 2h-9q-2 1 -7 2t-7 2h-8q-10 3 -21 21q-4 4 -12 26q1 1 2 3t2 3q-2 2 -2 9q0 14 8 45q30 67 52 86q44 38 71 35q6 2 21 2q4 -1 20 -4t27 -5q3 -1 9 -4t9 -4q5 -3 25 -16t33 -21q27 -27 43 -45q2 -2 6 -10v-2 q8 -20 18 -35l2 -2l13 -4h14q10 2 16.5 3.5t11 4t7.5 4.5t7 5.5t7 5.5q3 3 80 94q36 39 49 39q43 0 43 2q5 0 21 -4q2 -2 10 -6zM879 612q0 -2 -8.5 -21t-8.5 -24q-1 -7 -3.5 -28.5t-4.5 -36.5q-14 -14 -30 -60.5t-36.5 -114.5t-37.5 -108q-21 -50 -39 -166l-27 -170 q-2 -10 -2 -33q0 -31 4 -49q-9 15 -43 49q-31 31 -40 58t-9 80q0 81 14 121q-9 12 -18 12q-7 0 -14.5 -4.5t-21 -17.5t-29.5 -28.5t-47.5 -44.5t-67.5 -59q-10 -31 -45.5 -55.5t-145.5 -81.5q-41 -47 -84 -47q-4 0 -19 8.5t-34.5 28t-26.5 43.5q-9 31 -42 82t-33 94 q0 35 20 108q22 8 57 43q2 11 3.5 17.5t3.5 13.5t7 16.5t9.5 17.5t15.5 25.5t20.5 32.5t29.5 46t38 59q21 16 46.5 57.5t68.5 79.5q95 128 158.5 190t113.5 62q33 0 84 -51q20 0 31 -7.5t34.5 -22t67.5 -26.5l32 -15q59 -35 59 -73zM647 580q-1 0 -9 -3.5t-9 -3.5 q6 -6 12 -8q1 1 6 15zM614 541q0 24 -20 24q-17 0 -64 -41q-33 -20 -83.5 -74t-182.5 -208q-2 -3 -19.5 -29t-34.5 -52.5t-36 -57.5t-31 -55t-12 -34q0 -16 14 -16t37.5 20t65.5 60t76 67q5 9 14.5 19.5t21.5 22t43.5 42t65.5 64.5q0 16 39.5 76.5t64.5 79.5q38 92 41 92z " />
<glyph unicode="&#xe4;" d="M500 1090h4l16 -7l19 -8l16 2l-2 -14l20 -8l29 -27l12 -14l29 -68l2 -14v-25l-14 -24l-15 -17l-2 -4l-30 -4l-35 -4l-37 14l-16 9l-4 4l-50 34l-22 21l-4 10v27l-4 22l4 27l16 33l37 28zM817 1085l45 -14l19 4l24 -31l29 -24l18 -49v-56l-26 -28l-11 -6l-20 -7l-53 9 l-41 20l-43 39l-2 31l-8 12l22 70l21 14l20 6zM879 612q0 -2 -8.5 -21t-8.5 -24q-1 -7 -3.5 -28.5t-4.5 -36.5q-14 -14 -30 -60.5t-36.5 -114.5t-37.5 -108q-21 -50 -39 -166l-27 -170q-2 -10 -2 -33q0 -31 4 -49q-9 15 -43 49q-31 31 -40 58t-9 80q0 81 14 121 q-9 12 -18 12q-7 0 -14.5 -4.5t-21 -17.5t-29.5 -28.5t-47.5 -44.5t-67.5 -59q-10 -31 -45.5 -55.5t-145.5 -81.5q-41 -47 -84 -47q-4 0 -19 8.5t-34.5 28t-26.5 43.5q-9 31 -42 82t-33 94q0 35 20 108q22 8 57 43q2 11 3.5 17.5t3.5 13.5t7 16.5t9.5 17.5t15.5 25.5 t20.5 32.5t29.5 46t38 59q21 16 46.5 57.5t68.5 79.5q95 128 158.5 190t113.5 62q33 0 84 -51q20 0 31 -7.5t34.5 -22t67.5 -26.5l32 -15q59 -35 59 -73zM647 580q-1 0 -9 -3.5t-9 -3.5q6 -6 12 -8q1 1 6 15zM614 541q0 24 -20 24q-17 0 -64 -41q-33 -20 -83.5 -74 t-182.5 -208q-2 -3 -19.5 -29t-34.5 -52.5t-36 -57.5t-31 -55t-12 -34q0 -16 14 -16t37.5 20t65.5 60t76 67q5 9 14.5 19.5t21.5 22t43.5 42t65.5 64.5q0 16 39.5 76.5t64.5 79.5q38 92 41 92z" />
<glyph unicode="&#xe5;" d="M500 1034q0 9 4 37q1 3 3.5 9.5l5 13t5.5 12.5v10q6 6 8 10q35 66 64 86q22 13 49 25q4 1 9 2.5t13 4t13 3.5q8 -3 53 -12q7 -7 25 -18l18 -19q6 -6 12 -8q12 -12 27 -33q6 -3 12 -12q16 -32 19 -41l6 -27q0 -53 -15 -94l-12 -12q-25 -25 -67 -51q-79 -48 -105 -33 q-3 0 -15.5 -2t-15.5 -2q-10 0 -37.5 10t-33.5 16q-30 30 -37.5 51.5t-7.5 73.5zM739 1071q0 59 -43 59q-6 0 -26 -20l-23 -25q-1 -1 -2 -3t-2 -3q-35 -21 -35 -69q0 -37 19 -37q0 5 61 39q51 26 51 59zM879 612q0 -2 -8.5 -21t-8.5 -24q-1 -7 -3.5 -28.5t-4.5 -36.5 q-14 -14 -30 -60.5t-36.5 -114.5t-37.5 -108q-21 -50 -39 -166l-27 -170q-2 -10 -2 -33q0 -31 4 -49q-9 15 -43 49q-31 31 -40 58t-9 80q0 81 14 121q-9 12 -18 12q-7 0 -14.5 -4.5t-21 -17.5t-29.5 -28.5t-47.5 -44.5t-67.5 -59q-10 -31 -45.5 -55.5t-145.5 -81.5 q-41 -47 -84 -47q-4 0 -19 8.5t-34.5 28t-26.5 43.5q-9 31 -42 82t-33 94q0 35 20 108q22 8 57 43q2 11 3.5 17.5t3.5 13.5t7 16.5t9.5 17.5t15.5 25.5t20.5 32.5t29.5 46t38 59q21 16 46.5 57.5t68.5 79.5q95 128 158.5 190t113.5 62q33 0 84 -51q20 0 31 -7.5t34.5 -22 t67.5 -26.5l32 -15q59 -35 59 -73zM647 580q-1 0 -9 -3.5t-9 -3.5q6 -6 12 -8q1 1 6 15zM614 541q0 24 -20 24q-17 0 -64 -41q-33 -20 -83.5 -74t-182.5 -208q-2 -3 -19.5 -29t-34.5 -52.5t-36 -57.5t-31 -55t-12 -34q0 -16 14 -16t37.5 20t65.5 60t76 67q5 9 14.5 19.5 t21.5 22t43.5 42t65.5 64.5q0 16 39.5 76.5t64.5 79.5q38 92 41 92z" />
<glyph unicode="&#xe6;" horiz-adv-x="1646" d="M1346 4q40 19 83 46.5t67.5 45t29.5 17.5q6 0 14 -4q-3 -31 -18 -70l-11 -13q-11 -12 -24.5 -27.5t-37 -37.5t-49.5 -42t-60.5 -41t-69.5 -36.5t-78.5 -25t-87.5 -9.5q-60 0 -134.5 62t-133.5 137q-47 62 -66 141q-10 -46 -18 -94l-27 -172q-2 -8 -2 -31q0 -33 4 -49 q-18 24 -43 49q-31 31 -40 57.5t-9 80.5q0 81 14 121q-7 10 -18 10q-7 0 -14.5 -4.5t-21 -17t-29.5 -28t-48 -44t-67 -58.5q-10 -31 -45.5 -55.5t-145.5 -81.5q-43 -49 -84 -49q-4 0 -19 8.5t-34.5 28.5t-26.5 43q-9 30 -42.5 81.5t-33.5 96.5q0 32 21 106q18 9 57 43 q1 10 2 15.5t4 14t4.5 12.5t8 15.5t11 19t15.5 25.5t20 32t27.5 43t34.5 53q21 16 46.5 57t68.5 80q96 127 159 188.5t113 61.5q35 0 84 -49q20 0 31 -8t34.5 -23t67.5 -27l22 -9q66 -37 69 -77q0 -4 -8.5 -22.5t-8.5 -22.5v-4l29 25q29 39 100 110l64 35q32 14 39 47h16 q4 0 22 -14.5t23 -15.5q40 -6 76 -12l51 -8.5t16 -2.5q72 -18 144.5 -81.5t72.5 -117.5q0 -51 -18.5 -94t-47 -70.5t-66 -49t-72.5 -33t-70 -18.5t-54.5 -9t-29.5 -2q-155 0 -201 37q-77 -127 -77 -195q0 -15 28 -57q28 -38 42.5 -46t70.5 -14q1 -1 7.5 -5.5t12.5 -8 t16.5 -7.5t24.5 -6.5t31 -2.5q70 0 193 57zM1198 547q-37 -21 -68 -49t-45.5 -46t-44 -60t-41.5 -58q41 -12 43 -12q23 0 103 51q28 18 50 34.5t36.5 32.5t24 27t16.5 26.5t9.5 22.5t7 23t5.5 20q-25 25 -37 25zM614 446q38 95 41 95q0 22 -20 22q-16 0 -64 -39 q-33 -21 -84 -76t-182 -208q-133 -191 -133 -226q0 -18 14 -18t37.5 20t66 61t75.5 68q6 10 16.5 21t48.5 47t80 78q0 16 39.5 76t64.5 79zM682 563q1 2 3 7.5t3 7.5q-1 0 -9 -2.5t-9 -2.5q2 -3 12 -10z" />
<glyph unicode="&#xe7;" horiz-adv-x="935" d="M881 293l-13 -13q-14 -13 -14 -18q1 -4 -1 -9t-4.5 -8.5t-2.5 -4.5q0 -11 2 -11q-14 -3 -23 -41q-6 -2 -18 -10q-4 -12 -8 -18q-4 -3 -9.5 -6.5t-13 -9t-12.5 -9.5q-3 -3 -13 -10.5t-14 -11.5q-3 -2 -10 -6l-21 -12t-26 -15q-7 -7 -25 -10q-71 -47 -96 -47q0 -10 6 -19 q-3 -6 0 -14q-2 -2 -2 -8q0 -7 2 -11v-8q0 -5 -3 -24.5t-3 -24.5v-31q2 -4 2 -20q0 -5 12 -29q15 -26 9 -35q4 -13 2 -24q3 -33 -35 -86q-8 -2 -32.5 -10.5t-37.5 -12.5q-4 0 -21.5 -4t-21.5 -4q-4 -1 -8 -1.5l-4 -0.5h-14q-4 -1 -15 -2t-16 -2q-29 6 -64 8q-1 1 -67 -8h-4 h-2q-2 1 -6.5 1t-12.5 -1h-18l-4 2q1 4 2.5 6.5t3 3.5t2.5 0q32 -11 74 -8h-7l-4 2l-2 6h-6l12 6q65 3 95 33q19 8 84 51l4 19q3 12 0 26t-21 25q0 25 -47 49h-8l-37 -2q-39 -2 -119 51q-3 8 -11.5 26.5t-12.5 28.5q-9 15 -6 56q3 51 2 55l-4 4q-15 16 -23 33q0 4 -13.5 19 t-13.5 18q0 8 -18 35q-16 32 -16 36q-5 10 -17 46q-2 8 -2 30q-2 2 -2 6q0 56 33 146q1 1 24.5 39.5t50 70.5t66.5 70q67 64 113 76q1 0 6.5 4t9.5 4q1 0 47 16q46 18 52 15q18 -3 53 -21q23 -12 41 -41q4 -2 12 -14q15 0 35 -4l16 -4v-6q-9 -9 -12 -9q0 3 -6 9l2 7v19 q4 3 24 23q0 12 -4 12t-10 -15l-6 -16q-18 -30 -23 -37q-10 -8 -36 -34q-38 -15 -50 -27q-18 -6 -22 -8q-17 -7 -41 -21q-35 -35 -64 -94q-31 -39 -45 -65q-2 -8 -34 -64q-29 -56 -29 -67l-1 -88q-1 3 -1 10q3 -60 71 -60q37 0 84 13q36 10 183 57q38 14 151 72q4 4 29 4 q5 0 31.5 9t31.5 9l2 -2l5 -8z" />
<glyph unicode="&#xe8;" horiz-adv-x="866" d="M817 608q0 -42 -26 -104q-23 -61 -56 -84q-19 -12 -82 -45q-154 -43 -194 -43q-155 0 -201 37q-78 -128 -78 -195q0 -14 29 -57q24 -34 43 -45q15 -9 70 -15q4 -2 45 -24q9 -6 47 -6q69 0 192 57q129 59 168 106q18 4 27 -2q-3 -25 -19 -69q-33 -37 -145 -139 q-39 -36 -127 -64q-89 -29 -145 -29q-43 0 -86 29q-108 76 -183 170q-38 47 -53 102q-33 109 -33 179q11 23 27 90q0 11 31 39q3 3 12 43q12 8 24 20q3 17 19 49q1 1 33 29l37 31q29 39 100 110l63 35q32 14 39 47h17q4 0 22 -15t23 -16q38 -6 75.5 -11.5t52 -8t15.5 -2.5 q55 -13 131 -70q86 -65 86 -129zM555 639q-25 25 -37 25l-59 -37q-62 -36 -90 -72q-19 -24 -109 -141q11 -3 22 -6.5t15.5 -5t5.5 -1.5q21 0 103 52q81 52 94 71q42 68 55 115zM791 887q-3 -15 -5 -17l-4 -4h-6l-6 -6h-4q-9 -6 -27 -6q-23 0 -55 14q-7 2 -49 21 q-57 26 -100 59q-76 57 -93 68q-36 30 -45 37q-20 25 -32 37q-4 4 -19 34q-14 22 -14 45l2 2q3 33 20 33q47 1 43 4q11 0 19 -2l12 -4q8 -4 14 -6q1 -1 3.5 -2t3.5 -2l10 -4q7 -3 10 -10l160 -140q9 -8 38.5 -34.5t45.5 -42.5q78 -72 78 -74z" />
<glyph unicode="&#xe9;" horiz-adv-x="866" d="M817 608q0 -42 -26 -104q-23 -61 -56 -84q-19 -12 -82 -45q-154 -43 -194 -43q-155 0 -201 37q-78 -128 -78 -195q0 -14 29 -57q24 -34 43 -45q15 -9 70 -15q4 -2 45 -24q9 -6 47 -6q69 0 192 57q129 59 168 106q18 4 27 -2q-3 -25 -19 -69q-33 -37 -145 -139 q-39 -36 -127 -64q-89 -29 -145 -29q-43 0 -86 29q-108 76 -183 170q-38 47 -53 102q-33 109 -33 179q11 23 27 90q0 11 31 39q3 3 12 43q12 8 24 20q3 17 19 49q1 1 33 29l37 31q29 39 100 110l63 35q32 14 39 47h17q4 0 22 -15t23 -16q38 -6 75.5 -11.5t52 -8t15.5 -2.5 q55 -13 131 -70q86 -65 86 -129zM555 639q-25 25 -37 25l-59 -37q-62 -36 -90 -72q-19 -24 -109 -141q11 -3 22 -6.5t15.5 -5t5.5 -1.5q21 0 103 52q81 52 94 71q42 68 55 115zM721 1210h8l10 -6l2 -8l-8 -2l-6 -16l2 -7l-10 -4l-17 -10v-6l7 -8l-9 -8l5 -17l-9 -6v-6l25 4 v-2l-29 -23l-6 -20l-14 -23l-13 -14l-24 -22l-23 -17l-82 -49l-73 -33l-15 -2h-34l-25 8h-16l-13 7v8l-8 8l-10 29l2 10l-4 12l4 8l12 13v4l62 55l28 20l84 62l62 37l59 14z" />
<glyph unicode="&#xea;" horiz-adv-x="866" d="M817 608q0 -42 -26 -104q-23 -61 -56 -84q-19 -12 -82 -45q-154 -43 -194 -43q-155 0 -201 37q-78 -128 -78 -195q0 -14 29 -57q24 -34 43 -45q15 -9 70 -15q4 -2 45 -24q9 -6 47 -6q69 0 192 57q129 59 168 106q18 4 27 -2q-3 -25 -19 -69q-33 -37 -145 -139 q-39 -36 -127 -64q-89 -29 -145 -29q-43 0 -86 29q-108 76 -183 170q-38 47 -53 102q-33 109 -33 179q11 23 27 90q0 11 31 39q3 3 12 43q12 8 24 20q3 17 19 49q1 1 33 29l37 31q29 39 100 110l63 35q32 14 39 47h17q4 0 22 -15t23 -16q38 -6 75.5 -11.5t52 -8t15.5 -2.5 q55 -13 131 -70q86 -65 86 -129zM555 639q-25 25 -37 25l-59 -37q-62 -36 -90 -72q-19 -24 -109 -141q11 -3 22 -6.5t15.5 -5t5.5 -1.5q21 0 103 52q81 52 94 71q42 68 55 115zM729 961q0 -11 -12 -41q-14 -7 -21 -7q-22 0 -32 7q-22 22 -89 127q-18 26 -45 67 q-13 16 -26 19q-4 -4 -17 -7q-10 -10 -67 -75q-5 -7 -19 -25q-3 -6 -79 -94q-27 -21 -33 -47q-31 -17 -41 -17q-22 3 -29 13q-17 9 -33 51q0 2 2 4q0 18 39 74l49 63q38 48 111 131q10 8 35 33q16 12 27 23q5 5 18 10q34 0 49 -15q3 -2 11.5 -6.5t13.5 -7.5q7 -5 23 -19 t24 -20q9 -15 24 -33l68 -135q17 -30 33 -49v-2q4 -6 16 -22z" />
<glyph unicode="&#xeb;" horiz-adv-x="866" d="M817 608q0 -42 -26 -104q-23 -61 -56 -84q-19 -12 -82 -45q-154 -43 -194 -43q-155 0 -201 37q-78 -128 -78 -195q0 -14 29 -57q24 -34 43 -45q15 -9 70 -15q4 -2 45 -24q9 -6 47 -6q69 0 192 57q129 59 168 106q18 4 27 -2q-3 -25 -19 -69q-33 -37 -145 -139 q-39 -36 -127 -64q-89 -29 -145 -29q-43 0 -86 29q-108 76 -183 170q-38 47 -53 102q-33 109 -33 179q11 23 27 90q0 11 31 39q3 3 12 43q12 8 24 20q3 17 19 49q1 1 33 29l37 31q29 39 100 110l63 35q32 14 39 47h17q4 0 22 -15t23 -16q38 -6 75.5 -11.5t52 -8t15.5 -2.5 q55 -13 131 -70q86 -65 86 -129zM555 639q-25 25 -37 25l-59 -37q-62 -36 -90 -72q-19 -24 -109 -141q11 -3 22 -6.5t15.5 -5t5.5 -1.5q21 0 103 52q81 52 94 71q42 68 55 115zM309 1153h4l17 -6l18 -8l17 2l-3 -15l21 -8l29 -26l12 -15l29 -67l2 -15v-24l-15 -25l-14 -16 l-2 -4l-31 -4l-35 -4l-36 14l-17 8l-4 4l-49 35l-23 20l-4 11v26l-4 23l4 26l17 33l37 29zM627 1149l45 -14l18 4l25 -31l28 -25l19 -49v-55l-27 -29l-10 -6l-20 -6l-54 8l-41 21l-43 39l-2 30l-8 13l23 69l20 15l21 6z" />
<glyph unicode="&#xec;" horiz-adv-x="481" d="M285 545l20 -6l10 6h7l26 -23l12 -6l25 -47l2 -33v-33l-29 -63l-47 -152l-10 -94l-2 -35l20 -6l58 4l78 19l-15 -25v-10l-20 -33l-12 -14l4 -10l-25 -17h-6l-6 -12l-27 -10l-6 -6l-59 -37l-23 -17l-43 -6l-8 -4l-8 6l-41 17l-49 36l-29 37l-14 33l-13 72v90l13 53l38 98 l60 103l53 69l37 43zM651 737q-3 -15 -4 -16l-4 -4h-6l-6 -6h-4q-9 -6 -27 -6q-23 0 -55 14q-16 5 -49 20q-56 25 -101 60q-72 54 -92 67q-36 30 -45 37q-16 20 -33 37q-1 1 -18 35q-14 22 -14 45l2 2q3 33 20 33q47 1 43 4q10 0 18 -2l13 -4q8 -4 14 -6q1 -1 3 -2.5t3 -2.5 l10 -4q8 -4 11 -10q15 -14 38 -33.5t58 -50.5t63 -55q3 -3 35.5 -32.5t48.5 -45.5q78 -72 78 -74z" />
<glyph unicode="&#xed;" horiz-adv-x="481" d="M285 545l20 -6l10 6h7l26 -23l12 -6l25 -47l2 -33v-33l-29 -63l-47 -152l-10 -94l-2 -35l20 -6l58 4l78 19l-15 -25v-10l-20 -33l-12 -14l4 -10l-25 -17h-6l-6 -12l-27 -10l-6 -6l-59 -37l-23 -17l-43 -6l-8 -4l-8 6l-41 17l-49 36l-29 37l-14 33l-13 72v90l13 53l38 98 l60 103l53 69l37 43zM647 1130h8l11 -6l2 -8l-9 -2l-6 -16l2 -6l-10 -5l-16 -10v-6l6 -8l-8 -8l4 -17l-8 -6v-6l24 4v-2l-29 -22l-6 -21l-14 -22l-12 -15l-25 -22l-22 -17l-82 -49l-74 -33l-14 -2h-35l-25 9h-16l-12 6v8l-9 8l-10 29l2 10l-4 12l4 8l12 13v4l62 55l29 21 l84 61l61 37l59 14z" />
<glyph unicode="&#xee;" horiz-adv-x="481" d="M285 545l20 -6l10 6h7l26 -23l12 -6l25 -47l2 -33v-33l-29 -63l-47 -152l-10 -94l-2 -35l20 -6l58 4l78 19l-15 -25v-10l-20 -33l-12 -14l4 -10l-25 -17h-6l-6 -12l-27 -10l-6 -6l-59 -37l-23 -17l-43 -6l-8 -4l-8 6l-41 17l-49 36l-29 37l-14 33l-13 72v90l13 53l38 98 l60 103l53 69l37 43zM686 834q0 -11 -12 -41q-14 -7 -21 -7q-21 0 -32 7q-22 22 -89 127q-18 26 -45 67q-13 16 -26 19q-4 -4 -17 -7q-10 -10 -67 -75q-5 -8 -19 -25q-3 -6 -79 -94q-27 -21 -33 -47q-31 -17 -41 -17q-22 3 -29 13q-17 9 -33 51q0 2 2 4q0 18 39 74 q4 6 14 18t18.5 23t16.5 22q38 48 111 131q10 8 35 33q16 12 27 23q5 5 18 10q34 0 49 -15q3 -2 11.5 -6.5t13.5 -7.5q7 -5 23 -19t24 -20q9 -15 24 -33l68 -135q17 -30 33 -49v-2q4 -6 16 -22z" />
<glyph unicode="&#xef;" horiz-adv-x="481" d="M285 545l20 -6l10 6h7l26 -23l12 -6l25 -47l2 -33v-33l-29 -63l-47 -152l-10 -94l-2 -35l20 -6l58 4l78 19l-15 -25v-10l-20 -33l-12 -14l4 -10l-25 -17h-6l-6 -12l-27 -10l-6 -6l-59 -37l-23 -17l-43 -6l-8 -4l-8 6l-41 17l-49 36l-29 37l-14 33l-13 72v90l13 53l38 98 l60 103l53 69l37 43zM260 1090h4l17 -7l18 -8l16 2l-2 -14l21 -8l28 -27l13 -14l28 -68l3 -14v-25l-15 -24l-14 -17l-2 -4l-31 -4l-35 -4l-37 14l-16 9l-4 4l-49 34l-23 21l-4 10v27l-4 22l4 27l17 33l36 28zM578 1085l45 -14l18 4l25 -31l28 -24l19 -49v-56l-27 -28l-10 -6 l-21 -7l-53 9l-41 20l-43 39l-2 31l-8 12l22 70l21 14l20 6z" />
<glyph unicode="&#xf0;" horiz-adv-x="935" d="M741 1106l-36 -35l-50 -35q1 -4 4 -11.5t5 -14.5t4 -13q21 -37 45 -114v-6q39 -107 57 -191q39 -174 41 -205l4 -6v-6l12 -47q7 -13 25 -70q1 -4 2 -9t2 -11.5t2 -9.5q0 -7 8 -23q1 -3 2.5 -10t4.5 -22.5t6 -30.5l4 -48q8 -19 8 -86q3 -66 0 -88q-12 -47 -35 -67l-14 -10 q-12 -7 -76 -35q-71 -33 -94 -35q-23 -10 -107 2q-44 10 -106 43q-37 5 -160 96q-109 74 -213 250q-44 111 -49 121l-4 67l8 37q9 56 51 123q27 33 62 68q50 47 71 51q1 0 17 4q25 9 41 12q10 0 12 -4q7 2 15 4t12.5 3t7.5 1l92 -18q34 -5 80 -27q2 2 10 2q19 -6 49 -22 q17 -7 41 -37q16 -7 41 -27q3 0 6 7q0 5 -6 65q-2 3 -4 12t-6 26t-8 32q-9 29 -13 55q-14 43 -37 174l-12 -6l-41 -25l-59 -30l-29 -19l-22 -6l-2 4h-19l-6 -4l-8 17l-4 4l8 22l4 10l29 21l51 31l94 61q0 2 -1 7t-1 7q-13 34 -29 95q-6 31 -20 67q-23 38 -16 62q8 13 24 10 q7 -6 47 -70l-2 -6q3 -3 6.5 -12t5 -16t2.5 -7l-1 -2q3 -10 26 -37q25 -55 25 -57l57 33l59 35l129 73l33 15l12 2l3 -2l-23 -19l2 -4l-8 -4l-21 -20v-9l-16 -14l-16 -18l-41 -31l-23 -19l-4 -6l-27 -10v-4zM680 336q-18 47 -43 98q-17 35 -37 62q-22 11 -61 36 q-12 4 -84 33q-24 8 -56 8h-39q-24 5 -46 0.5t-41.5 -16t-33 -24.5t-20 -24.5t-2.5 -16.5q2 26 13 -10q5 -16 10 -42q22 -114 49 -159q72 -104 102 -125q6 -4 20 -13.5t17 -11.5q15 -12 21 -18q126 -65 133 -68q32 -5 62 11t36 46q13 90 6 107q3 51 -6 127z" />
<glyph unicode="&#xf1;" horiz-adv-x="800" d="M674 147l4 -92l12 -45l45 -110l13 -21l-17 -4l-14 -12l-12 14l-21 2v-8l-6 -2l-21 6l-26 6l-74 86l-43 137l4 11l-10 26l6 107l-10 6l16 39l-2 6v10l6 6v60l8 41l3 28l6 39v19l-11 24l-18 17l-35 4l-45 -10l-12 -35l-12 -33l-17 -25l-18 -57l-13 -20l-10 -37l-31 -68 l-32 -78l-15 -30l-2 -17l-20 -45v-14l-10 -17l-23 -59l-6 -8l-14 -23l-19 -6v-10l-20 4h-39l-17 23l-6 6l-14 6l-16 20l-7 11l-14 4l-4 26l10 21l17 82l4 10l30 98l7 25l32 110l29 125l74 207l35 17l45 -2l2 -3l24 7l6 -4l27 -29l-2 -80l80 59l47 15l80 16l108 -41l25 -22 l4 -7l27 -34l8 -64l-4 -67l-6 -25l-15 -37l-20 -65l-15 -52l-10 -55l-8 -16l-4 -13l4 -8l4 -20v-23zM920 1049q-4 -9 -13 -23l2 -2q-8 -17 -39 -55q-3 -9 -12 -27l-4 -2v-6q-6 -15 -18 -33v-6q0 -4 2 -6q-9 -15 -21 -33q2 2 2 0q-2 0 -2 -4q-4 -3 -26 -21l-3 -2 q-14 -14 -22 -18q-30 -12 -82 -12q-71 6 -145 47q-3 3 -29 18q-5 5 -25 17q-3 0 -19 8t-17 8q0 -1 -2 -2l-6 -3t-8.5 -6t-8 -13t-4.5 -23q-12 -33 -45 -33q-11 0 -17 2h-8q-2 1 -6.5 2t-7.5 2h-8q-10 3 -21 21q-4 4 -12 26q1 1 2 3.5t2 3.5q-2 2 -2 8q0 14 8 45q30 68 51 86 q44 38 72 35q6 2 21 2q4 -1 20 -4t27 -5q3 -1 9 -4t9 -4q6 -4 25 -16.5t32 -20.5q27 -27 43 -45q4 -4 7 -10v-2q8 -20 18 -35l2 -2l12 -4h15q10 2 16.5 3.5t11 4t7.5 4.5t7 5.5t7 5.5q3 3 80 94q36 39 49 39q43 0 43 2q4 0 20 -4q1 -1 11 -6z" />
<glyph unicode="&#xf2;" horiz-adv-x="966" d="M936 475q0 -102 -45 -188q-7 -30 -14 -47q-48 -114 -172 -201q-65 -46 -234 -131q-4 -2 -57 -8q-59 -68 -164 -68q-53 0 -66 10l-75 64q-13 -3 -48 8q-24 22 -34 72q-9 58 -15 67q11 18 11 25q0 4 -6.5 13.5t-6.5 12.5q0 12 6.5 56t6.5 57q8 2 43 21q8 8 8 22 q0 3 -6 25.5t-5 25.5q41 35 76 92q16 31 49 86q31 48 160 177q139 139 168 139q4 0 17.5 -3t17.5 -3q16 0 55 57q1 0 43 -33l62 -14q33 -16 73 -31q16 0 68 -10q58 -83 72 -143q12 -47 12 -150zM707 502v22q-11 3 -23 15q6 9 6 22q0 21 -11.5 43.5t-27.5 22.5 q-28 0 -129 -88q-68 -60 -98 -90q-136 -156 -201 -240q-7 -7 -26 -62q-17 -59 -17 -65q0 -17 18 -36t35 -19q113 0 256 96q28 7 78 33q11 11 64 112q25 48 37 144q10 10 14 12q0 69 25 78zM874 965q-3 -16 -4 -17l-4 -4h-6l-6 -6h-4q-9 -6 -27 -6q-23 0 -55 14q-7 2 -49 21 q-59 27 -101 59q-85 63 -92 68q-18 15 -45 36q-20 25 -32 37q-3 3 -19 35q-14 22 -14 45l2 2q3 33 20 33q47 1 43 4q11 0 19 -2l12 -4q8 -4 14 -6q1 -1 3 -2t3 -2l11 -4q6 -3 10 -11q17 -15 70.5 -61t89.5 -78q3 -3 35.5 -32.5t48.5 -45.5q77 -71 77 -73z" />
<glyph unicode="&#xf3;" horiz-adv-x="966" d="M936 475q0 -102 -45 -188q-7 -30 -14 -47q-48 -114 -172 -201q-65 -46 -234 -131q-4 -2 -57 -8q-59 -68 -164 -68q-53 0 -66 10l-75 64q-13 -3 -48 8q-24 22 -34 72q-9 58 -15 67q11 18 11 25q0 4 -6.5 13.5t-6.5 12.5q0 12 6.5 56t6.5 57q8 2 43 21q8 8 8 22 q0 3 -6 25.5t-5 25.5q41 35 76 92q16 31 49 86q31 48 160 177q139 139 168 139q4 0 17.5 -3t17.5 -3q16 0 55 57q1 0 43 -33l62 -14q33 -16 73 -31q16 0 68 -10q58 -83 72 -143q12 -47 12 -150zM707 502v22q-11 3 -23 15q6 9 6 22q0 21 -11.5 43.5t-27.5 22.5 q-28 0 -129 -88q-68 -60 -98 -90q-136 -156 -201 -240q-7 -7 -26 -62q-17 -59 -17 -65q0 -17 18 -36t35 -19q113 0 256 96q28 7 78 33q11 11 64 112q25 48 37 144q10 10 14 12q0 69 25 78zM868 1204h9l10 -6l2 -8l-8 -2l-7 -17l3 -6l-11 -4l-16 -10v-6l6 -8l-8 -9l4 -16 l-8 -6v-6l24 4v-2l-28 -23l-6 -20l-15 -23l-12 -14l-25 -23l-22 -16l-82 -49l-74 -33l-14 -2h-35l-25 8h-16l-12 6v9l-8 8l-11 28l2 11l-4 12l4 8l13 12v5l61 55l29 20l84 62l61 37l60 14z" />
<glyph unicode="&#xf4;" horiz-adv-x="966" d="M936 475q0 -102 -45 -188q-7 -30 -14 -47q-48 -114 -172 -201q-65 -46 -234 -131q-4 -2 -57 -8q-59 -68 -164 -68q-53 0 -66 10l-75 64q-13 -3 -48 8q-24 22 -34 72q-9 58 -15 67q11 18 11 25q0 4 -6.5 13.5t-6.5 12.5q0 12 6.5 56t6.5 57q8 2 43 21q8 8 8 22 q0 3 -6 25.5t-5 25.5q41 35 76 92q16 31 49 86q31 48 160 177q139 139 168 139q4 0 17.5 -3t17.5 -3q16 0 55 57q1 0 43 -33l62 -14q33 -16 73 -31q16 0 68 -10q58 -83 72 -143q12 -47 12 -150zM707 502v22q-11 3 -23 15q6 9 6 22q0 21 -11.5 43.5t-27.5 22.5 q-28 0 -129 -88q-68 -60 -98 -90q-136 -156 -201 -240q-7 -7 -26 -62q-17 -59 -17 -65q0 -17 18 -36t35 -19q113 0 256 96q28 7 78 33q11 11 64 112q25 48 37 144q10 10 14 12q0 69 25 78zM928 952q0 -8 -13 -41q-12 -6 -20 -6q-24 0 -33 6q-19 19 -88 127q-12 16 -45 68 q-12 15 -27 18q-3 -3 -16 -6q-11 -11 -68 -76q-6 -9 -18 -24q-2 -3 -80 -94q-27 -21 -33 -47q-31 -17 -41 -17q-22 3 -28 12q-17 8 -33 52q0 2 2 4q0 17 39 73q39 51 49 64q38 48 111 131q10 8 35 33q16 12 26 22q6 6 19 11q34 0 49 -15q3 -2 11.5 -6.5t12.5 -7.5 q7 -5 23 -19t24 -20q6 -11 25 -33l68 -135q18 -33 32 -49v-2q2 -3 17 -23z" />
<glyph unicode="&#xf5;" horiz-adv-x="966" d="M979 1231h16l-12 -35l4 -2v-2l-10 -12l-21 -35l-2 -17l-4 -12l-4 -4v-4l4 -2l-18 -41l2 -8v-2l10 -6l-6 -21l-6 -22l12 6v-6l-8 -7v-4l-14 -20l-2 -2l-5 -21l-8 -14l-12 -8l-8 -6l-17 -11l-45 -20l-57 -8l-61 2l-50 18l-32 19l-25 24l-16 29l-21 45l-6 18l-18 -10 l-29 -39l-14 -22l-2 -6l-15 -9l-2 -6l-18 -4l-10 -8h-19l-8 -6h-19l-8 6l-2 6l-10 10l-14 17l6 6l-6 8v8l-2 15l6 30l28 62l25 41l41 32l35 25l22 10l19 -2l37 2l22 -4l66 -39l41 -57l4 -14l-2 -5v-51l2 -2l12 -8h14l35 6l17 15l32 38l49 62l43 49l39 25zM936 475 q0 -102 -45 -188q-7 -30 -14 -47q-48 -114 -172 -201q-65 -46 -234 -131q-4 -2 -57 -8q-59 -68 -164 -68q-53 0 -66 10l-75 64q-13 -3 -48 8q-24 22 -34 72q-9 58 -15 67q11 18 11 25q0 4 -6.5 13.5t-6.5 12.5q0 12 6.5 56t6.5 57q8 2 43 21q8 8 8 22q0 3 -6 25.5t-5 25.5 q41 35 76 92q16 31 49 86q31 48 160 177q139 139 168 139q4 0 17.5 -3t17.5 -3q16 0 55 57q1 0 43 -33l62 -14q33 -16 73 -31q16 0 68 -10q58 -83 72 -143q12 -47 12 -150zM707 502v22q-11 3 -23 15q6 9 6 22q0 21 -11.5 43.5t-27.5 22.5q-28 0 -129 -88q-68 -60 -98 -90 q-136 -156 -201 -240q-7 -7 -26 -62q-17 -59 -17 -65q0 -17 18 -36t35 -19q113 0 256 96q28 7 78 33q11 11 64 112q25 48 37 144q10 10 14 12q0 69 25 78z" />
<glyph unicode="&#xf6;" horiz-adv-x="966" d="M936 475q0 -102 -45 -188q-7 -30 -14 -47q-48 -114 -172 -201q-65 -46 -234 -131q-4 -2 -57 -8q-59 -68 -164 -68q-53 0 -66 10l-75 64q-13 -3 -48 8q-24 22 -34 72q-9 58 -15 67q11 18 11 25q0 4 -6.5 13.5t-6.5 12.5q0 12 6.5 56t6.5 57q8 2 43 21q8 8 8 22 q0 3 -6 25.5t-5 25.5q41 35 76 92q16 31 49 86q31 48 160 177q139 139 168 139q4 0 17.5 -3t17.5 -3q16 0 55 57q1 0 43 -33l62 -14q33 -16 73 -31q16 0 68 -10q58 -83 72 -143q12 -47 12 -150zM707 502v22q-11 3 -23 15q6 9 6 22q0 21 -11.5 43.5t-27.5 22.5 q-28 0 -129 -88q-68 -60 -98 -90q-136 -156 -201 -240q-7 -7 -26 -62q-17 -59 -17 -65q0 -17 18 -36t35 -19q113 0 256 96q28 7 78 33q11 11 64 112q25 48 37 144q10 10 14 12q0 69 25 78zM502 1161h4l16 -6l19 -8l16 2l-2 -14l20 -9l29 -26l12 -15l29 -67l2 -14v-25 l-14 -25l-15 -16l-2 -4l-30 -4l-35 -4l-37 14l-16 8l-4 4l-50 35l-22 21l-4 10v26l-4 23l4 27l16 32l37 29zM819 1157l45 -14l19 4l24 -31l29 -24l18 -50v-55l-26 -29l-10 -6l-21 -6l-53 8l-41 21l-43 39l-2 30l-8 13l22 69l21 15l20 6z" />
<glyph unicode="&#xf7;" horiz-adv-x="0" />
<glyph unicode="&#xf8;" horiz-adv-x="1120" d="M967 1204q23 -7 32 -33q1 -3 3 -8.5t5 -14t5 -15.5v-23q3 -18 -17 -72q-2 -12 -45 -67v-10q-3 -15 4 -39q-2 -12 -2 -39q11 -19 23 -19q7 -12 29 -43q7 -17 24 -47l16 -16q1 -2 6 -21.5t9 -31.5q1 0 6 -5q1 -6 3.5 -18t5 -23t5.5 -22q2 -2 2 -6q1 -8 6.5 -33t8.5 -41 q1 -6 5 -24t7 -37q0 -15 -2 -21q3 -6 0 -31q0 -7 -0.5 -14t-1 -10t-0.5 -5.5t-1 -5.5l-1.5 -4.5t-3.5 -7.5q-1 -3 -2 -6.5t-1.5 -5t-0.5 -2.5l-7 -35q-7 -16 -18 -53q-6 -18 -14 -41q-11 -8 -21 -39q-8 -7 -18 -25v-8q-1 -1 -2 -4t-2 -4q-3 -2 -8.5 -6t-8.5 -6 q-32 -41 -63 -68q-22 -14 -41 -31q-22 -19 -76 -47q-76 -67 -162 -67q-27 0 -39 2l-18 -8l-21 -2l-14 -7l-12 -2h-10l-13 -6l-41 4l-34 9l-23 8l-25 -49l-14 -19q-2 -7 -9.5 -28l-12.5 -35q-7 -14 -13 -29l-4 -4q-4 -20 -12 -28.5t-19 -6.5q-13 4 -19.5 10.5t-8 11.5 t-2.5 17q3 18 6 45q6 44 6 94q-3 7 18 66q-6 2 -18 10q-15 9 -84 64q-6 8 -20 25t-19 24q-18 31 -31 51q-3 10 -12 32.5t-14 34.5q-5 31 -8 41q0 1 -3 33.5t-4 52.5q3 21 3 52q-2 4 4 39q8 31 8 38t16 50q4 11 8.5 23.5t6.5 18t2 7.5q16 31 20 43q4 22 41 80q38 61 43 75 q39 56 70 99q2 3 11 14.5t15 18.5q15 10 19 14q3 6 18 24q10 6 35 31q4 1 9.5 5t15 12t18.5 14q14 8 41 22q59 20 68 23q12 4 28 6q1 1 2.5 1.5t4.5 1t5 1.5h25q7 1 13 1.5t7 0.5h1q1 -1 24 -14q7 -7 23 -19q3 -1 10.5 -6t15.5 -8q9 -12 15 -12l2 -2q37 28 104 67q1 3 16 35 t23 53q2 5 23.5 20t27.5 15h19zM942 512q0 127 -39 180q-20 39 -55 82q-3 6 -14 17q-11 -32 -68 -138q-62 -115 -64 -123q-41 -59 -86 -145q-12 -37 -14 -41q-2 -3 -6.5 -11.5t-7.5 -13.5q-43 -96 -51 -116q-3 -9 -35 -92q-2 -12 -13 -37l41 -2l9 2l16 4q23 0 63 4 q37 5 95 37q17 7 43 26q49 30 86 76q1 1 5.5 10t14 26t19.5 36q20 47 26 65q1 4 2.5 9.5t4.5 12.5t4 11q3 5 8.5 15t7.5 14q0 8 -2 14q10 52 10 78zM723 889q-2 2 -6 5t-6.5 5.5t-3.5 5.5q-22 -16 -54 -16h-63q-10 0 -78 -45q-10 -14 -53 -68q-26 -30 -70 -102 q-1 -2 -3.5 -6t-5 -7.5t-5.5 -7.5q-5 -15 -19 -43q-8 -16 -14 -26q-3 -9 -11.5 -28.5t-11.5 -27.5l-4 -8q-30 -59 -55 -137q-2 -22 -3 -34t-1.5 -22t-1 -13t-0.5 -1q0 -112 45 -157q38 -35 68 -45q25 57 30 71q37 88 84 211q50 98 109 228q65 121 133 268z" />
<glyph unicode="&#xf9;" horiz-adv-x="688" d="M803 176q0 -18 -64 -88q-4 -2 -20 -2q-36 0 -109 20q-18 4 -41 37q-25 40 -30 47q-11 4 -21 -12q-99 -184 -158 -237q-17 -11 -71 -29q-67 -25 -72 -25q-25 0 -98 25q-24 46 -86 102q-49 43 -49 70q0 57 6 156q3 46 28 114q18 15 50 58q1 4 10 34.5t16 53.5q7 4 41 67 q3 17 6 35q14 14 37 47q-3 30 39 99q3 7 8 21.5t8 21.5q17 38 37 38q19 0 36.5 -31.5t17.5 -58.5q0 -5 -9.5 -32.5t-9.5 -32.5q0 -2 -0.5 -10t-1.5 -23t-2 -31q11 -19 14 -49q-23 -47 -61 -151q-10 -5 -16 -9q8 -19 -2 -49q-4 -12 -12 -28.5t-19.5 -41.5t-20.5 -44 q-32 -68 -32 -136q0 -4 24 -15.5t25 -14.5h12q16 16 61 39q46 27 62 49q32 43 57 104l146 342q4 0 17 3t17 3q10 0 41 -28q37 -29 52 -29q12 0 16 4q6 -6 16.5 -37.5t10.5 -42.5q0 -13 -19 -121l-20 -116q0 -33 32 -33q-2 0 1.5 1.5t16.5 6.5t28.5 10t44.5 15q10 -42 10 -66 zM707 803q-3 -15 -5 -17l-4 -4h-6l-6 -6h-4q-9 -6 -27 -6q-23 0 -55 14q-7 2 -49 21q-57 26 -100 59q-76 57 -93 68q-36 30 -45 37q-20 25 -32 37q-4 4 -19 34q-14 22 -14 45l2 2q3 33 20 33q47 1 43 4q11 0 19 -2l12 -4q8 -4 14 -6q1 -1 3.5 -2t3.5 -2l10 -4q7 -3 10 -10 q16 -14 38.5 -33.5t59 -51.5t62.5 -55q9 -8 38.5 -34.5t45.5 -42.5q78 -72 78 -74z" />
<glyph unicode="&#xfa;" horiz-adv-x="688" d="M803 176q0 -18 -64 -88q-4 -2 -20 -2q-36 0 -109 20q-18 4 -41 37q-25 40 -30 47q-11 4 -21 -12q-99 -184 -158 -237q-17 -11 -71 -29q-67 -25 -72 -25q-25 0 -98 25q-24 46 -86 102q-49 43 -49 70q0 57 6 156q3 46 28 114q18 15 50 58q1 4 10 34.5t16 53.5q7 4 41 67 q3 17 6 35q14 14 37 47q-3 30 39 99q3 7 8 21.5t8 21.5q17 38 37 38q19 0 36.5 -31.5t17.5 -58.5q0 -5 -9.5 -32.5t-9.5 -32.5q0 -2 -0.5 -10t-1.5 -23t-2 -31q11 -19 14 -49q-23 -47 -61 -151q-10 -5 -16 -9q8 -19 -2 -49q-4 -12 -12 -28.5t-19.5 -41.5t-20.5 -44 q-32 -68 -32 -136q0 -4 24 -15.5t25 -14.5h12q16 16 61 39q46 27 62 49q32 43 57 104l146 342q4 0 17 3t17 3q10 0 41 -28q37 -29 52 -29q12 0 16 4q6 -6 16.5 -37.5t10.5 -42.5q0 -13 -19 -121l-20 -116q0 -33 32 -33q-2 0 1.5 1.5t16.5 6.5t28.5 10t44.5 15q10 -42 10 -66 zM766 1255h8l10 -6l2 -8l-8 -2l-6 -16l2 -6l-10 -5l-16 -10v-6l6 -8l-9 -8l5 -17l-9 -6v-6l25 4v-2l-29 -23l-6 -20l-14 -23l-12 -14l-25 -22l-23 -17l-82 -49l-73 -33l-15 -2h-34l-25 8h-16l-13 7v8l-8 8l-10 29l2 10l-4 12l4 8l12 13v4l62 55l28 21l84 61l62 37l59 14z " />
<glyph unicode="&#xfb;" horiz-adv-x="688" d="M803 176q0 -18 -64 -88q-4 -2 -20 -2q-36 0 -109 20q-18 4 -41 37q-25 40 -30 47q-11 4 -21 -12q-99 -184 -158 -237q-17 -11 -71 -29q-67 -25 -72 -25q-25 0 -98 25q-24 46 -86 102q-49 43 -49 70q0 57 6 156q3 46 28 114q18 15 50 58q1 4 10 34.5t16 53.5q7 4 41 67 q3 17 6 35q14 14 37 47q-3 30 39 99q3 7 8 21.5t8 21.5q17 38 37 38q19 0 36.5 -31.5t17.5 -58.5q0 -5 -9.5 -32.5t-9.5 -32.5q0 -2 -0.5 -10t-1.5 -23t-2 -31q11 -19 14 -49q-23 -47 -61 -151q-10 -5 -16 -9q8 -19 -2 -49q-4 -12 -12 -28.5t-19.5 -41.5t-20.5 -44 q-32 -68 -32 -136q0 -4 24 -15.5t25 -14.5h12q16 16 61 39q46 27 62 49q32 43 57 104l146 342q4 0 17 3t17 3q10 0 41 -28q37 -29 52 -29q12 0 16 4q6 -6 16.5 -37.5t10.5 -42.5q0 -13 -19 -121l-20 -116q0 -33 32 -33q-2 0 1.5 1.5t16.5 6.5t28.5 10t44.5 15q10 -42 10 -66 zM725 956q0 -11 -12 -41q-12 -6 -21 -6q-24 0 -33 6q-19 19 -88 127q-12 16 -45 68q-12 15 -26 18q-2 -2 -17 -6q-10 -10 -67 -75q-5 -8 -19 -25q-2 -3 -80 -94q-26 -20 -32 -47q-31 -17 -41 -17q-22 3 -29 13q-17 9 -33 51q0 2 2 4q0 18 39 74q4 6 14 18t18.5 23t16.5 22 q38 48 111 131q10 8 35 33q16 12 26 22q6 6 19 11q34 0 49 -15q3 -2 11.5 -6.5t13.5 -7.5q7 -5 23 -19t24 -20q9 -15 24 -33l68 -135q17 -30 33 -49v-2q10 -15 16 -23z" />
<glyph unicode="&#xfc;" horiz-adv-x="688" d="M803 176q0 -18 -64 -88q-4 -2 -20 -2q-36 0 -109 20q-18 4 -41 37q-25 40 -30 47q-11 4 -21 -12q-99 -184 -158 -237q-17 -11 -71 -29q-67 -25 -72 -25q-25 0 -98 25q-24 46 -86 102q-49 43 -49 70q0 57 6 156q3 46 28 114q18 15 50 58q1 4 10 34.5t16 53.5q7 4 41 67 q3 17 6 35q14 14 37 47q-3 30 39 99q3 7 8 21.5t8 21.5q17 38 37 38q19 0 36.5 -31.5t17.5 -58.5q0 -5 -9.5 -32.5t-9.5 -32.5q0 -2 -0.5 -10t-1.5 -23t-2 -31q11 -19 14 -49q-23 -47 -61 -151q-10 -5 -16 -9q8 -19 -2 -49q-4 -12 -12 -28.5t-19.5 -41.5t-20.5 -44 q-32 -68 -32 -136q0 -4 24 -15.5t25 -14.5h12q16 16 61 39q46 27 62 49q32 43 57 104l146 342q4 0 17 3t17 3q10 0 41 -28q37 -29 52 -29q12 0 16 4q6 -6 16.5 -37.5t10.5 -42.5q0 -13 -19 -121l-20 -116q0 -33 32 -33q-2 0 1.5 1.5t16.5 6.5t28.5 10t44.5 15q10 -42 10 -66 zM317 1210h5l16 -6l18 -8l17 2l-2 -14l20 -8l29 -27l12 -14l29 -68l2 -14v-25l-14 -24l-15 -17l-2 -4l-31 -4l-34 -4l-37 14l-17 8l-4 4l-49 35l-22 21l-5 10v27l-4 22l4 27l17 33l37 28zM635 1206l45 -14l18 4l25 -31l29 -24l18 -49v-56l-27 -28l-10 -7l-20 -6l-54 9 l-41 20l-43 39l-2 31l-8 12l23 70l20 14l21 6z" />
<glyph unicode="&#xfd;" horiz-adv-x="980" d="M868 1204h9l10 -6l2 -8l-8 -2l-7 -17l3 -6l-11 -4l-16 -10v-6l6 -8l-8 -9l4 -16l-8 -6v-6l24 4v-2l-28 -23l-6 -20l-15 -23l-12 -14l-25 -23l-22 -16l-82 -49l-74 -33l-14 -2h-35l-25 8h-16l-12 6v9l-8 8l-11 28l2 11l-4 12l4 8l13 12v5l61 55l29 20l84 62l61 37l60 14z M901 651q0 -3 -8 -20t-8 -25q0 -11 -21 -143q-5 -52 -16 -107q-16 -71 -70 -243q-11 -26 -49 -103q-6 -29 -27 -94q-6 -6 -20 -37q3 -23 -6 -69q-21 -36 -49 -95q-1 -3 -4 -15.5t-5 -21.5q-24 -32 -28 -38q2 -4 2 -23q-30 -69 -53 -127l-4 -4q-1 0 -6.5 10t-6.5 10 q-10 0 -22 -12q-5 -6 -19 -20q6 -15 6 -23q0 -3 -10.5 -10.5t-11.5 -15.5q6 -9 6 -19q0 -14 -35 -20q-33 -9 -33 -23q0 -8 23 -18q0 -5 -23 -35q-3 -12 -12 -39q-5 -4 -16.5 -16.5t-18.5 -20.5q7 -11 13 -37q-18 -24 -27 -84q-4 -2 -76 -2q-29 0 -63 43q-15 15 -15 55 q0 7 7 17l6 14q6 48 24 150q49 107 76 174q3 10 10 10q3 0 12.5 -4t12.5 -4q11 0 14 39q14 17 47 108q23 38 43 99q29 82 39 102l45 147q13 5 51 25v12q-5 2 -28 21q7 7 20 33q6 21 6 47q0 11 -6 20h-14q-52 -52 -125 -110q-138 -105 -178 -105q-7 0 -49 -10 q-111 95 -183 217q-10 17 -10 53q0 3 6 9.5t6 9.5q13 62 7 112q7 3 36 29q-4 18 -2 35q14 24 99 147q28 28 82 92q3 5 39 21q35 14 51 14q26 0 50 -29t24 -59q0 -20 -19 -39q-8 -9 -15.5 -17.5t-11 -12.5t-4.5 -5q-22 -22 -43 -55q0 -17 -2 -29q-40 -75 -98 -233 q-1 -5 -12 -26.5t-11 -34.5q0 -35 21 -35q17 0 94 45q83 49 98 61q5 4 13 11t20.5 18t20.5 18l4 11q3 9 8 14q21 21 49 43l21 20q10 10 22 7q5 24 43 71q37 45 51 68q16 22 31 78q15 50 33 71q15 15 76 15l24 -4q4 -2 14.5 -6.5t29.5 -13.5t38 -17v-17z" />
<glyph unicode="&#xfe;" horiz-adv-x="802" d="M702 475v-22l-12 -27v-8l-10 -17l-2 -18l-23 -51l-28 -37l-49 -39l-37 -16l-52 -9h-51l-55 13l-64 39l-36 24l-27 31l-16 -72l-9 -57l-8 -19l-12 -67l-16 -14l-7 -29l-24 -150l-10 -41l-9 -61l-8 -27l-6 -2l-20 -39l-17 -2l-20 6l-15 33l-2 62l-8 125l10 184l17 160 l41 213l57 227l78 266l67 180l74 166l37 70l39 39l25 22l26 7l41 -23l6 -22l4 -25l7 -27l-19 -69l-33 -111l-10 -35l10 -10h33l29 -18l2 4l8 -6l2 -19l14 -29v-8l7 -2l16 -67l12 -27l35 -168l-2 -6l6 -14l21 -170l-4 -19l6 -18v-109zM500 498l2 43l2 65l-4 60l-4 4l-2 55v6 l-5 17l3 51l-17 112l-6 23l-2 70l-6 38l-37 -98l-139 -487v-43l-6 -6l34 -25l39 -21l29 -10h35l30 17l15 20l20 43z" />
<glyph unicode="&#xff;" horiz-adv-x="802" d="M901 651q0 -3 -8 -20t-8 -25q0 -11 -21 -143q-5 -52 -16 -107q-16 -71 -70 -243q-11 -26 -49 -103q-6 -29 -27 -94q-6 -6 -20 -37q3 -23 -6 -69q-21 -36 -49 -95q-1 -3 -4 -15.5t-5 -21.5q-24 -32 -28 -38q2 -4 2 -23q-30 -69 -53 -127l-4 -4q-1 0 -6.5 10t-6.5 10 q-10 0 -22 -12q-5 -6 -19 -20q6 -15 6 -23q0 -3 -10.5 -10.5t-11.5 -15.5q6 -9 6 -19q0 -14 -35 -20q-33 -9 -33 -23q0 -8 23 -18q0 -5 -23 -35q-3 -12 -12 -39q-5 -4 -16.5 -16.5t-18.5 -20.5q7 -11 13 -37q-18 -24 -27 -84q-4 -2 -76 -2q-29 0 -63 43q-15 15 -15 55 q0 7 7 17l6 14q6 48 24 150q49 107 76 174q3 10 10 10q3 0 12.5 -4t12.5 -4q11 0 14 39q14 17 47 108q23 38 43 99q29 82 39 102l45 147q13 5 51 25v12q-5 2 -28 21q7 7 20 33q6 21 6 47q0 11 -6 20h-14q-52 -52 -125 -110q-138 -105 -178 -105q-7 0 -49 -10 q-111 95 -183 217q-10 17 -10 53q0 3 6 9.5t6 9.5q13 62 7 112q7 3 36 29q-4 18 -2 35q14 24 99 147q28 28 82 92q3 5 39 21q35 14 51 14q26 0 50 -29t24 -59q0 -20 -19 -39q-8 -9 -15.5 -17.5t-11 -12.5t-4.5 -5q-22 -22 -43 -55q0 -17 -2 -29q-40 -75 -98 -233 q-1 -5 -12 -26.5t-11 -34.5q0 -35 21 -35q17 0 94 45q83 49 98 61q5 4 13 11t20.5 18t20.5 18l4 11q3 9 8 14q21 21 49 43l21 20q10 10 22 7q5 24 43 71q37 45 51 68q16 22 31 78q15 50 33 71q15 15 76 15l24 -4q4 -2 14.5 -6.5t29.5 -13.5t38 -17v-17zM350 1100h4l17 -6 l18 -9l17 2l-3 -14l21 -8l29 -27l12 -14l29 -68l2 -14v-24l-15 -25l-14 -16l-2 -5l-31 -4l-35 -4l-37 15l-16 8l-4 4l-49 35l-23 20l-4 10v27l-4 23l4 26l17 33l36 29zM668 1096l45 -15l18 4l25 -30l28 -25l19 -49v-55l-27 -29l-10 -6l-21 -6l-53 8l-41 20l-43 39l-2 31 l-8 12l23 70l20 14l21 6z" />
<glyph unicode="&#x152;" horiz-adv-x="1662" d="M82 301v2v-2zM1559 563h2h-2zM1683 1049q9 2 57 0.5t113 -14t82 -29.5v-13q-23 -23 -108 -30q-5 -2 -25.5 -3t-34.5 -8q-2 2 -8 2l-20 -12q-6 -6 -9 -7.5t-10 -2.5t-12 -2q-6 0 -10 2l-39 -12l-29 -9l-18 -4q-2 2 -8 2q-4 -4 -15 -5t-28 -1.5t-23 -1.5h-8q-4 0 -14 -4 t-11 -4q-33 -7 -50 -2q-8 3 -19 -4t-60 -43q-33 -25 -55 -41l-5 -3q-5 -4 -12 -9t-15.5 -11.5t-18 -16t-17.5 -18.5q-2 -6 -20.5 -40t-33.5 -73.5t-15 -70.5q0 -6 4 -10l65 4q13 1 41 2t43 2q7 0 21 -1t22 -1q7 0 23 1t24 1q18 -4 70 -4l8 -4l56 12q24 0 32 -8v-4 q2 -2 2 -39l-22 -14l-17 -6l-6 -7l-28 -6q-5 -5 -29 -14l-29 -12q-11 -11 -153 -35q-21 -24 -59 -60.5t-58 -50.5q-10 -22 -29 -45q-1 0 -21 -2.5t-32 -8.5t-12 -18q0 -71 24 -100.5t80 -32.5l2 -24l11 -8h43l63 8l80 14l37 10l76 19l2 -6q2 -2 2 -7q-2 -6 -2 -12l2 -2v-4 q0 -6 2 -10q-10 -10 -11 -12l-2 4q0 -9 2 -13q-4 0 -4 -4.5t-3 -14.5t-13 -20v-4q0 -1 -2 -8.5t-7 -15.5t-16 -21v-8q-63 -31 -92 -39t-102 -14h-27q-2 -2 -6 -2q-9 0 -39 6q-16 3 -31.5 3.5t-22.5 2t-26 10.5t-55 31l-10 12q-3 3 -13.5 14t-14 15t-12.5 16.5t-14.5 24.5 t-13.5 32t-16 46q-2 -2 -5 -6.5t-5 -6.5v-8l-11 -11l-10 -10t-10 -9.5t-15 -12.5t-20 -15t-29 -22t-39 -28q-13 -4 -26 -13t-26.5 -17.5t-59.5 -23t-119 -30.5h-18q-3 0 -13.5 -3t-13.5 -3q-159 0 -303 100q-25 18 -36 27t-32.5 35t-46.5 67q-34 90 -51 172h2q-2 7 -0.5 15 t5 44.5t3.5 73.5l19 74q0 1 20.5 53t52.5 107q1 1 15 24.5t21.5 36t26 40t34 47.5t38.5 47t46 50l16 21q8 4 22 18q48 45 105 45l22 15q8 0 13.5 2t12.5 6t33 13t66 20l4 4h19q1 1 4.5 2t5.5 2q9 0 33 -6h20q54 -38 62 -45q5 -2 16.5 -17t31 -37t42.5 -38q23 -29 35 -35 l30 -31q3 -5 27 -41l14 -14q7 -18 15 -31v-8q1 -1 22 -39q9 27 11 41l-7 12q-10 20 -20 62q6 4 16 14v6l11 10q-3 3 -3 8q4 16 35 58h4l15 14q1 1 24 21t31 32q-6 3 -6 31q21 14 37.5 20.5t23.5 7.5t19 0t14 -1q3 -1 9.5 -2t9.5 -2h6l20 -2q8 0 47 3t70 3h72q6 -1 18.5 -2 t19.5 -2h140q10 -2 30 -2zM903 399q15 49 15 86q0 92 -23 157t-86 128l-49 49q-27 17 -72 43q-22 -16 -51 -16h-62q-5 0 -12.5 -4.5t-18.5 -14t-20 -18t-24.5 -23.5t-24.5 -24q-5 -3 -10 -6.5t-10.5 -10t-10.5 -12t-12 -16.5t-12.5 -19.5t-15 -24.5t-16.5 -27.5t-20 -33 t-22 -37.5q-3 -8 -27.5 -57t-43.5 -106.5t-19 -110.5q0 -10 -1.5 -27.5t-1 -25.5t5 -24t16.5 -36t32 -49q57 -71 217 -71l23 3q57 5 67 7q13 2 34 8.5t63 30.5t77 59l50 74q18 18 65 137v12z" />
<glyph unicode="&#x153;" horiz-adv-x="1605" d="M1307 57q40 19 83 46.5t67.5 45t29.5 17.5q6 0 14 -4q-3 -31 -18 -70l-9 -10q-8 -11 -20 -23.5t-30 -30.5t-40 -36.5t-48 -37.5t-57.5 -35.5t-64.5 -29.5t-71.5 -20.5t-77.5 -7.5q-60 0 -134.5 62t-133.5 136q-15 19 -23 37q-80 -70 -309 -186q-2 -2 -57 -8 q-56 -68 -164 -68q-53 0 -66 10l-74 64h-6q-38 0 -57.5 32.5t-26 72t-8.5 42.5q12 20 12 25q0 4 -6 13.5t-6 12.5q0 12 6 56t6 57q8 2 18 6t22 14.5t12 22.5q0 4 -6.5 26t-6.5 25q20 16 34 32.5t22 29t29.5 49t41.5 68.5q25 40 166 177.5t162 137.5q4 0 16.5 -3t16.5 -3 q16 0 55 57q9 -2 43 -33l64 -14q38 -19 73 -31q97 0 131 -116q40 46 82 88l64 34q32 14 39 48h16q4 0 22 -15t23 -16q40 -6 76 -12l51 -8.5t16 -2.5q72 -18 145 -81t73 -117q0 -59 -24 -107t-62.5 -76.5t-80.5 -48.5t-85.5 -29t-68.5 -12.5t-38 -3.5q-155 0 -201 37 q-77 -127 -77 -195q0 -15 28 -57q27 -38 42 -45.5t71 -13.5q1 -1 7.5 -5.5t13 -8t16.5 -8t24 -7t31 -2.5q70 0 193 57zM1159 600q-37 -21 -67.5 -48.5t-45.5 -46.5t-43.5 -60t-41.5 -58q40 -12 43 -12q22 0 102 51q28 18 50 34.5t36.5 32.5t24 27t16.5 26.5t9.5 22.5t7 23 t5.5 20q-25 25 -36 25zM700 504v22q-8 2 -20 15q6 18 6 22q0 21 -12.5 43.5t-28.5 22.5q-25 0 -129 -88q-46 -40 -83.5 -77t-70.5 -75t-51 -59.5t-50 -63.5t-42 -55q-6 -6 -24.5 -61t-18.5 -66q0 -17 18 -36t33 -19q115 0 258 96q22 6 78 33q15 19 64 112q3 5 12 43.5 t19.5 73.5t19.5 39q0 69 22 78z" />
<glyph unicode="&#x178;" horiz-adv-x="839" d="M494 1718h4l14 -6l18 -8l17 2l-4 -14l20 -9l25 -26l10 -15l20 -67v-14l-2 -25l-18 -25l-16 -16l-2 -4l-31 -4l-35 -4l-35 14l-16 8l-4 4l-45 35l-19 21l-4 10l4 27l-2 22l8 27l21 32l39 29zM811 1714l43 -14l18 4l21 -31l27 -24l12 -50l-8 -55l-29 -28l-12 -7l-21 -6 l-53 8l-37 21l-39 39l2 31l-6 12l31 69l22 15l21 6zM987 1290l19 15l28 14l2 -19l-28 -49l-13 -28l-41 -62l-14 -28l-293 -435l-10 -24l-35 -58l-14 -16l-19 -35v-6l-8 -6l-12 -21l-23 -38v-11l-24 -157l-8 -17l-17 -135l2 -18l-16 -101l-6 -12l-2 -25l-9 -28l-12 -31l2 -14 l-8 -17l-22 -16l-74 -8l-49 16l-25 53l-12 62v141l8 100l14 66l29 150l6 55l-96 125l-47 84l-39 59l-19 55l-8 93l17 30l39 37l18 -10l8 -10l12 14l45 -16l27 -27l68 -84l34 -51l66 -111l23 -51l26 31l33 61l41 58l6 4l14 24l113 137l131 150l55 53l60 53l35 17z" />
<glyph unicode="&#x2c6;" horiz-adv-x="796" d="M672 1466q0 -8 -13 -41q-12 -6 -20 -6q-24 0 -33 6q-19 19 -88 127q-12 16 -45 68q-12 15 -27 18q-3 -3 -16 -6q-11 -11 -68 -76q-6 -9 -18 -24q-2 -3 -80 -94q-27 -21 -33 -47q-31 -17 -41 -17q-22 3 -28 12q-17 8 -33 52q0 2 2 4q0 18 39 74l49 63q38 48 111 131 q10 8 35 33q16 12 26 22q6 6 19 11q34 0 49 -15q3 -2 11.5 -7t12.5 -7q7 -5 23 -19t24 -20q6 -11 25 -33l68 -135q18 -33 32 -49v-2q2 -3 17 -23z" />
<glyph unicode="&#x2dc;" horiz-adv-x="890" d="M797 1673q-3 -6 -13 -22l2 -2q-11 -23 -38 -56l-13 -26l-4 -2v-6q-6 -15 -18 -33v-6q0 -5 2 -7q-3 -5 -21 -32q2 2 2 0q-2 0 -2 -4q-4 -3 -26 -21l-2 -2q-13 -13 -23 -18q-32 -13 -82 -13q-71 6 -145 47q-6 6 -29 19q-3 3 -25 16q-4 0 -20 9l-16 8q0 -1 -2 -2l-6 -3 t-8.5 -6t-8 -13t-4.5 -23q-12 -33 -45 -33q-10 0 -16 2h-9q-2 1 -6.5 2t-7.5 2h-8q-11 3 -21 20q-3 3 -12 27q1 1 2 3t2 3q-2 2 -2 8q0 14 8 45q30 68 51 86q44 38 72 35q6 2 21 2q4 -1 20 -3.5t27 -4.5q3 -1 9 -4t9 -4q5 -3 25 -16t33 -21q27 -27 43 -45q2 -2 6 -10v-2 q8 -20 18 -35l2 -2l12 -4h15q12 2 20.5 5t11 4t9.5 6.5t8 6.5q3 3 80 94q36 39 49 39q43 0 43 2q4 0 20 -4q1 -1 11 -6z" />
<glyph unicode="&#x2000;" horiz-adv-x="888" />
<glyph unicode="&#x2001;" horiz-adv-x="1776" />
<glyph unicode="&#x2002;" horiz-adv-x="888" />
<glyph unicode="&#x2003;" horiz-adv-x="1776" />
<glyph unicode="&#x2004;" horiz-adv-x="592" />
<glyph unicode="&#x2005;" horiz-adv-x="444" />
<glyph unicode="&#x2006;" horiz-adv-x="296" />
<glyph unicode="&#x2007;" horiz-adv-x="296" />
<glyph unicode="&#x2008;" horiz-adv-x="222" />
<glyph unicode="&#x2009;" horiz-adv-x="355" />
<glyph unicode="&#x200a;" horiz-adv-x="98" />
<glyph unicode="&#x2010;" horiz-adv-x="849" d="M485 469l72 2h160l37 -4l14 -8v-10l-29 -9l-2 -10l-10 -2l-29 -16l-4 -15l-22 -10l-27 -22l-53 -17l-31 -10l-6 -8l-31 10l-4 -8l-51 -27l-74 -18l-47 -11l-57 3l-51 -5l-70 9l-39 -9l-22 15v10l-17 18l-8 7l2 34l-4 15l20 37l9 12l39 12l63 6l127 17l74 8z" />
<glyph unicode="&#x2011;" horiz-adv-x="849" d="M485 469l72 2h160l37 -4l14 -8v-10l-29 -9l-2 -10l-10 -2l-29 -16l-4 -15l-22 -10l-27 -22l-53 -17l-31 -10l-6 -8l-31 10l-4 -8l-51 -27l-74 -18l-47 -11l-57 3l-51 -5l-70 9l-39 -9l-22 15v10l-17 18l-8 7l2 34l-4 15l20 37l9 12l39 12l63 6l127 17l74 8z" />
<glyph unicode="&#x2012;" horiz-adv-x="849" d="M485 469l72 2h160l37 -4l14 -8v-10l-29 -9l-2 -10l-10 -2l-29 -16l-4 -15l-22 -10l-27 -22l-53 -17l-31 -10l-6 -8l-31 10l-4 -8l-51 -27l-74 -18l-47 -11l-57 3l-51 -5l-70 9l-39 -9l-22 15v10l-17 18l-8 7l2 34l-4 15l20 37l9 12l39 12l63 6l127 17l74 8z" />
<glyph unicode="&#x2013;" horiz-adv-x="1075" d="M672 483l110 4h160l39 -4l12 -8v-10l-26 -8l-4 -11l-9 -2l-30 -16l-4 -14l-21 -11l-12 -12l-15 -10l-53 -16l-31 -11l-6 -8l-20 -12l-4 -8l-60 -17l-106 -30l-90 -17l-80 -2l-64 -6l-57 2l-51 -2l-80 29l-39 -9l-22 15v10l-17 18l-8 7l2 34l-4 15l20 37l9 12l39 12 l100 12l153 25l181 12h88z" />
<glyph unicode="&#x2014;" horiz-adv-x="2211" d="M1630 518l373 -16l123 -21l4 -12l-23 -12l-34 -13l-27 -4l4 -10l-22 2l-7 -8h-36l-35 -14l-2 -11h-11l-2 -6l-90 -4l-20 -4h-8l-7 -8l-47 -6l-37 4l-2 -8l-69 -2l-35 -5l-334 -12l-26 -6l-19 -6l-41 -4l-10 2l-27 -2l-24 -4l-19 4l-16 -2l-35 -4l-14 2l-33 -15h-23 l-22 -6h-37l-35 -10h-35l-47 -4l-39 -6l-94 -17l-84 -10h-200l-113 2l-100 14l-33 -22l-13 6l-22 6l-21 17l-4 18l-18 35l4 22l-2 19l29 26l12 23l20 6l15 -2l137 33l96 16l121 -2l76 12l55 5l70 12l78 2l26 4l21 -2l32 2h99l20 4l27 -4l10 -2l39 2h88z" />
<glyph unicode="&#x2018;" horiz-adv-x="528" d="M483 1386l35 7l47 -2l6 -7h13l8 -6l16 -28l-12 -64l-33 -33l-39 -34l-73 -64l-41 -53l59 -17l12 -38l-6 -23l-16 -29l-19 -18l-18 -14l-2 -15l-21 2l-30 -32l-2 -9l-19 -6l-14 -6l-10 2l-21 -8h-2l-27 -2l-18 4l-12 10l-6 15l-19 20l-10 25l-12 32v35l2 39l16 51l49 80 l64 72l71 63l43 33z" />
<glyph unicode="&#x2019;" horiz-adv-x="346" d="M418 1370l43 -14h8l18 -23l15 -24l18 -74l4 -41l-18 -68l-27 -49l-28 -49l-21 -16l-12 -17l-12 -2l-48 -45l-43 -20l-20 -21l-29 -4l-14 -12l-16 18l-19 -4l-10 2l45 86l43 68l49 151l-39 27l-12 18v27l12 27l12 14l2 4l27 19h21l24 18z" />
<glyph unicode="&#x201a;" horiz-adv-x="858" d="M567 1204h11l16 -14l10 -12l4 -64l-20 -59l-21 -35l-18 -51l-31 -56l-49 -118l-23 -45l-14 -41l-22 -54l-11 -22l-6 -19l99 52l67 22l23 10l39 -2l32 -16l21 -14l10 -29l-6 -57l-21 -29l-4 -16l-51 -37l-31 -21l-59 -43l-20 -8l-29 -16l-41 -31l-105 -55l334 -199 l109 -76l10 -12l33 -25l55 -39l53 -39l21 -24l6 -12l2 -17l-12 -4l10 -12v-15l-27 11l-16 -2l-23 12l-30 6l-94 41l-328 158l-133 82l-39 26l-6 -16l-17 -43l-30 -96l-2 -27l-7 -8v-43l-4 -8l-6 -39l-8 -4v-19l-45 -14v-19l-27 -14l-12 6l-31 4l-6 21l-27 26l-4 29l11 27 l22 108l8 17l6 32l11 41l10 33l2 2l10 51l27 82l6 13l10 57l23 51l6 27l18 47l23 59l12 43l6 6l25 60l76 172l22 37l64 121l92 139l33 37z" />
</font>
</defs>
</svg>
