<?xml version="1.0" standalone="no"?>
<!DOCTYPE svg PUBLIC "-//W3C//DTD SVG 1.1//EN" "http://www.w3.org/Graphics/SVG/1.1/DTD/svg11.dtd" >
<svg xmlns="http://www.w3.org/2000/svg" xmlns:xlink="http://www.w3.org/1999/xlink" version="1.1">
<metadata></metadata>
<defs>
<font id="wc_mano_negra_btabold" horiz-adv-x="919" >
<font-face units-per-em="2048" ascent="1638" descent="-410" />
<missing-glyph horiz-adv-x="612" />
<glyph horiz-adv-x="0" />
<glyph horiz-adv-x="682" />
<glyph unicode=" "  horiz-adv-x="612" />
<glyph unicode="&#x09;" horiz-adv-x="612" />
<glyph unicode="&#xa0;" horiz-adv-x="612" />
<glyph unicode="!" horiz-adv-x="681" d="M713 1384q6 -21 6 -41q-7 -99 -70 -262l-45 -112l-22 -25q0 2 2 2v-2q0 -3 -25 -48.5t-50.5 -100.5t-25.5 -82v-15q0 -30 -55 -114q-9 -17 -14.5 -56.5t-9.5 -72.5t-23.5 -61.5t-56.5 -31.5q-27 0 -44 13t-24 39t-8.5 47t-1.5 55q0 43 5 83.5t15.5 95.5t14.5 81 q7 45 20.5 96.5t23 84.5t34 97t31.5 82.5t39.5 96.5t35.5 86l22 63q11 32 47 50t68 18q26 0 57 -18.5t54 -47.5zM442 121l-4 -15q0 -3 6.5 -22.5t6.5 -32.5q0 -69 -72 -90q-1 0 -19 -14.5t-38 -14.5q-54 0 -106.5 28.5t-74.5 80.5v-18l-18 28q-1 5 -14 11t-25 18t-12 33 q0 9 11 38t11 33v9q2 8 6 20q8 20 25 23q5 0 30.5 22.5t43.5 22.5q8 0 28 -10.5t29 -10.5q4 0 11 7t14 7q15 0 47.5 -19.5t44.5 -41.5q1 -2 19.5 -14.5t34 -33t15.5 -44.5zM434 100l-6 -12q3 1 4.5 2.5t2 3t1.5 2.5z" />
<glyph unicode="&#x22;" horiz-adv-x="542" d="M571 1036q0 -34 -18 -89.5t-39 -96.5l-8 -14q-7 -13 -17.5 -33.5t-21 -42t-18 -42t-7.5 -30.5l2 -12q0 -7 -1.5 -17t-6 -28.5t-16 -30.5t-29.5 -12q-37 0 -53 32.5t-16 77.5q0 129 40 236q1 4 10 36t16 49.5t20.5 42.5t33 37.5t43.5 12.5q60 0 86 -76zM342 983 q-13 -34 -29.5 -94.5t-27.5 -89.5q-3 -9 -14.5 -38t-17 -46.5t-5.5 -28.5q0 -3 6 -7.5t6 -8.5q0 -5 -18 -35l6 6q-1 -4 -3 -6.5t-6 -5t-6 -4.5l3 2q-7 -7 -30.5 -16t-35.5 -9q-20 0 -34 17t-20.5 43.5t-9 48t-2.5 41.5q0 21 10 76t29.5 124.5t56 121.5t81.5 52 q27 0 55.5 -22t28.5 -51q0 -13 -10.5 -38t-12.5 -32z" />
<glyph unicode="#" horiz-adv-x="1818" d="M1675 899q4 -12 4 -20q0 -18 -12.5 -28.5t-23 -12.5t-21.5 -2l-31 2q-36 2 -168 -17t-188 -24q-3 -10 -17.5 -38.5t-17.5 -35.5l-29 -53l-6 -29q8 -2 60 -2h26q21 0 81.5 6.5t97.5 5.5q32 0 64.5 -9t35.5 -9l35 -19q23 -12 45 -34.5t22 -44.5q0 -12 -6.5 -21t-12 -12.5 t-7.5 -3.5q-38 -15 -110 -26t-139.5 -18.5t-132 -19t-104 -36.5t-39.5 -64q0 -30 12.5 -69t14.5 -46l6 -24q19 -38 19 -70q0 -43 -82 -43t-130.5 52t-48.5 132l2 25v4q0 3 -4.5 21t-7.5 18q-13 -4 -51 -8.5t-56 -16t-18 -39.5l11 -41l-3 -16q9 -6 9 -23q0 -10 -6 -22 q-6 -8 -12 -17t-7.5 -10.5t-3.5 -8t-2 -10.5v-18q0 -60 -39 -79l-22 14l-5 -12l2 4l-2 -4q-4 2 -8 2l-18 -9l-23 15l-2 -6q-47 23 -47 67q0 13 3 29t3 22q0 15 -11.5 47t-10.5 48q-1 0 -10.5 -2t-16.5 -2l-18 4l-47 -4q-54 0 -89.5 27.5t-35.5 82.5q0 66 83.5 111t206.5 61 l7 78q0 8 20 47q-12 6 -31 6q-138 0 -215 -18l-55 6l-27 31v47l7 8q10 35 28.5 59.5t42 38.5t56 23.5t65.5 14t75 9.5q14 1 21 2q12 0 61 18.5t68 18.5q3 0 30.5 56t35.5 77l8 17q29 82 76 166l21 35q63 90 120 90q39 0 39 -52v-6q-38 -151 -47 -211l-2 -8q-17 -44 -23 -123 q13 6 32 6.5t29.5 7.5t16.5 33q3 10 12.5 30t17 35t7.5 17v-2l25 66q4 4 7 13t6.5 23.5t6.5 22.5q2 7 10.5 31.5t14.5 40t16 40t19.5 40.5t21 32.5t24 24.5t25.5 8q41 0 81 -46t40 -103q0 -44 -12 -74l-4 -4q-2 1 -7 -18t-21.5 -57.5t-41.5 -74.5l-16 9l14 -13l-12 11 l12 -11q-12 -16 -21 -34q0 -7 39.5 -13t59.5 -6q16 0 68.5 8t97.5 8q44 0 71 -29t39 -73zM657 35l5 4zM979 920v6v-6zM979 915l12 13zM987 754v2q-14 -5 -115 -19h-2q-22 -22 -32 -65q-4 -21 -4 -41v-19l-13 -51q30 6 39 6l27 -4q33 0 43 3t10 14v30q0 16 19.5 46t19.5 46 q-2 3 -2 5q0 27 10 47zM979 915l27 13zM1151 1141l-12 6zM1163 1137l-18 18zM1300 1055l9 -25z" />
<glyph unicode="$" horiz-adv-x="884" d="M993 1026q4 -28 4 -29q0 -35 -20.5 -58.5t-52.5 -23.5l-13 3q0 -9 -28 -9q-17 0 -31 2l-25 4q2 -2 7 -2q2 0 9 -1t13 -1q-20 3 -52.5 11t-59 13t-50.5 5q-32 0 -41.5 -5t-9.5 -24q0 -75 -16.5 -223t-16.5 -215q0 -6 2 -8q109 -78 147 -115q109 -105 109 -235 q0 -64 -23.5 -108t-78.5 -99q-17 -17 -61 -28.5t-77.5 -19t-33.5 -16.5l2 -24q-1 -8 -2.5 -21t-2.5 -24t-1 -21q0 -19 4 -51q0 -38 -23.5 -64t-58.5 -26q-34 0 -63 26.5t-29 61.5q0 14 3 42t3 67q0 61 -23 61q-51 0 -124 20t-103 48q-7 5 -32.5 11.5t-42.5 17.5t-17 32 q0 55 47.5 97t108.5 42q40 0 106.5 -21.5t83.5 -25.5q1 23 4.5 93.5t3.5 109.5q0 6 -4 10q-232 138 -244 326q0 37 9 76.5t26.5 93.5t24.5 82q3 18 22.5 37t24.5 28q-2 -2 -2 -6q7 21 19 39t32.5 36t32.5 27.5t42.5 29t39.5 26.5q16 9 16 78l-6 131q0 42 20.5 64t53.5 22 q60 0 81 -40.5t21 -103.5l-2 -75q81 24 143 24q56 0 94.5 -12.5t60.5 -38.5t32.5 -54t17.5 -69zM449 584q6 72 10 217q-53 -69 -53 -119q0 -58 43 -98zM621 162q-22 9 -27 14v-113q13 8 30.5 30.5t22.5 27.5h-4q8 3 8 6q0 6 -5.5 13t-14.5 14t-10 8z" />
<glyph unicode="%" horiz-adv-x="1107" d="M221 606q-39 9 -77 43t-50 70q0 -6 2 -8q-26 51 -26 100q0 112 75 193q46 49 110 91t105 42h13q59 -13 94.5 -42t45 -55t17.5 -57t15 -41q-1 0 -2 0.5t-3.5 1.5t-4.5 2q-1 -2 10.5 -12.5t11.5 -18.5v-22q0 -8 3 -25.5t3 -29.5q0 -19 -12 -48.5t-12 -39.5v-15 q0 -6 -1 -11.5t-4 -11t-5 -9.5t-7 -10t-7 -8.5t-8 -9t-7 -7.5q-1 0 -14.5 -8t-34.5 -20t-46.5 -24t-57 -20t-58.5 -8q-16 0 -68 18zM301 811l-25 -47q8 -4 19 -4q24 0 41.5 10t27 22t16 36t8 37.5t3 42.5t2.5 36q-6 0 -15.5 -10.5t-21.5 -29t-21 -34.5t-20.5 -35.5 t-13.5 -23.5zM662 559l2 2zM1012 295q-1 -2 -2 -4.5t-1.5 -3.5t-0.5 -2q0 -16 14 -35q0 -43 -19 -101t-51 -90q-15 -29 -40 -51.5t-41 -32t-47 -22.5t-33 -14q-8 -8 -46 -19.5t-65 -11.5q-44 0 -72.5 14.5t-62.5 48.5q0 -2 2 -4q-55 66 -55 154q3 28 25 83.5t22 74.5 q0 3 -5.5 12.5t-5.5 13.5q-1 8 4 17t10.5 14.5t16 15t14.5 13.5q2 2 37 35t66 58.5t82 49.5t96 24q21 0 73.5 -39t59.5 -63q1 -2 11 -14.5t17 -31t7 -44.5q0 -23 -7 -33t-7 -14q2 0 4 2zM725 84q65 53 90.5 98t30.5 109q0 44 -12 53v-4q0 -15 -19.5 -35t-21.5 -24 q-3 -1 -28 -42t-42 -51l10 -8l-33 -14q5 -5 5 -6q0 -12 -9 -21q-3 0 -11 -17t-17 -37t-13 -24q2 -2 9 -2q26 0 61 25zM575 436q-160 -224 -239 -471q-2 -4 -8.5 -41.5t-15 -70t-32 -61t-57.5 -28.5q-30 0 -30 52q0 1 6 55q28 170 96 330t182 370q57 108 197 283 q69 85 128.5 147t125.5 107q20 14 39 14q14 0 25.5 -12.5t11.5 -30.5q0 -1 -5 -26l2 -11q0 -9 -4 -19.5t-12.5 -22.5t-14.5 -19.5t-19.5 -22t-16.5 -18.5q-61 -72 -156.5 -213t-113.5 -166v2q-3 -6 -14 -21.5t-33 -46t-42 -59.5z" />
<glyph unicode="&#x26;" horiz-adv-x="1081" d="M1155 399l12 -49q0 -14 -100 -65.5t-184 -87.5q-5 -2 -19.5 -7.5t-17.5 -8.5t-7.5 -13t-4.5 -27t40.5 -95t40.5 -120q0 -17 -6 -35l3.5 7t2.5 8q0 -44 -49 -73.5t-96 -29.5q-52 9 -94 80q-11 20 -33.5 72t-39 91.5t-19.5 39.5q-9 0 -50.5 -18t-97 -36t-100.5 -18 q-41 0 -79 9t-77.5 40t-54.5 80q0 1 -41 15q-72 37 -72 125q0 25 9.5 50t21.5 43.5t36 42t38.5 36t44 36t39.5 31.5q21 19 45.5 34.5t63 37.5t50.5 29q-73 0 -73 77q0 8 2 18t2 15q0 9 -15 49q-12 49 -12 127q0 60 24 90t101 62q8 3 40.5 13.5t53 18t43.5 19t31 21.5 q70 89 151.5 166.5t141.5 95.5q-6 0 -8 -2q6 2 18.5 6.5t20 7t19 4.5t20.5 2q51 0 92 -62.5t41 -129.5l-2 -31l4 -31q0 -14 -10.5 -41.5t-10.5 -30.5q0 -23 23.5 -53t23.5 -67q0 -48 -86 -76q-32 -8 -75.5 -31.5t-63.5 -30.5q-27 -10 -69 -57t-42 -88q0 -5 19.5 -13.5 t39 -22t19.5 -30.5q0 -14 -9.5 -42t-10.5 -33q-3 -6 -18 -18.5t-15 -30.5l12 -23q0 -5 -4 -15t-4 -12q0 -13 10 -36q7 1 53 6t70 16q6 -2 19 -2q6 -2 24 -2q2 0 4 2h-6l-22 4q28 -3 82.5 -19t70.5 -16q25 2 76 2zM815 590l6 14q-10 -10 -10 -20q4 4 4 10v-4zM1038 1294l-2 4 zM205 252l2 4q-2 -2 -2 -4zM344 18l-6 -2q4 0 6 2zM518 264q2 0 2 8q0 49 -23.5 116t-25.5 93q-19 -11 -40.5 -26t-35.5 -26.5t-37.5 -30.5t-35.5 -29q-8 -7 -33.5 -28t-40.5 -34t-29 -33.5t-14 -37.5t30.5 -22.5t30.5 -8.5h-2l39 -8q12 3 68 8q17 2 39 9.5t33 12.5t41 20z M500 399l-2 2zM643 885q34 30 49 65q-55 0 -144 -32t-89 -58q0 -15 34.5 -46.5t41.5 -31.5q12 0 46 34.5t62 68.5z" />
<glyph unicode="'" horiz-adv-x="307" d="M283 1098q49 0 79 -70v-27q0 -98 -49 -221q-14 -35 -23 -54t-29 -53t-44.5 -51.5t-52.5 -17.5q-21 2 -34 12t-18 28.5t-6.5 32.5t-1.5 38t2 30q3 37 15 91.5t33 115.5t55.5 103.5t73.5 42.5z" />
<glyph unicode="(" horiz-adv-x="819" d="M848 1432v-13q0 -50 -41 -112q-19 -31 -39.5 -69t-31 -60.5t-33.5 -72.5t-29 -63q-7 -14 -28 -57.5t-31 -65t-26 -57.5t-27.5 -66.5t-20.5 -60.5q-7 -26 -33 -93.5t-41.5 -128t-15.5 -120.5v-112l4 -43l-2 -27l12 -61v-17q0 -12 2 -14q56 -152 129 -244q6 -7 19.5 -23.5 t21 -26t14 -25t6.5 -29.5q0 -80 -92 -80q-9 0 -21 5t-18.5 9t-21.5 15t-17 12q-142 102 -215 279t-73 382q0 141 45.5 324t128.5 340q38 75 61.5 117t63 102t80.5 106q27 31 45 50t52 42t62 23q89 0 111 -65z" />
<glyph unicode=")" horiz-adv-x="770" d="M698 715l2 -37q0 -11 -3 -51t-13 -100.5t-25 -84.5l3 -8q0 -16 -14.5 -33.5t-14.5 -27.5l2 -19q0 -23 -15.5 -51t-40.5 -61t-34 -49q-4 -7 -17 -31t-19.5 -35.5t-18.5 -28.5t-23 -28q-2 -2 -12 -7t-19 -20q-53 -74 -131 -133q-45 -28 -118.5 -90t-116.5 -90 q-22 0 -36 14.5t-14 32.5v16v14q0 25 13 66q19 61 55.5 127.5t61.5 102t81 112.5q86 120 134.5 270.5t48.5 292.5q0 35 -4 70t-14.5 77t-16.5 64t-22.5 75t-20.5 66q-8 26 -30 78t-35 95.5t-13 80.5q0 33 28 65t64 32q18 0 36 -6t33 -14t31 -25t27.5 -29.5t26.5 -37 t23.5 -38.5t22.5 -43t20 -42t20 -43.5t18 -39.5q90 -270 90 -448z" />
<glyph unicode="*" horiz-adv-x="796" d="M623 1509h30q-6 -47 -45 -118q-37 -70 -47 -115q18 6 94 70q65 53 99 53q43 0 43 -41q0 -18 -70 -94q3 -1 80 -23q55 -15 55 -37q0 -67 -176 -67l-125 4q0 -47 70 -105q43 -37 43 -73q0 -22 -21 -56q-69 3 -118 49q-62 59 -103 74q-40 -63 -125 -172q-77 50 -74 74 q0 4 17 43l22 43q-147 -78 -192 -78q-40 0 -19 53q15 47 95 72q88 28 123 63q-16 8 -144 17q-109 9 -112 33q-6 31 18.5 46t81.5 15h115l-56 55q-30 41 -12 68q29 45 84 45q25 0 41 -8l20 -25q37 -3 121 -37q46 60 49 74q20 48 43 64q15 9 95 34z" />
<glyph unicode="+" horiz-adv-x="972" d="M909 770q21 -21 21 -57q0 -62 -40 -102t-95 -40l-93 4q-86 0 -123.5 -52t-37.5 -136v-51q0 -38 -5.5 -71.5t-18.5 -69.5t-41 -57t-68 -21q-68 0 -110 43t-42 110l35 209q0 29 -35 29l-127 -14q-54 0 -81.5 33.5t-27.5 84.5q0 42 19 73.5t46.5 48.5t68 29.5t72.5 16.5 t72 8t54 7q23 3 23 59q0 42 -2 80t-2 55q0 96 22 141q25 48 76 95t92 47q23 0 73 -43.5t50 -73.5q0 -10 -2.5 -20.5t-9 -26.5t-8.5 -21q-3 -8 -15.5 -35.5t-16 -36.5t-12 -32t-11.5 -37t-6 -35t-3 -41q0 -5 6 -104q174 33 228 33q46 0 75 -29z" />
<glyph unicode="," horiz-adv-x="450" d="M369 66q2 -6 2 -25q0 -35 -16.5 -85t-39.5 -69q-27 -20 -64.5 -58.5t-64.5 -55.5q-22 -27 -51 -51t-43 -33.5t-55.5 -33t-46.5 -26.5q-60 -43 -78 -43q-31 0 -50.5 19.5t-19.5 54.5q0 8 15 23q28 43 63.5 89.5t82 103.5t71.5 89q-43 0 -72 26t-29 79q0 59 43.5 113.5 t104.5 54.5q16 0 37.5 -5t36 -10t38.5 -14t31 -12q18 -7 33.5 -18.5t23.5 -20t19.5 -30.5t14 -28t14.5 -34z" />
<glyph unicode="-" horiz-adv-x="849" d="M782 487q17 -21 17 -34q0 -11 -8 -18.5t-23 -15t-20 -11.5q2 3 -2 -1q-75 -70 -136 -92q-34 -12 -65 -12q-3 0 -6 1t-4 1q-5 0 -7 -2q-105 -55 -200 -55h-39q-25 0 -35 -2l-74 8q-6 0 -23 -3t-26 -3q-27 0 -51.5 33t-24.5 59v12l-2 27q0 10 2 12q13 26 27 42t33.5 23.5 t32.5 10t41 4.5t42 4q224 33 455 33q61 0 96 -21z" />
<glyph unicode="." horiz-adv-x="450" d="M344 106l8 -24l2 -12q0 -9 -4 -29q2 -2 2 -6l-4 -5q-59 -91 -123 -91q-115 0 -184 90q-6 9 -25 25t-32 31t-13 30q0 13 13.5 39t13.5 32l-1 4q-1 4 -1 9q0 2 20 37q0 -3 -2 -3l14 13q14 12 35.5 25.5t38.5 13.5l56 -21q3 0 9 7.5t19 7.5q4 0 11.5 -8t17.5 -11 q16 -11 28.5 -18t16.5 -9t8 -6.5t11 -15.5q4 -7 15.5 -15.5t22.5 -16.5t20 -24t9 -38q0 -3 -1 -7z" />
<glyph unicode="/" horiz-adv-x="837" d="M934 1389l2 -46q0 -22 -6 -42.5t-11.5 -30.5t-21.5 -37q-44 -78 -184 -317.5t-215 -376.5q-1 -2 -15.5 -26.5t-18.5 -32t-13.5 -26.5t-15 -34t-9.5 -31q-3 -8 -13.5 -18t-13.5 -17q-22 -45 -59 -128.5t-51 -112.5q-3 -7 -15 -17.5t-16 -17.5q-4 -9 -16.5 -44t-21 -58 t-23 -58.5t-28 -59.5t-29.5 -48t-33 -36t-33 -12q-64 0 -64 82q0 17 3 36.5t8.5 42.5t7.5 34q18 107 53 221t66 195.5t93.5 209t93 184.5t107.5 197q17 31 25 46q21 37 49.5 80.5t48 70.5t59 79.5t52.5 70.5q39 54 87 94.5t89 40.5q48 0 82 -57z" />
<glyph unicode="0" horiz-adv-x="1150" d="M1071 696q12 -41 12 -159q0 -25 -6 -78l-8 -68q-1 -3 -16.5 -59t-38.5 -99l-6 -18l-17 -20q-17 -21 -26 -45l-50 -68l-47 -47q-63 -51 -139 -101h-2q-59 -32 -147 -55l-27 -2q-28 -4 -31 -4l-4 -2q-52 0 -63 2q-7 2 -68 16l-4 2q-88 29 -193 107l-6 6q-7 9 -21.5 27.5 t-23.5 29.5l-57 99q-11 11 -39 180l2 8q4 12 4 84q0 17 12.5 71.5t12.5 67.5l2 9q3 12 8.5 36t8.5 34.5t10.5 33t16 43t24 52.5t36.5 71l13 22q4 7 13 23.5t13.5 25t11 23t11 29.5t8.5 33l14 18q10 7 36.5 31t45.5 39l2 2q105 59 138 65t79 27v2q85 39 97 39l57 2l16 -6 q17 -12 47 -23l11 -6q32 -23 45 -31l49 -59q12 -31 43 -70l6 -10h-2q1 -2 12.5 -17.5t14.5 -23.5v-8q0 -16 36 -68l25 -55q7 -18 21.5 -68t27.5 -90zM825 590q17 72 17 129q0 5 -35 45l-2 6q0 -2 2 -2l-7 4q-8 5 -34 16.5t-66 26.5h-2l-51 2h-2q-36 0 -47 -18l-4 -6 q-16 -16 -36.5 -27t-39.5 -27q-55 -36 -82.5 -63t-35.5 -42.5t-13 -19.5q-32 -16 -74 -112q-28 -61 -28 -162q0 -68 6 -86q2 -7 7 -16.5t24 -25.5t43 -15l14 2q32 0 41 -9l24 9l5 2l12 2l9 1.5t5 0.5l14 -2q26 13 48 29t34 23t27 7q19 0 52.5 28.5t69 72.5t65.5 106t40 121z " />
<glyph unicode="1" horiz-adv-x="751" d="M870 1194l4 -10v-31l-10 -53l-33 -82l-24 -45l-8 -8l-2 -21l-11 -8l-41 -82l-22 -20l-8 -17q-5 -13 -17 -26l-6 -15v-26l-18 -48l-12 -14l-7 -20l-34 -66l-27 -76l-2 -18l-12 -74l-19 -61l-6 -56l-10 -12l4 -14l-6 -6v-23l-31 -92l-6 -35l-12 -18v-4v-15l-9 -14l-4 -18 l2 -11l-24 -78l2 -4q-3 -13 -10 -28v-11l-33 -77l-8 -7l-19 -34l-14 -41l-15 -27l-24 -16l-4 2q-10 -10 -25 -10l-20 -19l-33 -6q-6 -2 -23 -2h-4q-24 3 -39.5 21.5t-15.5 43.5l2 17q91 612 207 1075q-35 -35 -72 -52.5t-100 -31.5h-2q-77 -17 -105 -20h-6q-33 5 -54 24.5 t-21 50.5q0 47 38 91.5t80 74.5l103 86q27 19 95.5 77t124 102.5t123.5 82t115 37.5q21 0 33 -2h13l18 -6l2 -2l12 -4q34 -15 47 -51l9 -6l26 -41l10 -50z" />
<glyph unicode="2" horiz-adv-x="1484" d="M1477 186l-9 -28q-20 -20 -20 -21l-4 2l4 -2l-14 8l16 -6l-25 11l-2 -33q-10 0 -16 -2h-25h-34v0h10q0 -8 -178 -25h-2h-13l-14 -8l-121 -25q-164 -20 -371 -71h-4q-16 -3 -151 -29q-8 -2 -55.5 -13t-89.5 -19.5t-56 -8.5q-11 0 -35 4q-15 -5 -71 11.5t-56 52.5l-12 20 l-10 68v14q-4 28 -4 53q0 19 1.5 30t11 36.5t28.5 62.5l12 13l6 6l43 53q22 24 62 64.5t140.5 141t186.5 187.5q13 16 52 60t81 94.5t76 99.5q11 15 19.5 31t12.5 25t5 10q0 7 -3.5 11t-9 8t-8.5 7q-49 0 -69 -2h-2q-11 0 -19 -2q-46 -9 -43 -12l-6 -2q-26 -9 -61 -24.5 t-87.5 -40t-94.5 -42.5l-11 -2q-45 0 -61 7t-66 49l-8 16q0 7 -4 23v2v-2l-2 22q9 33 52 70t103.5 69t113 55t102.5 42l10 2q10 0 55 14t66 14h121q14 -2 96 -24l8 -2q31 -20 66 -45l4 -6q4 -5 10 -14.5t12 -22t10 -28.5t4 -32q0 -51 -6 -88q2 -6 2 -18q0 -80 -47 -234 l-4 -8q-23 -33 -84 -115l-4 -4q-5 -5 -18 -16t-24 -22.5t-21 -28.5l-13 -11q-2 -2 -23 -25t-42 -44l-6 -6q-24 -13 -107 -103l-4 -4q-39 -29 -100 -90l-2 -6l-21 -21q-30 -26 -55 -55q4 2 12 2h2q28 0 53 8l9 2q10 1 52.5 8t68.5 7l10 2q16 0 141 10h4q23 0 41 2l70 -4 q1 0 5 1t5 1l78 2q5 -3 22 -6q70 16 140 16q96 0 141 -45l14 -8q27 -27 58 -74z" />
<glyph unicode="3" horiz-adv-x="972" d="M946 502l25 -86l-2 -23l-13 -26l-6 -48v-47l-18 -34l-27 -25l-26 -29l-15 -22l-20 -12l-13 -7l-14 -18l-4 4l-4 -14l-55 -29l-17 -12l-20 -2l-8 -6l-37 -13l-15 -16l-18 -8l-43 -6l-98 -41l-52 -19l-20 -16l-29 -4l-12 -2l-264 -107l-27 -2l-35 -16h-22l-12 4l-29 12 l-27 -16l-28 -2l-31 14l-14 45l6 8l-2 8l6 23l39 51l14 10l49 19l33 22l154 90l247 99l164 96l12 33l-14 41l-84 30h-69l-50 11l-51 26l-43 27l-10 41l37 82l24 18l13 19l35 41l143 116l63 72l21 33l-25 12l-55 -8l-45 -23l-123 -34l-84 -17l-16 2l-74 29l-23 18l-10 19 l-6 31l6 40l8 15l52 55l208 102l146 35h94l72 -14l55 -25l43 -39l43 -63l23 -33l4 -14l8 -103v-24l-16 -45l-13 -14l-24 -17l-58 -57l-30 -12v-7l-17 -10l-10 -12l-39 -29l-14 -14l129 -31l14 -8l82 -78z" />
<glyph unicode="4" horiz-adv-x="1208" d="M1368 809l6 -23l-2 -14l-18 -43l-13 -14q0 1 -7.5 -3.5t-13 -12t-1.5 -11.5l-21 -29q-10 -3 -46.5 -16.5t-53.5 -19.5l-102 -39q-7 -3 -17 -9l-16 -8l-2 -2q-10 -4 -27.5 -10.5t-23.5 -9.5q-12 -4 -25 -10t-22 -10t-11 -5l-16 -14q-31 -14 -138.5 -54t-193.5 -81 q5 1 -3 -5q-9 -6 -23 -14v-4q0 -2 2 -2l4 -27l-23 -67l-16 -19q1 -1 -2 -1q-15 -3 -11 -15l-16 -65l-29 -105l-32 -125q-49 -130 -49 -151l-3 -4l-26 -58q-7 -7 -27 -67l-18 -35l-21 -17l-45 25q5 57 -18 57v97q0 2 5.5 45.5t13.5 110t12 114.5v2q8 54 18 104q21 114 22 123 l-20 -4l-16 2q-17 10 -97 15l-73 28l-25 15l-33 28l-32 37l-7 19l-4 49v49l31 98l68 184q10 26 39 102t41 109t30.5 90t30.5 105l16 20q-5 -10 21 13q19 17 30 28l29 13l25 -2l16 -9l12 -12l17 -28l4 -19l-10 -55q-51 -71 -68 -156v-4q-106 -225 -106 -336v-63q0 -29 6 -43 q38 3 72.5 11t70.5 13q1 7 6.5 29t15 60.5t15.5 62.5q21 81 31 129h2l78 260q18 43 39 101.5t18 58.5l14 18l64 39l28 4l21 -8l22 -21l9 -14l22 -78l-4 -28q-4 -32 -4 -45l4 -5l10 -28l-12 -66l-35 -133q-4 -15 -24 -88l-41 -143h4q2 0 2 2l6 2q41 0 84 26l6 2l41 13 q9 2 20.5 5.5t17.5 5t7 1.5q0 2 2 2t4 2t6 2l6 2q25 6 77 18.5t86 20.5t40 8l2 2l238 47h20l25 -12z" />
<glyph unicode="5" horiz-adv-x="1050" d="M1116 1210l8 -26l-2 -25l-30 -47q-8 -4 -23.5 -14.5t-21.5 -14.5l-11 -6q-39 -23 -45 -26l-12 -11q0 -5 -3.5 -12t-7.5 -11.5t-10.5 -12.5t-7.5 -9l-18 -8q-72 -10 -195 -10q-35 0 -49 2l-20 2l-72 12q-15 -12 -33 -30l-8 -5q-8 -4 -80 -59q-45 -108 -90 -168 q8 -11 45.5 -21t77.5 -10l108 -34q62 -20 156 -95l6 -8q29 -40 62 -96l4 -14l2 -19q22 -49 22 -88l-10 -37l-24 -59l-31 -55q-10 -10 -25 -31l-6 -8l-51 -37l-66 -49q-35 -30 -53 -41l-33 -15q-30 -22 -90 -48.5t-86 -26.5l-12 -5q-98 0 -215 74h-2q-28 20 -33 25l-22 10 q0 10 2 12l-2 13l2 6l-1 3q-1 3 -1 7q0 14 8 27l51 2l4 -4q26 21 67 42t56 33h2q65 42 203 166q1 1 8 6t9 7t8.5 8t9.5 10t8 10.5t7.5 13t5.5 15t4 18.5t1 21q0 8 -8 16q-29 17 -49 25t-28 9t-20 -1t-18 -2l-59 2q-15 0 -33.5 2t-23.5 2t-11 -1l-6 -1h-4l-10 -2 q-67 0 -103 31l-22 18q-53 76 -53 109q0 41 53 141l2 2q7 9 25 46t34 63l17 28l-2 29l4 10v4v2q-2 14 -2 43l69 140q-16 22 -16 45l8 22q30 27 80 27l12 -2q6 2 33 2l68 -15l53 -4l84 2q2 -2 10 -2q5 3 8.5 3.5t9.5 -0.5t11 -1l10 2q17 0 31 -2l135 11l47 4h16q13 0 44.5 7 t33.5 7q32 -11 49 -18q48 -19 50 -19l4 -2q0 -3 2 -4.5t7 -5.5t9 -10z" />
<glyph unicode="6" horiz-adv-x="888" d="M946 1323q2 -4 2 -16l-2 -21q0 -8 -46 -84.5t-69 -103.5v4q-7 -22 -8 -23q-11 -4 -26 -38t-33 -37q-29 -7 -98 -101t-119 -178q15 -2 32 -7.5t28 -11t29 -14t26 -12.5q28 -10 48.5 -37.5t28.5 -58.5q2 -12 18.5 -32.5t16.5 -45.5l-12 14q41 -84 41 -141q0 -3 -2.5 -7.5 t-3.5 -6.5v-21q0 -12 -2 -16v-33v-7.5v-7.5t-1 -5.5t-3.5 -6t-6.5 -4.5l2 -16q-18 -54 -18 -72q0 -20 -21 -38t-26 -27q-13 -25 -30.5 -41.5t-24.5 -28.5l-123 -109q-14 -14 -48.5 -26.5t-41.5 -20.5q-78 -38 -154 -41q-71 0 -124 29.5t-83 80.5t-44.5 110.5t-14.5 128.5 q0 86 22.5 160.5t65.5 166.5q5 10 36 68.5t39.5 74t35 64t41.5 71.5t39.5 61.5t47.5 69t48 60.5q20 23 57.5 67.5t60.5 71.5t58 63t69 64l90 74q83 66 123 66q67 0 80 -72zM479 188l23 43l18 78q-1 10 -1 37.5t-2 49.5t-8.5 46t-23 38t-43.5 14q-9 0 -16.5 -1.5t-11.5 -3 t-11 -4t-12 -4.5l-3 -5q-4 -5 -9 -14.5t-11 -21.5t-12.5 -26.5t-11.5 -28.5t-8.5 -28t-3.5 -25q0 -12 -12.5 -41t-12.5 -47l2 -17l-8 -112q0 -16 5 -34t16 -18q18 0 81.5 50t75.5 75z" />
<glyph unicode="7" horiz-adv-x="976" d="M942 1337l14 -24q0 -55 6.5 -96t6.5 -68q0 -34 -2 -57q3 -8 3.5 -16.5t-0.5 -20.5t-1 -17l-2 -8q-1 -7 -13 -47q-2 -10 -6 -22t-6 -19t-2 -10v-8l-2 -13q-8 -13 -20 -57v-2l-39 -102q-17 -21 -23 -54l-4 -10l-11 -18q-11 -19 -16 -29q0 -6 4 -18q10 -17 29 -17 q63 0 68 -37l6 -16q1 -4 3.5 -17t4.5 -26t2 -23q0 -34 -39.5 -82.5t-79.5 -52.5q-3 0 -47 -18.5t-67 -18.5q-4 0 -12 3t-13 3q-14 0 -70 -18q-7 -13 -17.5 -37.5t-18.5 -43.5t-7 -19l-4 -15q-4 -10 -14.5 -36.5t-22.5 -56t-26 -58.5q0 -2 -17 -33l-2 -6q-7 -7 -10 -23 l-8 -20q-2 4 -5 -6q-9 -26 -9 -41l-9 -15q-10 -20 -16 -29.5t-22.5 -29.5t-39 -29.5t-51.5 -9.5l-28 19q-6 18 -6 28q0 4 1.5 14t0.5 13v4q1 7 6 30.5t8 37.5l6 28q17 67 64 197q-5 5 -5 8q0 11 24 55t24 58q0 16 -21 16q-14 0 -38 -8.5t-42 -17.5t-20 -9q-8 -1 -15 2 t-10.5 6t-8 8.5t-5.5 6.5q-17 6 -23 37.5t-6 113.5q0 29 19 45q8 5 12.5 7t12.5 3.5t39.5 12.5t80.5 31h2q93 34 150 47q99 213 132.5 309.5t41.5 185.5l4 74v4l2 6q-12 -2 -45 -10l-31 -6h-6q-48 0 -238 -51h-6q-3 -1 -11.5 -1.5t-17.5 -2t-16 -4.5l-33 -9q-11 -3 -37 -5.5 t-40 -6.5h-7q-21 0 -72.5 -10t-68.5 -10q-21 0 -44.5 34t-23.5 66q0 19 16.5 37t57.5 51l6 4q60 24 99 47l6 2q40 11 100.5 31.5t143 43t231.5 56.5q30 9 78 9q62 0 131 -48q36 -28 53 -45z" />
<glyph unicode="8" horiz-adv-x="1015" d="M1169 1087l19 -18v-8l-23 -31l-16 -4l-12 -12l26 -31v-8l-22 -29l-84 -24l-86 -33l-17 -15l-41 -16l-90 -51l-86 -55l-28 -31l-41 -31l-25 -26l-41 -25l-2 -14l-14 -15l-23 -53l101 -76l108 -102l82 -119l20 -45l11 -37l4 -53l-4 -33l-15 -22l-57 -56l-127 -84l-102 -49 l-105 -31l-260 -24l-37 10h-28l-21 6l-20 19l-29 12l-14 14l-39 80l-2 19l6 28v33l14 66l57 147l44 98l79 144l-53 57l-45 66l-20 57v43l22 63l27 43l96 105l137 115l185 112l79 41l93 29h14l45 -10l41 -29l43 -74v-28l25 6l118 14l64 12h39l30 -30v-7zM571 227l-96 82 l-55 45l-37 -63l-4 -27l-12 -18l-2 -17l-25 -45v-10l-8 -22l8 -29l31 -6h28l19 6h47l162 27l8 6zM801 1018v4q0 6 -8 6l-15 -2q-8 0 -19 1t-16 1q-8 0 -22 -3.5t-19 -4.5q-30 -5 -117 -63.5t-166 -131.5t-79 -108q0 -10 11 -28.5t28 -18.5q7 0 72 75q202 232 278 232 q8 0 8 2v4q0 6 8.5 11t26.5 11.5t29 12.5z" />
<glyph unicode="9" horiz-adv-x="1015" d="M995 1233l13 -14q28 -36 28 -95t-20.5 -132.5t-32.5 -92.5l-8 -22q-15 -44 -21 -50q-9 -25 -19 -46.5t-16.5 -32t-13.5 -20.5t-8 -11l-16 -39v2l-7 -10q-23 -62 -76.5 -189.5t-88.5 -183.5l-2 -10q-35 -64 -70 -109q-60 -108 -94 -153l-6 -7q-15 -12 -21 -18l-4 -4l-2 -4 q0 -10 -16 -31l-2 -14l-31 -31q-27 -27 -33 -31l-18 -6q-45 0 -54 41v2l-2 10q0 30 33 72l2 2q1 0 70 139l35 78q11 32 19.5 56t15 41.5t12.5 33t9.5 24t9 20.5t8 17t9.5 20t11 22l8 14q16 36 16 43l4 6q-48 -33 -94 -33l-10 -2l-92 -10h-103q-30 10 -36 10l-11 2l-41 19 l-10 6q-4 4 -10 6q-45 20 -119 148l-2 4q-31 76 -31 143v43l21 78l24 39q54 87 124.5 156t132 105.5t116 61t85.5 32.5l32 7q71 19 123 19q30 0 51 -1t42 -7t32 -9t33 -16.5t31 -20t39.5 -30t47.5 -35.5zM741 975l4 12q7 21 7 88q0 18 -16 29.5t-36 13.5q-6 -3 -20.5 -7.5 t-47.5 -14t-65 -19.5q-10 -10 -32 -19t-35 -11q-25 -15 -111 -97q-28 -36 -70 -139q-5 -12 -10.5 -26t-8.5 -20.5t-7 -10.5q35 -56 80 -56l10 2l10 -2q17 0 35 -4h2q21 -6 33 -6q135 0 196 86l54 82q22 75 28 119z" />
<glyph unicode=":" horiz-adv-x="460" d="M371 80l6 -29v-10l-6 -61l-13 -23l-20 -16l-23 -9l-8 -16l-31 -16l-26 4l-17 2l-38 18l-50 41l-12 17l-12 20l-2 -2l-10 12l-7 23l-26 18l-13 35l3 10l4 23l4 26l6 11l6 8l-4 18l20 39h7l8 15l16 20l17 12l36 4l29 -18l6 10l17 4l18 -20l31 -19v-4h6l18 -16l13 -31h4 l18 -16l2 -8l19 -27l4 -25l-4 -10zM438 563v-10l-6 -61l-12 -23l-21 -16l-22 -9l-8 -16l-31 -16l-27 4l-16 2l-39 18l-49 41l-12 17l-13 20l-2 -2l-10 12l-6 23l-27 18l-12 35l2 16l6 17l2 26l6 11l6 8l-4 18l21 39h6l8 15l17 20l16 12l37 4l28 -18l7 10l16 4l18 -20l31 -19 v-4h6l19 -16l12 -31h4l19 -16l2 -8l18 -27l4 -25l-4 -10z" />
<glyph unicode=";" horiz-adv-x="407" d="M324 563v-10l-7 -61l-12 -23l-20 -16l-23 -9l-8 -16l-31 -16l-26 4l-17 2l-39 18l-49 41l-12 17l-12 20l-2 -2l-11 12l-6 23l-26 18l-13 35l2 16l6 17l2 26l7 11l6 8l-4 18l20 39h6l8 15l17 20l16 12l37 4l29 -18l6 10l16 4l19 -20l30 -19v-4h7l18 -16l12 -31h4l19 -16 l2 -8l18 -27l4 -25l-4 -10zM244 193q15 -20 26 -56l2 -8q0 -47 -30 -129l-4 -8l-62 -82q-29 -24 -47 -51l-2 -2q-3 -2 -35 -39l-10 -8q-14 -9 -14 -13l-11 -8q-52 -39 -92 -76l-6 -4q-9 -6 -33 -18l-37 6l-16 16q-31 0 -39 25q0 27 12 55l11 27l114 162q3 5 7 12t10 16 l10 15q-25 25 -25 67v6l7 35v4q8 16 8 27l4 8q2 4 22 49l6 10q2 2 7 6.5t11 10.5t11 12l8 6q8 6 25 6q36 0 43 -4q1 0 19 -5t32 -10t34 -21t34 -39z" />
<glyph unicode="&#x3c;" horiz-adv-x="907" d="M926 842l-2 -13v-12q2 -17 -4.5 -31.5t-21.5 -26t-32 -21t-42.5 -18.5t-44.5 -15.5t-46 -14t-41 -12.5l-10 -2h-2q0 -3 -27 -17l-14 -4h-23q-8 -2 -8 -4l-28 -4l-35 -31l33 -36q15 -17 69 -66t78 -84l8 -12q35 -53 35 -99q0 -31 -14 -68.5t-39 -45.5l-2 -2q-2 0 -6.5 -1 t-6.5 -1v22l-22 -16q0 2 -4 5.5t-4 12.5l-27 25q-6 7 -29 29t-34 38l-58 60q-52 63 -99 101t-110 50l-12 9q0 -5 -14 -5l-15 5l-16 8l-4 2q-16 8 -57 49l-15 55l10 17q0 38 11 55l2 2q31 39 96 55h6q9 0 20 -2l11 -2q2 0 14.5 6.5t22.5 8.5l51 8q20 5 129 51l20 4l9 10 q47 28 90 45h28l50 43q6 2 14 2l8 9q11 8 19 8l6 2l22 12h19q5 0 9.5 0.5t7 1t3.5 0.5t2 -1t3 -2t4 -3t7 -5t11 -7l2 -4q28 -55 33 -82zM702 223l5 -20z" />
<glyph unicode="=" horiz-adv-x="1134" d="M1096 248l2 -15q-16 -59 -117 -69q-29 0 -29 8l-12 -6l-25 -6l-84 8h-45l-34 -4q-9 0 -40.5 1.5t-49.5 0.5l-33 -2l-133 14h-172h-29q-7 0 -25.5 3t-25.5 3q-4 0 -7 -1t-4 -1h-2q-3 0 -10.5 -1t-11.5 -1q-21 0 -39 6l-6 2l-4 1q-3 1 -5 2t-6.5 3t-8 5t-8 7.5t-7.5 10.5 t-6 14t-4.5 18.5t-1.5 22.5v7q7 31 30 52.5t45 30t56 17.5q6 -1 25 6.5t32 7.5h2q26 -8 37 -35l131 9l123 -19q4 0 19 1t24 1q22 0 58 -3t50 -3q16 4 31 4l6 2l82 19l54 4q46 8 75 8q37 0 51 -14q21 -15 34 -34.5t16 -31.5l2 -12l2 -41h-2zM125 551q-10 6 -18.5 23t-8.5 30 l-2 2q0 40 23 51l6 17l12 14l47 25q6 2 27 2q67 33 158 33q17 0 52 -1.5t54 -1.5l303 5l51 8q13 0 19 -2l47 6l10 -10h23q63 -33 63 -115q0 -68 -28 -96l-25 -11q-78 5 -88 5h-6q-20 8 -23 12q-2 -1 -6 -3.5t-9 -4.5t-11 -2l-15 4q-4 0 -8 3l-4 3h-2q-34 12 -82 12h2l-88 8 l-68 -8q-42 0 -143.5 -21.5t-148.5 -21.5h-2q-60 0 -111 35z" />
<glyph unicode="&#x3e;" horiz-adv-x="862" d="M881 662q6 -9 6 -21q0 3 -2 -2q-27 -67 -48 -97q-15 -21 -30 -36v-2q-1 -1 -12 -25.5t-25 -40.5h-2q-26 -25 -101.5 -80t-103.5 -92l-8 -28q-2 -1 -8 -7l-17 -28q-1 -23 -27 -47t-52 -35l-2 4l-25 -8l-4 2l-14 2q-14 7 -19 8q-2 0 -18 13q-3 2 -5.5 4t-5.5 4v2 q-36 36 -36 100q0 21 2 31l10 18l2 18q4 11 11 19t15 13l7 5l2 2q20 33 60 67t81.5 69.5t65.5 72.5q4 11 4 13q-22 22 -46.5 40t-42 28.5t-50.5 29t-52 29.5l-80 43q-12 6 -16 6l-4 2q-35 13 -76 47t-41 69q0 2 1 5t1 4q-4 12 -4 18l18 19q29 61 82 61q9 0 21.5 -2t15.5 -2 q2 0 6.5 2.5t15 8t23.5 9.5l6 2l19 2l18 -4q28 -9 44 -25q13 -13 28 -36l2 -4l4 -11q4 -11 4 -20q0 -64 168 -131l17 -2l22 2q12 -6 16 -6l-2 -2l15 -4q9 -6 12 -6l12 -7l6 -8l31 -8l6 -6q13 0 19 -2q3 -2 8.5 -6.5t10 -8.5t3.5 -4l13 -10q0 -3 9 -4.5t20 -6.5t14 -17z" />
<glyph unicode="?" horiz-adv-x="985" d="M358 98l9 -37v-6q0 -41 -50 -123l-12 -10q-47 -30 -78 -55l-4 -2q-13 -8 -47 -8h-12q-28 4 -55 24l-33 33q-3 4 -8 11t-8 11.5t-5 8.5v2q-2 2 -6 10l-2 16q-4 3 -10 11.5t-10 11.5l-4 33q3 6 21.5 35t35.5 59l12 10l12 6l7 8q7 5 30 25l2 2q9 8 25 16.5t22 8.5 q30 0 42.5 -2.5t46.5 -14.5l-3 -2l3 8v2q2 0 10.5 -6t11.5 -6l25 -16q10 -14 22 -49v2l2.5 -2.5t2.5 -4t1 -6.5zM293 176l2 4zM348 111l2 2zM961 1114v-2q0 -18 -8.5 -51t-8.5 -51l-2 -4q-8 -20 -8 -27l-8 -14q-20 -23 -58 -74q-6 -8 -28.5 -27.5t-36.5 -38.5l-4 -4 q-84 -84 -107 -110l-2 -2q-103 -81 -170.5 -149t-103.5 -144q-23 -47 -72.5 -91t-101.5 -44t-52 79q0 8 1.5 14t1.5 7q65 128 109 203.5t97 140.5l2 2q13 15 55.5 62t65.5 74t48.5 63t31.5 59q0 14 -2.5 27.5t-5 22t-2.5 9.5l-23 13q-1 1 -2 4t-2 4l4 4l-2 2q-10 0 -10 -2 q-10 0 -20 10l-7 4q0 9 -24 9q-37 0 -79.5 -26t-88.5 -54t-88 -31h-2q-28 0 -65.5 32.5t-37.5 55.5q0 38 61.5 115.5t137.5 111.5l2 2q9 4 41.5 18.5t44.5 19.5t39.5 16t44 15.5t41 11t46.5 8.5t46 2q113 0 208 -81t104 -194z" />
<glyph unicode="@" horiz-adv-x="1212" d="M1184 569q6 -9 6 -22q0 -5 -1 -11l-1 -6v-6q0 -74 -70 -227q-51 -116 -164 -191q-10 -4 -38.5 -33.5t-53.5 -37.5l-16 -2l-49 12l-64 -10q31 -15 31 -60h-31l25 -16q-10 -10 -29 -44t-37.5 -62.5t-54 -52t-78.5 -23.5l-2 2q-8 0 -12 2l-4 -4l-17 6q-1 -1 -5.5 -2.5 t-6.5 -3.5q-7 0 -110 28.5t-144 28.5q-4 -4 -10 -4q-1 0 -4 1t-4 1l-2 -2l2 -2h2q0 6 -49 25q-96 36 -140.5 123t-44.5 204q0 47 4 74l2 2q195 636 643 696h19h6q8 4 88 4h16l11 -12l4 8q116 0 218 -71.5t144 -188.5v-2q21 -64 21 -121zM561 -207l6 -10zM682 387 q28 58 35 80q0 5 -7.5 11.5t-17.5 12t-12 7.5q-45 0 -96 -20t-91 -61.5t-40 -92.5q0 -4 1 -8t1 -7q0 -8 -2 -10q37 -84 65 -84q13 0 80 16q5 0 11 6t13 18t13 23.5t14 29.5t12.5 29t11.5 28t9 22zM940 324q32 49 35 114l-4 15q0 12 4 16l-8 45q0 5 1 17t1 16l-2 33 q4 20 4 24q0 27 -38 69t-63 50v2l-2 -2q-68 29 -133 29q-137 0 -256.5 -74.5t-189.5 -198.5l-29 -41q1 -2 -12.5 -42t-28 -97.5t-14.5 -97.5q0 -114 71 -166.5t213 -52.5q52 0 91.5 10.5t91.5 36.5q-92 -15 -115 -15q-16 0 -24 1t-70 1q-49 0 -86.5 20.5t-57.5 49t-32 66 t-15.5 64t-3.5 50.5q0 86 56.5 180t155 160t202.5 66q32 0 66 -8t67.5 -24t54.5 -45.5t21 -68.5q0 -48 -36 -136t-36 -107q0 -11 12 -11q39 0 62 12.5t47 39.5z" />
<glyph unicode="A" horiz-adv-x="841" d="M809 1065q4 -9 4 -41q0 -245 -35 -367q-8 -27 -11 -76t-11 -71q0 2 4 6q-6 -18 -6 -41q0 -7 9 -24t9 -29q-3 -23 -12 -43q-8 -15 -10 -25v-12q0 -8 2 -10l-9 -49q5 -35 5 -47q0 -4 -5 -39q7 7 7 16l16 -197q0 -13 -3 -37t-3 -40q2 -4 2 -19q0 -17 -17 -42.5t-20 -39.5v2 q-2 0 -6.5 -15t-15 -30.5t-27.5 -15.5q-60 0 -109 383q-4 2 -4 14.5t-1 27t-6.5 29t-24 24t-50.5 9.5q-15 0 -162 -18q-11 -2 -23.5 -41t-27.5 -91.5t-28 -74.5l6 10q-55 -227 -154 -227q-41 0 -70.5 40t-29.5 85q0 40 11.5 83.5t38.5 111t30 75.5q1 4 17.5 43t16.5 57 l-4 39q0 12 4.5 25.5t11 29.5t9.5 25q0 -4 -1 -6q-1 -1 -1 -2q7 16 28 42.5t29 47.5q26 85 103.5 236t103.5 221q113 301 205 301q57 0 113 -32.5t79 -82.5q8 -18 13.5 -51.5t9.5 -46.5zM559 506q1 13 8 66.5t10 89t3 69.5l-9 211q-9 -23 -54.5 -129t-74 -181t-41.5 -130 q64 0 158 4zM745 342q0 1 1 2.5t2 4.5t2 5q0 -1 -1 -2.5t-2 -4.5t-2 -5z" />
<glyph unicode="B" horiz-adv-x="946" d="M987 977q-2 -6 -2 -23v-26q0 -34 -24 -68q-14 -36 -40.5 -60.5t-31.5 -31.5q-17 -25 -88 -85.5t-101 -96.5q79 0 144 -54.5t65 -128.5q0 -63 -75 -153l-37 -45q-20 -23 -57.5 -51t-67.5 -58q3 9 6 15q-7 -7 -22.5 -23.5t-23 -23t-20 -17t-23 -16t-22.5 -8.5q-9 -3 -23 -6 t-23.5 -5.5t-12.5 -5.5q-32 -21 -49 -31q-51 -30 -76 -30q-5 0 -11 1l-7 1q-3 0 -19.5 -9.5t-30.5 -9.5l-18 6h-2q0 3 2 5q-8 0 -15 -8.5t-10 -8.5h-6h-4q-49 -35 -84 -35q-22 0 -28 25l-11 -2q-32 0 -62 25.5t-30 64.5q0 68 25.5 204.5t25.5 207.5q0 13 7.5 42t7.5 46 q0 13 16 80q6 28 11.5 60.5t11 73t8.5 60.5q0 2 -20.5 38.5t-20.5 70.5q0 7 3.5 14t10 16t8.5 13q4 6 6 18t7 17q33 44 90 92q22 19 52.5 39t84.5 49t126 47t146 18q157 0 241.5 -65t92.5 -164zM299 -59v2q0 2 2 4q-2 -2 -2 -6zM700 381q-38 6 -75 6q-34 0 -94.5 -11 t-86.5 -11h-10q-9 0 -16 -0.5t-14 -2.5t-11.5 -3t-11.5 -6t-9.5 -6.5t-10.5 -9.5t-10 -10.5t-12 -13.5t-13 -14q-24 -24 -52.5 -109.5t-40.5 -171.5q22 8 84.5 59.5t94.5 69.5q23 12 62.5 47.5t60.5 49.5l55 45q11 5 25.5 23t27.5 22q8 3 17 9t14 11t14.5 15t11.5 12z M768 879q2 2 2 4q-15 6 -31 6q-23 0 -88 -17q-49 -11 -121.5 -48.5t-72.5 -69.5l4 -43q0 -17 -12 -45q85 28 170 86t149 127z" />
<glyph unicode="C" horiz-adv-x="782" d="M977 987l12 -84l-20 -12v-19l-4 -2l2 -6l-54 -26l-8 10l-10 -4l-25 14h-6h-4q-12 -4 -24 -4h-15l-20 6l-13 10l-4 11l-2 -2q-2 6 -10 14l-2 -4l-12 -2q-26 -15 -41 -19l-27 -20l-33 -23q-12 -9 -31 -31.5t-28 -29.5l-35 -31l-45 -59l-29 -64l-43 -73l-16 -17l-18 -53 l-23 -39l-22 -53l-43 -127l-13 -68v-47l8 -33l17 -22l29 -17l34 -4h52l122 23l31 -12l6 -9l-4 -4l8 -2l4 -24l5 4l4 -8l-6 -11l6 -16l-21 -41l-20 -8l-64 -31h-8l-59 -24l-160 -15l-84 19l-66 30l-57 41l-39 45l-41 82l-8 64v80l8 24l-2 17l4 16l4 37l15 35l16 53l70 149 l16 21l4 14l25 37q1 1 3 2t3 2q9 23 20 41t30 40.5t22 27.5l36 49l68 86l12 8l4 10l58 70l28 22l62 70l12 4l6 10l31 21l14 16l25 13l4 -2q2 0 2 2l49 22l113 19h24l35 -11l29 -14l18 -14q0 -1 1 -2t1 -2h4v-3l23 -10l21 -10l2 -4l14 -19l14 -20l27 -49l-2 -12zM870 1128 l-2 -4z" />
<glyph unicode="D" horiz-adv-x="1015" d="M987 791q21 -62 21 -125q0 -24 -9 -65t-10 -48q0 -71 -52.5 -158.5t-135 -166.5t-179 -148t-188.5 -113q-9 -4 -31.5 -18t-35.5 -17q-8 -3 -29 -4.5t-31 -5.5h-4l-4 -4q0 2 2 2q0 -7 -29.5 -14.5t-40.5 -7.5q-9 0 -36 16v-2q-3 6 -15 6l-14 -2q-6 0 -8 2q-2 -2 -11 -2 q-16 0 -30 14q-2 -2 -6 -2q-6 0 -19 17q-2 0 -11 -3t-15 -3q-17 0 -35.5 12.5t-18.5 40.5q0 19 7.5 40t21 47.5t18.5 37.5q0 80 12.5 171t35 207t30.5 171q3 10 9.5 34.5t9.5 38.5q6 40 32.5 130.5t30.5 142.5q4 30 8.5 48.5t18 39.5t35.5 28q18 6 58 39t73 33h30l66 12 q27 0 88.5 -20.5t101.5 -44.5q125 -78 190.5 -160t98.5 -196zM774 598q4 28 4 41q0 24 -10 66q-12 48 -32.5 84.5t-40.5 58.5t-56.5 41.5t-60 28.5t-71.5 25q-10 3 -15 5q-51 -22 -56 -35q0 -25 -4.5 -52.5t-12.5 -65t-11 -52.5q-26 -117 -35 -188q-7 -42 -42.5 -189.5 t-35.5 -220.5q49 18 103.5 45.5t119 71t116.5 92t91.5 113.5t48.5 131z" />
<glyph unicode="E" horiz-adv-x="999" d="M1153 1116q6 -15 6 -29q0 -35 -38 -48.5t-91 -16t-67 -10.5q-10 -6 -48.5 -20t-111.5 -30t-137 -16q-10 0 -17.5 -2t-10.5 -3t-10.5 -6.5t-9.5 -6.5q-54 -41 -77 -60t-54.5 -51.5t-47.5 -66t-27 -78.5q117 6 118 6l56 -2l32 2q7 0 30.5 -4t37.5 -4t38 5t36 5q61 0 61 -53 q0 -28 -18 -51t-43.5 -37t-62.5 -25.5t-64 -16.5t-60.5 -11t-40.5 -7q-2 0 -38.5 -1.5t-67.5 -8.5t-49 -23q-17 -13 -37.5 -41.5t-20.5 -39.5q0 -49 5.5 -79t15.5 -41.5t20 -15t22.5 -4.5t18.5 -6q3 -3 10 -10.5t11 -11.5t9.5 -7.5t10.5 -3.5q22 0 50 4t46.5 8t53.5 12 t47 11l59 15q27 0 34.5 -12t12.5 -46q-1 0 -3.5 -10.5t-2.5 -15.5q-28 -104 -104.5 -146.5t-196.5 -42.5q-55 0 -100.5 14.5t-76 32t-56 54t-38.5 59.5t-26 71.5t-16 66t-11 64.5q-1 7 -2 10.5t-1.5 9t-1.5 9.5q0 163 45 297q5 18 20.5 63t25 79.5t9.5 52.5q-25 44 -25 63 q0 4 4 15.5t5 15.5q30 82 59 98q8 3 17.5 10.5t15.5 14t15 16.5t13 13q0 4 -1 7l-1 3q0 34 34 54t71 20q9 -1 32.5 -5t36.5 -4l154 7l233 -7q28 4 31 4q56 0 136 -12.5t114 -42.5z" />
<glyph unicode="F" horiz-adv-x="886" d="M860 1227q42 0 93 -41t51 -86q0 -44 -44.5 -75.5t-107.5 -31.5l-33 4q-11 9 -14.5 19.5t-7 15t-17.5 4.5q-38 0 -108 -18q-118 -30 -209 -76q-12 -67 -51 -229l-2 -11q-2 -44 -21 -90q0 -16 6 -22q18 3 107 28q4 4 36.5 16.5t90 26t106.5 13.5q34 0 59 -18t25 -62 q0 -37 -96 -74l-31 -12q-38 -13 -203 -59l-43 -13q-60 0 -104 -67q-13 -56 -28 -134t-26.5 -132t-25.5 -89q-1 -1 -5 -10.5t-7.5 -16t-10 -16.5t-14 -17t-17 -14t-22.5 -10.5t-28 -3.5q-50 0 -94 38.5t-44 60.5q0 40 4.5 76.5t11 69t24.5 122t36 182.5q-4 20 -4 27 q0 11 2.5 20t8.5 20.5t6 12.5l2 2q19 70 40.5 170.5t37.5 165.5t30 92l-2 23q0 143 100 143q48 0 81 -10.5t34 -10.5q66 0 250 48q60 15 178 49z" />
<glyph unicode="G" horiz-adv-x="1142" d="M1081 532q2 -6 2 -32q0 -79 -75 -250q-12 -27 -53 -116t-61 -142t-20 -80q0 -21 -7 -38t-27 -52.5t-37 -71.5q-15 -25 -21 -43q-2 -4 -10.5 -33.5t-18.5 -47t-24 -17.5q-5 0 -27 6.5t-22 9.5q3 127 1 209.5t-6 98.5t-6 39.5t1 31.5l-23 2q-48 0 -157 -31.5t-162 -31.5 q-79 0 -141.5 42.5t-98 109t-54 138.5t-18.5 140q0 77 21 139q25 82 77 180t120.5 192.5t155.5 172t171 110.5q54 21 164 41q-2 -2 -4 -2q12 2 36.5 9t44.5 10.5t38 3.5q55 0 89 -24q25 -18 25 -46l-2 -22q0 -9 3 -25.5t3 -24.5q0 -37 -47 -67.5t-92 -30.5q-8 0 -25 4t-24 4 t-23 -6t-30 -6q-17 0 -34 -9.5t-25.5 -18t-27 -29t-22.5 -25.5l-73 -86q-6 -8 -19 -18t-16 -13q-14 -11 -19 -17t-7 -19.5t-3 -16.5q-2 -12 -8.5 -25.5t-13 -24t-18.5 -24.5t-19 -20.5t-20 -19.5l-15 -15q0 -23 -8 -57t-25 -55l2 2q-2 -2 -10.5 -11.5t-14.5 -17.5t-6 -12 l2 -35q0 -13 -6 -25q0 -16 7.5 -44t23.5 -62.5t48.5 -59t74.5 -24.5q39 0 126.5 24t100.5 52q52 97 105 231q3 6 11 32t17 47.5t23 46t35 38.5t47 14q24 0 40.5 -7.5t29 -19t20.5 -14.5q15 -6 26 -20.5t15.5 -27t10.5 -35.5t9 -32z" />
<glyph unicode="H" horiz-adv-x="1036" d="M1053 616q12 -16 12 -28q0 -13 -30 -34.5t-54 -31.5q-35 -12 -84 -12q-6 -8 -15.5 -29.5t-20.5 -48.5t-17 -39q-13 -26 -21 -76t-14 -69q-7 -18 -10 -54.5t-11 -54.5l3 -16q0 -8 -3 -21.5t-4 -17.5l2 -25q0 -9 -8 -38t-8 -37l2 -17q0 -6 -4.5 -10.5t-12 -8.5t-10.5 -7 q3 2 9 4q-13 -13 -30 -18t-19 -9q-6 -16 -23.5 -26.5t-32.5 -10.5q-22 0 -38.5 15.5t-26 43.5t-15.5 55t-8.5 62.5t-3 51.5t-0.5 36q0 30 2 61.5t7 71.5t7.5 59.5t11 71t9.5 60.5q-32 -3 -98 -15t-103 -16q-38 -134 -57 -172q-14 -33 -41 -104.5t-45 -112.5 q-5 -11 -16 -49.5t-20.5 -68.5t-28.5 -55.5t-42 -25.5q7 0 -1 2q-45 8 -48 17q-18 106 -18 178q0 405 147 840q71 274 177 300q10 3 20 3q48 0 79 -38t31 -112q0 -13 -4.5 -36.5t-5.5 -32.5q0 2 -2 4q0 -52 -11 -105t-31.5 -119t-26.5 -89q35 0 192 20q59 234 154 457 q1 1 6 19.5t12 35t27 31t49 14.5q7 0 16 -2t13 -2l26 2q11 0 19 -4q36 -28 46.5 -50.5t10.5 -62.5q0 -11 -1 -22.5t-2.5 -25t-2.5 -21.5q-4 -26 -15.5 -97t-17.5 -104.5t-17.5 -88t-23.5 -99.5q7 -2 29 -7.5t36 -10t29 -12t19 -16.5z" />
<glyph unicode="I" horiz-adv-x="512" d="M563 1069v-14q0 -78 -35 -162q-120 -274 -184 -510q-4 -16 -17 -51.5t-22.5 -69.5t-13.5 -67q-2 -10 -6.5 -42.5t-8 -53t-11 -55t-14.5 -57.5t-19.5 -51t-26 -44t-33 -27.5t-41.5 -11.5q-15 0 -26 5t-17.5 16.5t-10 22t-5 30.5t-1.5 32.5t0.5 36.5t0.5 35l4 86l-6 127 q0 40 8 92t15 83.5t25 104t23 92.5l15 35q25 82 42.5 133.5t51.5 130.5t76 152q14 32 54 71.5t93 39.5q25 0 43 -10t27 -28.5t13 -33.5t7 -37z" />
<glyph unicode="J" horiz-adv-x="1224" d="M1675 1198q2 -2 2 -14q0 -33 -19.5 -47t-92.5 -39q-27 -5 -82 -46.5t-86 -41.5q-11 0 -45 -19.5t-60 -19.5h-6q-12 0 -29 -17q-5 -5 -10.5 -9.5t-12 -8t-11.5 -6t-14 -5t-13 -3.5l-14 -3.5t-13 -3.5q-13 -4 -39 -15t-43 -15q-8 -2 -27.5 -6t-31.5 -6.5t-26 -7t-22 -10.5 t-9 -13q-38 -189 -92 -353q-6 -14 -18 -39.5t-18.5 -40t-13.5 -36.5t-10 -43q-3 -19 -19 -61.5t-16 -63.5q0 -15 -3 -31.5t-8 -36.5t-7 -31q-9 -41 -33 -116.5t-49 -112.5q-23 -31 -42.5 -52t-33.5 -32.5t-34 -19.5t-31 -10.5t-37.5 -7t-42.5 -7.5l6 4l-27 -6l-20 4 q-8 0 -18 -1t-15 -1q-61 0 -135 33.5t-115 95.5q-65 97 -65 170q0 41 5 63t19 58q2 7 5 18t13.5 39t21.5 50t26.5 39.5t30.5 17.5q10 0 21 -19t11 -26q0 -5 -4 -19t-4 -16q0 -7 6 -25l-8 -37v-8v-16q0 -10 4 -14l-4 2q1 -7 14 -15t13 -16l-2 -27q0 -10 11 -29t19 -24 q18 -5 77 -39.5t93 -34.5q28 0 74 21q17 7 25.5 25.5t15 47.5t14.5 46q29 55 29 186q0 49 16 136t19 120q30 190 57 280q-19 -2 -56 -4t-60.5 -3.5t-55 -6t-57.5 -10.5q-54 -12 -78 -12q-39 0 -57.5 19.5t-18.5 43.5q0 9 13 25l-7 -4q4 35 116.5 96t150.5 61l12 -4 q2 1 5 8.5t10 14t18 6.5h20q8 0 16 2.5t12.5 4.5t14 7.5t12.5 7.5l-8 -12l6 6l5 5t4.5 4t4.5 3.5l4 2t6 1.5t6.5 0.5t8.5 0.5q18 0 25.5 12t12.5 32.5t14 30.5q5 9 18.5 13t19.5 10q5 9 19.5 18t30.5 9q14 0 29 -21.5t16 -21.5t12 2t25 2q11 0 32 -3t35 -3l64 12 q4 0 10.5 -7.5t11.5 -7.5l7 1q107 13 112 26q11 24 63 37.5t90 13.5h17l61 4q43 0 121.5 -16.5t89.5 -38.5z" />
<glyph unicode="K" horiz-adv-x="1171" d="M1300 1110l3 -20l-9 -23l-45 -47q-17 -4 -31.5 -20t-30.5 -41t-26 -37l-37 -43l-61 -50l-129 -98l-2 -2l-144 -92l-28 -12q-30 -13 -33 -13l-8 -4l-6 -4l-43 -20l-19 -2l-18 -13l-15 -10h-2l-32 -18q-13 0 -62 -35l-6 -4q0 -2 -2 -2h-4q64 -45 68 -41l4 -2l131 -82 l51 -33l192 -154q0 -4 11.5 -20t17.5 -12l10 -6l52 -52l36 -59l4 -19v-6l-2 -10l9 -8l4 -6l4 -6q3 -9 6 -9l12 -12l4 -10l-14 -39q-7 -3 -20 -16l-35 -13q0 1 -6.5 2.5t-13.5 2t-11 -0.5l-25 13q-6 2 -9.5 2.5t-4.5 0.5t-3 0.5t-5 2.5l-23 4q-9 5 -30 16.5t-35.5 18.5 t-24.5 10l-4 2l-69 41q-15 10 -33.5 20t-29 15t-11.5 6q-1 0 -3.5 1t-6 2.5t-5.5 2.5q-8 4 -14 6l-2 2l-299 162q-2 0 -2 2l-4 4l-8 4l-8 4l-9 9l-16 14l-12 -37l-4 -8q-18 -11 -66 -135l-45 -84l-35 -43l-22 -10h-31l-31 30q1 1 -1 2q-3 1 -3 2l-16 21v4l-8 4q-3 0 -3 2 l-14 27l2 51q0 -8 7 25t18.5 90t17.5 84l33 135q2 2 6 20t4 25l2 6l27 78q29 81 29 82l4 20l4 17l2 6l39 86q5 0 9.5 17t4.5 26l4 10q10 17 20.5 43t6.5 37l4 10q4 4 9 23.5t5 25.5l41 82l25 33l33 31l14 8q2 -1 78 18h51l22 -8l25 -25l8 -20l2 -31l-12 -108q-4 -7 -21 -72 l-2 -6l-4 -8q-5 -14 -4 -15l-2 -8q-2 -2 -2 -8l-2 -12l29 18q4 1 8.5 4t5.5 4l6 2q3 -3 25 8t66 35.5t63 34.5q0 2 2 4q0 2 2 2l6 4q265 170 272 174l9 7l24 7v1l21 8q1 0 2.5 0.5t5 1.5t6.5 2q8 4 10 6l25 -2q2 2 6 2q1 0 7 2.5t17 6t21 6.5q2 1 18 5.5t25 8.5l27 -2 l20 -12z" />
<glyph unicode="L" horiz-adv-x="677" d="M678 -14h-2l2 -13l-31 -34l-80 -31l-71 -19l-72 -12l-92 10l-78 27l-64 37l-53 47l-35 51l-10 25q-8 13 -14 32.5t-8 24.5v12q-4 20 -4 29l-7 18q0 15 2 17l-4 20v27q2 10 2 18v15q14 90 47 231t132 526q0 3 21.5 54.5t21.5 68.5v2v9q1 2 3.5 26t9.5 50t21 40v11l15 22 l-2 2v-6l1 4q1 4 3.5 9.5t7 11.5t13.5 10t22 4l20 -2h2l19 -6q4 -4 31 -25t46 -39t36.5 -55t17.5 -80t-4.5 -68t-18 -79t-26.5 -125l-9 -17q-16 -8 -57 -159l-2 -21q-1 -3 -70 -188l-6 -9l-2 -14q-7 -9 -26 -96q-5 -20 -11 -60t-9.5 -69.5t-4.5 -30.5l2 -4v-4l2 -25l19 -73 l16 -31l27 -16l32 -9l52 -4l196 13l31 -31l-2 -27l4 2l2 -8l-6 -6zM283 1180l4 6q-1 -1 -2 -3t-2 -3z" />
<glyph unicode="M" horiz-adv-x="1351" d="M1339 1147q4 -32 4 -49q-3 -199 -61 -443q-6 -25 -16.5 -111t-28.5 -134q1 2 2 4.5t1.5 3.5t0.5 2l-37 -289q1 2 2 5l1.5 4.5t0.5 2.5q0 -53 -15.5 -90.5t-33.5 -69t-22 -63.5q0 -12 -19.5 -53.5t-38.5 -44.5q-3 7 -21 14t-22 14q0 18 -9 69t-9 81q0 -4 2 -6l2 35 l-3.5 -7t-2.5 -8l2 33l-4 96l2 459l-8 117q0 41 6 82q-41 -41 -97.5 -165.5t-93.5 -176.5l2 6q-35 -64 -133.5 -199t-128.5 -135q-12 0 -22 11.5t-16 32t-10.5 39t-8.5 41t-6 30.5q-53 170 -78 319l-19 -26q-17 -22 -41 -103q-52 -147 -94 -381q-33 -217 -110 -217 q-30 0 -50.5 22t-28 56.5t-9.5 54.5t-2 39l16 115q0 64 29 194q29 143 45 216.5t50 189.5t73 201q4 8 20.5 35.5t24.5 46.5q0 -5 -4 -9q45 92 131 92q211 0 211 -311l-2 -213q70 98 183 285t167 268q4 5 18.5 28.5t24 37t27 35t32 34t33.5 22t37 9.5q33 0 59 -12t41 -28 t27 -43.5t17 -46t11 -48.5z" />
<glyph unicode="N" horiz-adv-x="1253" d="M1278 1346q0 -14 -3 -29.5t-8 -34.5t-7 -29q-4 -18 -4 -50.5t-3 -47.5q-8 -41 -10 -117.5t-6 -109.5q-3 -24 -18 -90t-15 -97l4 -30q0 -6 -6 -54q-11 -55 -22.5 -165.5t-24.5 -169.5q-4 -19 -12.5 -68.5t-17.5 -84.5t-25 -65q-17 -29 -44.5 -41.5t-55 -19t-39.5 -18.5 q-22 -22 -35.5 -34t-36.5 -24t-45 -12q-23 0 -44.5 11.5t-30 19.5t-29.5 36.5t-23 30.5q-82 98 -115 150l-104 190q-22 32 -49.5 104.5t-40.5 96.5q-11 -40 -42.5 -146.5t-52.5 -190t-37 -171.5l-3 -14q-3 -13 -6.5 -24.5t-9 -31.5t-13 -36t-17 -36t-22 -34.5t-26.5 -27.5 t-32 -20t-38 -7q-26 0 -50 25.5t-24 64.5q0 8 3 15.5t3 10.5l-4 35q0 49 26 125q7 26 16.5 80t16.5 80q26 109 65.5 318t61.5 304q21 94 40 127q32 56 89 56q50 0 94 -44t64 -96q18 -44 57.5 -122t48.5 -97q7 -15 51.5 -129t73.5 -155q10 -25 44 -97.5t40 -72.5q40 0 43 39 q1 38 23.5 111.5t26.5 90.5q15 71 37.5 197t44.5 232.5t47 199.5q4 15 12.5 52t14.5 57.5t19 51t28 47.5t40 29.5t56 12.5q53 0 61 -57z" />
<glyph unicode="O" horiz-adv-x="1155" d="M1112 602q2 -11 3 -38.5t5.5 -47.5t14.5 -37q0 -68 -24.5 -145.5t-75.5 -155.5t-120 -141.5t-168.5 -103t-211.5 -39.5q-81 2 -165.5 34t-155.5 86t-116 136.5t-45 177.5q0 102 43 232t126.5 257t185.5 201q21 14 57 24.5t49 18.5q9 9 74 31t104 22q29 0 53.5 -8t49 -27 t40 -34.5t42.5 -45.5q17 -19 50.5 -49t59.5 -58t41 -58q54 -83 84 -232zM877 432q12 47 12 96q0 48 -12 90.5t-26.5 70t-47 62t-51.5 50.5t-62 51q-28 -12 -57 -12l-31 2q-21 0 -29 -8q-106 -83 -196 -241t-90 -308q0 -48 23.5 -82.5t61.5 -50.5t73 -22.5t71 -6.5 q49 0 88.5 9t66 21t55 38t45 46t46.5 60v-2q42 53 60 137z" />
<glyph unicode="P" horiz-adv-x="858" d="M950 897l8 -41q0 -11 -4 -39q0 10 -2 12q0 -6 -4 -34q4 4 4 6q-1 -3 -2 -11t-2 -12q-15 -61 -69.5 -120.5t-130 -107t-146 -81.5t-139.5 -59q-17 -10 -21 -15l-54 -50q-52 -53 -56 -73q-30 -140 -111 -342l-8 -12q-2 -3 -14 -21.5t-19 -26.5t-19 -21.5t-24.5 -19 t-25.5 -5.5q-88 0 -88 178q0 59 5 118t20 137.5t22 114t31 137.5t28 118q23 120 37 155q35 95 35 152l-13 102q0 34 50.5 73.5t116 65t110.5 25.5l76 -4q59 0 129.5 -22t133 -58.5t104.5 -92t42 -116.5v-10zM770 813v10q0 42 -56.5 80t-113.5 43h2q-28 4 -37 4 q-59 0 -75.5 -14t-18.5 -55q-4 -40 -11 -86.5t-13 -77.5t-18 -86t-17 -82q119 33 241 127q2 1 25.5 21t31.5 28t24.5 25t24.5 32t11 31z" />
<glyph unicode="Q" horiz-adv-x="1181" d="M1202 -66q1 -3 2 -6.5t1.5 -5t0.5 -2.5q0 -5 -16 -18q-10 -27 -26 -37t-42 -10l-37 8h-4q-11 0 -40 14.5t-44 26.5q-89 77 -174 188q-21 -32 -75 -86q-20 -37 -106 -85t-130 -48h-16l-17 -4q-6 0 -8 2q-20 -14 -90 -14q-39 0 -119 37q-89 38 -146 160t-57 239 q0 150 74.5 339.5t206.5 362.5q90 117 209 215q29 25 50 36t50 11q7 0 23.5 -2.5t40 -7.5t40.5 -17.5t17 -29.5q0 -13 -5 -26.5t-5 -16.5q10 -23 10 -33q0 -21 -5.5 -45t-23 -48t-43.5 -30q-20 -4 -36 -14t-24.5 -19.5t-30 -37t-34.5 -43.5q-4 -5 -8 -19t-8 -20 q-27 -42 -68 -127q-132 -281 -167 -520q0 -12 7 -29t7 -25q0 -61 90 -61q32 0 104.5 48.5t106.5 94.5q1 1 23.5 21t39.5 37.5t17 23.5v2q-70 98 -102.5 186.5t-32.5 207.5q0 42 24.5 70t75.5 28q12 0 19 -2.5t13.5 -8.5t10.5 -8q13 0 23.5 -4.5t16 -8t11.5 -15.5t7 -16 t5 -21t5 -19q28 -48 59 -90q38 161 51 351q-1 5 -4.5 26t-3.5 31q0 19 6.5 35t16.5 16q5 0 22.5 -9.5t37 -35.5t19.5 -59v-17q13 0 13 -24v-23q14 -14 14 -33l-8 -53q0 -17 7 -37t7 -30v-19q0 -7 4 -23t4 -24q0 -14 -9 -45.5t-9 -34.5l2 -12q0 -8 -6 -23t-6 -22l10 -45 q0 -29 -16.5 -65t-16.5 -44q0 -12 12.5 -36.5t30 -54.5t23.5 -42q10 -18 43 -74.5t50.5 -89t35.5 -79.5t20 -83z" />
<glyph unicode="R" horiz-adv-x="1089" d="M1161 176q4 -16 4 -29q0 -27 -40.5 -41t-69.5 -14q-19 0 -53 12t-91.5 37t-72.5 31q-29 11 -63 26t-58 27t-62.5 31t-58.5 29q-114 61 -143 61q4 0 -4 -5q-6 -2 -25 -11q-98 -45 -98 -62v-14q0 -22 -15.5 -60t-17.5 -49q0 -15 -4 -30.5t-12.5 -40t-10.5 -29.5q0 2 2 4 q-51 -131 -104 -131q-21 0 -43 16q-18 10 -31.5 22.5t-21.5 28.5t-13 28t-6.5 32.5t-2 31.5t0 34.5t0.5 31.5q0 19 4 47q8 27 12 80.5t11 77.5q8 30 19 89t13 67q12 52 49.5 186t51.5 207q8 68 51 114t107 46q5 0 15 -2t17 -2q19 0 38.5 7.5t45.5 23.5t33 20q176 86 305 86 q105 0 174.5 -76t69.5 -174q0 -27 -5 -50.5t-11 -41t-19.5 -35.5t-22.5 -29t-29 -26.5t-30 -22.5t-34 -23l-33 -22q-23 -16 -97 -58t-106 -71q-2 -3 -6 -16.5t-19 -22.5q-3 -3 -3.5 -14.5t-8.5 -15.5q69 -39 203.5 -110t197.5 -106q11 -7 35 -20.5t36.5 -21t27 -23.5 t22.5 -35zM543 696l24 13q21 7 59.5 31.5t81.5 59t74 80t31 85.5q-30 -13 -63 -19q-33 -8 -70 -19.5t-88 -39.5t-70 -60q-16 -24 -37 -70t-28 -59v2l-2 -6q0 2 2 4l-8 -36q57 17 94 34q-2 -2 -4 -2l6 2h-2z" />
<glyph unicode="S" horiz-adv-x="980" d="M987 1024q4 -28 4 -33q0 -30 -19.5 -54t-47.5 -24q-17 0 -19 2q0 -4 -3.5 -6t-9.5 -2.5t-11.5 -0.5t-13.5 0.5t-11 0.5l-16 4l-95 29q-6 -2 -24 -2q-17 0 -31 2q-17 0 -46 -12t-40 -23l-4 -2q-13 0 -54.5 -44t-41.5 -60l-5 -8q-5 -8 -12 -21t-13.5 -29t-11.5 -36.5 t-5 -38.5q0 -19 2 -29v-2q0 -3 24 -45q36 -48 71.5 -72t108 -62t148.5 -91l6 -5l16 -16q16 -15 20.5 -20.5t20 -23.5t22 -30t18 -34t16.5 -41.5t9.5 -46.5t4.5 -56q0 -56 -16 -94l-66 -92q-45 -33 -139.5 -49.5t-179.5 -16.5q-39 0 -66 8l-4 2l2 -2l-10 2q-78 12 -100 23h-7 q-30 9 -61 17t-48 12.5t-31.5 9t-21 6.5t-8.5 4l-8 6q-1 -1 -5 4t-13 11t-19 6l-8 -2l-14 4q-16 12 -23 12l-20 29l6 26q3 6 12.5 26.5t14 28.5t17 23.5t25.5 22t35 12.5t50 6q26 0 56 -10t40 -10l18 -6q64 -21 127 -33l10 -4q31 -17 89 -17q16 3 39 32.5t30 35.5v2l-17 19 q-18 20 -24 20q-2 0 -2 -2l-6 4q-32 24 -57 35l-27 22l-2 1q-2 2 -6.5 5.5t-9 7.5t-7.5 10.5t-4 12.5q-8 10 -29.5 24t-58 37.5t-65.5 45.5l-6 4q-69 64 -92 103.5t-50 144.5v14q2 16 6 31q0 2 -2 4v2v14q0 1 2.5 11t7 27t10.5 38t15 50.5t19 59.5q6 31 49 74l4 12q3 2 6 13 q8 20 28 37.5t79 54.5q63 46 115 72t81 32.5t81 14t87 16.5h6q8 0 10 -2q4 2 17 2q10 0 14 -2q2 2 12 2q59 0 134 -86l10 -16l2 -19q8 -35 10 -53z" />
<glyph unicode="T" horiz-adv-x="989" d="M1239 1065q-1 -4 -7 -10.5t-14 -12.5t-10 -8q14 0 19 8q-26 -29 -108 -59.5t-132 -30.5l-12 4h-4q2 0 2 -2q-2 2 -8 2t-16.5 -3t-12.5 -3l-18 4q-12 -4 -52.5 -6.5t-72.5 -7t-35 -14.5q-32 -128 -84.5 -366.5t-77.5 -344.5q-4 -19 -17 -61.5t-18 -67.5q-5 -19 -9 -87 t-24 -101q-12 -12 -49.5 -35t-58.5 -27q-16 0 -27 4.5t-18 16t-11 21.5t-5.5 32t-2 36t-0.5 44v8q2 6 2 31l-2 67q0 28 9 62q-3 3 -3 14q0 75 10.5 153t36 200.5t31.5 156.5q5 20 15.5 70.5t18.5 83.5t18 65q-4 4 -11 25l4 -4q0 18 -61 18h-41q-43 0 -90.5 5.5t-106 20 t-96 46.5t-37.5 78q0 27 30.5 45t49.5 18q4 0 12 -2t11 -2l168 16l41 -8l28 4l92 -6l146 6l145 -6q20 0 54 3t51 3l141 -4q4 0 40 -3t59 -7t54 -13t47.5 -26.5t16.5 -42.5zM975 956l-6 2q2 -2 6 -2zM481 926l-2 2z" />
<glyph unicode="U" horiz-adv-x="1128" d="M1227 938q-12 -48 -27 -92q-5 -20 -22 -78v-2q0 2 2 4q-44 -183 -199 -453q-68 -119 -110 -176t-117 -127q-34 -34 -87.5 -70.5t-99.5 -43.5l-24 2l-74 -11q-36 0 -87 22t-101.5 59.5t-90 96.5t-47.5 124v-3q-3 16 -23.5 102t-21.5 134q-2 100 41 266q18 76 51 157.5 t82 147.5t95 66q5 0 15.5 -5t10.5 -9q-2 0 -4 2q2 -2 7 -8q15 -18 15 -14q0 1 -1 3q6 -6 6 -18l-6 -37q0 -20 18 -41q35 -47 50.5 -84.5t15.5 -95.5q0 -41 -16.5 -129t-16.5 -135q2 -10 2 -33v-33q0 -34 7.5 -77.5t25.5 -53.5q12 -9 21 -40.5t27 -57.5t56 -33h-6 q16 -4 18 -4q9 0 17 2t16 7.5t13 9.5t12.5 13.5t10.5 13.5t11 16t10 14q144 247 144 413q0 23 -12.5 63.5t-14.5 57.5q0 10 3.5 18t9 16.5t8.5 14.5q24 48 78 126t73 120q-2 -2 -2 -10q0 -11 2 -13q1 2 29 41q-6 0 -8 -2q4 2 15 8t20.5 9.5t17.5 3.5q1 0 20 -4t33 -4 q4 0 21.5 8t27.5 8q21 0 46.5 -29.5t25.5 -62.5q0 -30 -12 -80z" />
<glyph unicode="V" horiz-adv-x="960" d="M1075 1411q0 -5 -2 -17t-2 -16q0 2 4 6q-15 -28 -27 -61t-26.5 -78.5t-20.5 -62.5q-5 -18 -38 -90q-55 -125 -86 -267l-109 -381q-16 -65 -81 -193t-79 -163q-20 -44 -52 -74t-73 -30q-199 0 -245 215q-23 103 -40.5 219.5t-35 257.5t-29.5 219q-2 13 -15.5 73t-13.5 87 q0 32 17 47.5t39 15.5q38 0 96 -45q20 -17 36.5 -35t30 -44.5t21.5 -40.5t17.5 -50.5t12 -45t12.5 -54t11 -49.5q3 -16 11.5 -52t13 -65t4.5 -57v-13q0 -80 29 -217q23 46 57.5 134.5t44.5 111.5l242 588q6 15 21 55t25 63.5t26.5 51t33.5 41.5q14 11 34 19t51.5 16.5 t41.5 11.5q13 0 28 -10t15 -21z" />
<glyph unicode="W" horiz-adv-x="1247" d="M1438 1307h22q4 -8 4 -17q0 -18 -17 -45t-20 -39q-28 -95 -36 -131q-4 -18 -24 -59.5t-26 -57.5q-3 -6 -14 -18t-12 -20q-48 -153 -86 -236q-3 -6 -19.5 -38.5t-25.5 -51.5t-20.5 -51t-16.5 -60q-10 -28 -22 -52t-31.5 -59.5t-28.5 -52.5l-66 -133q-9 -21 -21 -44 t-21 -39.5t-24.5 -42t-23 -37.5t-26.5 -41t-25 -39q0 -20 -28.5 -40t-59.5 -20q-27 0 -46 8.5t-29.5 27.5t-15 31.5t-9.5 39.5t-6 33q-48 200 -48 319q0 21 5.5 66t5.5 69l-2 113q0 113 26 280q-41 -46 -63 -102q-9 -24 -32 -72.5t-38 -87t-18 -61.5q-6 -37 -45 -159.5 t-39 -180.5l2 -37q2 -32 -10 -100q-7 -40 -12 -61t-13 -34t-13 -16.5t-21 -10.5t-27 -14q-6 -4 -17 -13t-24 -13.5t-39 -7.5q-14 0 -28.5 6.5t-34.5 20.5t-23 16q-11 6 -15.5 16.5t-5.5 26.5t-4 24q-88 228 -88 391q0 7 2 20t2 17q0 11 -5 32.5t-5 35.5l2 55l-2 53 q0 40 13.5 112t15.5 89q1 7 5.5 39t6.5 44.5t7.5 43.5t10 46t12 39.5t16 37.5t20 27t25.5 20t30 6l18 -2q5 0 11.5 -0.5t20.5 -5.5t24.5 -13.5t19 -27.5t8.5 -45q0 -63 6.5 -127.5t19.5 -153.5t17 -122q76 156 131 239q9 15 26.5 44t27.5 44t26.5 38t31 35.5t34 25.5 t42.5 18.5t50 5.5q36 0 62 -10.5t40.5 -26.5t22.5 -41t10 -46t2 -50q0 -66 -14 -299q-2 -26 -12.5 -108t-10.5 -128l4 -55q0 -14 -3.5 -42l-4.5 -36q28 61 123 285q7 16 30 53t29 58q9 43 40 101.5t90 152t81 131.5l23 34q2 2 2 11q0 24 13.5 48t35.5 50.5t29 38.5l5 10 q5 9 12.5 22t18.5 29t22.5 29t26.5 22t29 9q4 0 10 -3t9 -3z" />
<glyph unicode="X" horiz-adv-x="950" d="M934 131l35 -55l4 -19l-2 -24l-21 -27l-16 -6q-10 0 -21 -14l-45 2l-22 24q-92 107 -141 160q-140 160 -148 168q-9 3 -12 6q-28 -39 -56 -72q-30 -34 -43 -51l-2 -2q-112 -125 -125 -151l-4 -4q-7 -4 -17 -16t-28 -37t-22 -31l-8 -11q-2 -2 -27 -37q-7 -12 -20 -28 l-17 -12l-33 -7q-5 5 -22 -8l-25 -12h-39q-3 11 -10 22q-12 20 -12 25l-2 -2v1q-6 25 18 79l72 182l63 125l99 178l7 9l7 16l2 4q25 35 37 55q11 18 27.5 43.5t17.5 26.5q-5 5 -18 35q-9 13 -11 22l-37 78l-49 158v159l6 19l19 24l16 13l17 4q4 -2 12 -2q4 -2 12 -2l4 4 q2 2 2 4l23 -6l43 -35l35 -57l49 -88q5 -17 16.5 -42.5t19.5 -42.5l9 -16q25 32 45 55q4 6 22 29l3 2l102 105q2 1 10.5 7t11.5 9q14 8 31 25l2 2l15 14l22 10l41 4h39l16 -6l19 -16l33 -56l12 -43l-4 -43l-8 -20q-3 -3 -5.5 -11t-5.5 -12l-6 -16l-2 -4l-29 -59 q-7 -7 -10 -13q-10 -10 -10 -18l-8 -12q8 19 -53 -68q-24 -35 -46 -68l-8 -8q-11 -8 -37 -51q-19 -33 -26 -43l24 -49q9 -18 21 -39l2 -2l67 -146q7 -12 17.5 -31.5t33.5 -60.5t38 -68.5t14 -27.5z" />
<glyph unicode="Y" horiz-adv-x="841" d="M1065 1323q2 -33 -18 -66q-32 -56 -67 -113t-77.5 -122t-70 -106t-80 -118t-72.5 -106q-10 -14 -22 -46t-26.5 -57.5t-35.5 -35.5q-3 -6 -13.5 -23t-16.5 -29t-9 -24q-19 -112 -44 -278q-34 -224 -59 -275t-114 -51q-34 0 -58.5 16t-37 38t-19.5 56t-8.5 58.5t-1.5 56.5 q0 74 27.5 217t27.5 211q0 15 -4 19l-39 49q-32 40 -55 72t-50 79t-41.5 97.5t-14.5 101.5q0 44 26.5 75.5t67.5 37.5q5 0 11.5 -4t10.5 -4l17 4q37 0 121 -94.5t139 -215.5q17 37 44.5 78t44.5 62.5t59 72t52 62.5q147 183 250 260q1 1 18.5 14.5t32 24t32.5 20t28 9.5 q7 0 45 -23z" />
<glyph unicode="Z" horiz-adv-x="1427" d="M1405 412l27 -47l-7 -11l-14 -12q-48 -31 -65 -37l-5 2q-9 -9 -20 -32t-27 -37t-45 -17q-9 -3 -21.5 -4t-30 -7.5t-48.5 -23.5l-16 -8q-3 0 -89 -22q-1 -1 -97 -36.5t-99 -37.5q-51 -30 -184 -66q-67 -39 -322 -100l-4 -2q-47 -6 -66 -6q-22 0 -63 10l-55 14 q-60 27 -103 88l-18 37l-2 13q0 31 51 108l6 6q31 28 73 70q60 61 204 201l131 125q24 19 102 102l2 2q20 19 48 41.5t55 50t85 92.5l5 4l12 11q-16 4 -35 4q-14 0 -36 -5.5t-67 -19t-77 -22.5q-9 -4 -21.5 -10t-20 -8.5t-29.5 -8t-60.5 -11.5t-102.5 -16l-43 2l-9 3 q-10 3 -14 4.5t-14.5 6.5t-18.5 10.5t-20 15.5t-24 22l2 2l-4 4q-2 2 -4 2l-6 33v10l-4 23q-2 6 -2 18v-2l-5 27l21 20l-4 2q15 10 29.5 19.5t20 13.5t16.5 10.5t14.5 8.5t19 8t24.5 9t37 11.5t51 15t71.5 21t93.5 27.5l8 2q6 0 21.5 4t57.5 14t93 21l166 16q86 0 117 -8 l16 -8l-8 4h2q1 0 12 -4.5t18.5 -8t22 -12.5t29.5 -20l8 -11q11 -14 15.5 -22.5t8 -29t3.5 -56.5q0 -10 -3 -13l-8 -18q-3 -5 -14 -26.5t-21 -40t-27 -45.5t-34 -50l-20 -26q-17 -17 -40 -44t-49.5 -57t-112 -113t-218.5 -204q2 -2 -27 -31q-19 -19 -29 -31h11l34 21 q40 24 56 24h6q9 3 62 21.5t121.5 32.5t197.5 32l74 11q4 0 35.5 2t60.5 2h39q96 0 145 -49l2 -2h-2z" />
<glyph unicode="[" horiz-adv-x="739" d="M500 -74v2v-2zM494 -96v-2v2zM860 1327q10 -17 10 -29q0 -13 -10 -29t-22.5 -30.5t-14.5 -17.5q-17 -39 -52 -69.5t-69 -46.5t-65.5 -37.5t-40.5 -43.5q-54 -91 -107 -227q-6 -15 -29.5 -74.5t-33 -83.5t-26.5 -69.5t-28 -80t-20 -67.5q-22 -75 -31 -106.5t-19.5 -90 t-10.5 -106.5q0 -15 21.5 -29.5t52.5 -29t61.5 -31.5t52 -44t21.5 -59q0 -5 -3 -12.5t-3 -9.5q-4 -14 -8 -44t-8 -47t-20 -31.5t-44 -14.5q-76 0 -138.5 33.5t-100 85t-57.5 107t-20 105.5q0 152 55.5 362t137.5 410q10 26 33.5 74t38 83t14.5 54l-6 29q0 39 21 78t44 61.5 t59.5 53.5t45.5 40q31 32 74.5 53t86.5 21q42 0 79 -24t79 -66z" />
<glyph unicode="\" horiz-adv-x="837" d="M817 -57q-1 -18 0.5 -50.5t1.5 -42.5q0 -80 -76 -88q-20 0 -45.5 28.5t-29.5 57.5q-6 31 -25 95q-3 8 -18 74t-33 96q-3 5 -28.5 106.5t-57.5 155.5q-8 12 -11 41.5t-12 42.5q-8 10 -13 34.5t-9 30.5q-31 61 -71 184.5t-62 174.5q-9 18 -42 83.5t-49 100t-39 89.5 t-33.5 98t-10.5 79q0 47 27.5 81t72.5 34q19 0 38 -9.5t33 -21t31.5 -34.5t26.5 -37t26.5 -42.5t22.5 -37.5q156 -277 259.5 -597.5t127.5 -643.5q0 -55 -2 -82z" />
<glyph unicode="]" horiz-adv-x="735" d="M745 1124q0 -32 -4 -94q-3 -21 -19.5 -48.5t-16.5 -45.5q-46 -326 -80 -459q-72 -279 -114 -385q-75 -185 -191 -247q-71 -38 -168 -38q-22 0 -49.5 5t-55 15.5t-46.5 29t-19 41.5q0 15 19 54t19 56q0 22 16.5 37t44 21.5t49.5 9t46 2.5l98 -2q28 0 64 86t60.5 189 t29.5 167q6 40 20 123t22 135t15 124.5t7 133.5q0 22 -26 62.5t-52.5 89.5t-26.5 92l4 43q0 17 -6 31t-6 24q0 19 16.5 33t42 20t46.5 8.5t40 2.5q57 0 111 -58l14 -20q24 -12 36 -36.5t20.5 -67t11.5 -52.5q24 -66 28 -82zM20 6v-10q-2 2 -2 6q0 2 2 4z" />
<glyph unicode="^" horiz-adv-x="1566" d="M1769 133v-6q0 -34 -33 -50t-65 -16q-15 0 -49 7.5t-57 7.5l-52 -2q-10 0 -28 2t-21 2t-10.5 -3t-11.5 -3l-123 12q-4 0 -13 -4t-14 -4l-98 6l-41 -10h-23q-16 0 -20 -2q-30 -12 -89 -15.5t-85 -11.5q-115 -27 -426 -143q-6 -3 -42 -19l-49.5 -22t-45.5 -19.5 t-49.5 -19.5t-42.5 -14.5t-44 -11.5t-34 -3l-29 2q-8 0 -19 -2t-16 -2q-27 0 -50 23.5t-23 64.5q0 27 9.5 51.5t18.5 35.5t31.5 33.5t28.5 29.5q228 249 409 440q-144 -19 -278 -61q-12 -3 -45 -13.5t-56.5 -16.5t-46.5 -9q-42 0 -78 25t-36 69q0 25 11 45t23.5 31t37 28.5 t36.5 28.5q13 8 62.5 18.5t66.5 16.5q68 20 109 30.5t101.5 20.5t113.5 10h35t34.5 -1t38 -3.5t34 -7.5t34.5 -12t26.5 -19t23.5 -27t13 -36t6 -47q0 -20 -7.5 -42.5t-25 -50.5t-32 -48t-44.5 -54t-43.5 -49.5t-49 -52.5t-43.5 -45q241 96 530 96q188 0 508 -80 q8 -2 28.5 -6.5t29.5 -7t26 -8.5t26.5 -12.5t19.5 -18t17 -25.5z" />
<glyph unicode="_" horiz-adv-x="1024" d="M1110 -344q10 -23 10 -39q0 -27 -12 -47t-45 -39q-23 -14 -59.5 -20t-63 -6t-63 1.5t-41.5 1.5q-44 0 -92.5 1.5t-73.5 1.5q-125 0 -166 -3l-33 -2l-156 50h-12q-9 0 -23 5t-20 5h-88h-182q-8 0 -16 1.5t-22 7.5t-23 23.5t-9 43.5q0 15 9 28t18 19.5t26 15.5 q53 25 169.5 40t396.5 26q35 0 70.5 -1.5t78.5 -5.5t67.5 -6.5t78.5 -9t71 -8.5q64 -5 124 -26.5t81 -57.5z" />
<glyph unicode="`" horiz-adv-x="690" d="M618 1167q0 -33 -26 -48t-53 -15q-44 0 -112 31t-114 69q-16 13 -52.5 39t-59 44.5t-49 44.5t-39.5 54.5t-13 59.5q0 42 25 59t80 17q12 0 26 -6t23 -12t24.5 -17.5t18.5 -13.5l137 -121l42 -36t49.5 -43t44.5 -40t35.5 -38.5t12.5 -27.5z" />
<glyph unicode="a" d="M854 700q55 -39 55 -88l-16 -47v-2l-8 -65l-8 -19q-20 -20 -52 -131q-9 -30 -26.5 -70.5t-31.5 -91.5t-26 -137l-26 -172q-2 -6 -2 -27q0 -32 4 -43l-58 -22q-5 14 -38 43q-35 34 -46.5 67.5t-11.5 92.5q0 36 4 82q-37 -37 -131 -121q-17 -35 -57 -63.5t-141 -80.5 q-47 -53 -103 -53q-34 0 -65 30t-43 73q-8 24 -29 54t-35 60t-14 70q0 47 22 117l19 20q20 7 28 21t27.5 55.5t52.5 89.5l68 100q11 9 38.5 52t71.5 81q101 136 168.5 199.5t126.5 63.5q45 0 97 -52q20 -2 31.5 -11t32.5 -21.5t63 -22.5q1 0 10 -4t23.5 -11.5t25.5 -15.5z M573 449q38 92 41 92q0 24 -20 24q-17 0 -64 -41q-14 -8 -29.5 -20.5t-39.5 -38.5t-45.5 -50.5t-67 -76.5t-84.5 -96q-1 -2 -38.5 -58.5t-66 -105t-28.5 -64.5t14 -16q13 0 37 20t67 60.5t75 66.5q5 7 10.5 13.5t17 18l23.5 23.5t39 38.5t55 54.5q0 17 39 75.5t65 80.5z" />
<glyph unicode="b" horiz-adv-x="845" d="M913 528q17 -17 17 -49q0 -17 -8.5 -34.5t-17.5 -28.5t-9 -13q0 -1 0.5 -1.5t1 -2t0.5 -4.5q0 -36 -29 -65q-2 -2 -3 -12.5t-3 -19.5t-8 -9q-2 0 -6 4q-10 -21 -23 -41.5t-14 -22.5q2 2 2 9q-1 -2 -6.5 -12t-9.5 -15q2 0 4 2q-25 -22 -52 -48.5t-59.5 -61t-50.5 -52.5 q-16 -16 -47.5 -38.5t-46.5 -49.5q-8 -14 -24.5 -29.5t-30.5 -24.5t-40 -25.5t-36 -22.5l-18 -11q-18 -11 -29 -17t-32.5 -17.5t-37.5 -18t-36 -11.5t-36 -5q-42 0 -61 8t-38 26.5t-44 30.5l-12 6q-12 7 -24.5 24.5t-12.5 43.5q-37 5 -80 46t-43 93q0 39 17.5 80t39 70.5 t39 66t17.5 66.5l-3 29q0 44 60 139q36 61 58 137.5t40.5 185t26.5 142.5q1 9 9.5 25t8.5 18l-4 16l5 7q4 7 9 17t5 17q1 3 -0.5 13.5t-1.5 13.5q0 6 16 26l16 21v-2q5 23 47.5 83t57.5 89l11 55q36 154 52 154q25 -5 29 -6q6 -3 14 -4.5t12.5 -2.5t4.5 -2l-4 -485l-15 -47 q0 -76 -15.5 -192t-41.5 -175q161 119 287 119q37 0 75 -12q46 -16 85.5 -82.5t45.5 -110.5zM748 518l2 2l-2 2l-25 -4q-14 0 -32 5t-29 5q-45 0 -84 -15.5t-88 -45.5t-72 -41q-56 -30 -81.5 -64.5t-49.5 -97.5q0 -25 -23.5 -61.5t-64 -85t-54.5 -68.5q-12 -19 -26 -55 t-23 -45q9 -6 15 -6q4 0 18 7.5t21 8.5q187 19 344 217l182 195q15 21 26 44t24 53.5t22 49.5z" />
<glyph unicode="c" horiz-adv-x="677" d="M793 274l12 -57q4 -28 4 -37q0 -14 -3.5 -26.5t-10 -22.5t-13 -18t-15.5 -15t-15 -10.5t-14 -8t-9 -5.5q-11 -8 -64.5 -47t-82.5 -59t-84.5 -55t-94.5 -54t-86.5 -34t-85.5 -15q-32 0 -55.5 12.5t-35 26.5t-29 42t-27.5 41q-131 151 -131 322q0 30 2.5 56t9.5 51 t10.5 39.5t16 37.5t15.5 28.5t19 30t17 25.5q6 11 23 31t24 33l29 92q4 9 18.5 16t20.5 13l41 57q6 9 17 29.5t21.5 36.5t20.5 22q21 11 63 25t62 14q8 0 20 -6l21 -11l42 -24t49 -33t49.5 -41t36.5 -46t15 -50q0 -30 -25 -42.5t-54 -12.5q-13 0 -36.5 9t-31.5 9 q-16 0 -33 -11t-33.5 -33.5t-28 -40t-28 -47t-22.5 -38.5q-4 -8 -35.5 -66.5t-40.5 -78.5t-28 -66.5t-25.5 -84.5t-6.5 -79q0 -52 20.5 -70t65.5 -18q85 0 225 63t197 138q6 9 15.5 27t16 29.5t9.5 11.5q16 0 56 -5z" />
<glyph unicode="d" horiz-adv-x="1038" d="M1143 1065q2 -3 10.5 -10.5t14.5 -15t6 -11.5q-10 -82 -33 -143q-100 -272 -242 -490q-11 -18 -21 -36t-15.5 -29t-13.5 -31t-10.5 -26t-11 -31.5t-10.5 -30.5q-1 -3 -9.5 -30t-8.5 -42q0 -28 18 -42.5t49 -14.5q13 0 41 4q3 0 19 -3t24 -3l15 4q22 0 38.5 -16.5 t16.5 -51.5q0 -5 -14.5 -24t-24.5 -23q-6 -2 -27.5 -10.5t-31 -12t-27 -9t-31.5 -7.5t-28 -2q-28 0 -43 1t-37.5 9t-36.5 23q-21 22 -36.5 51.5t-32 72.5t-23.5 58q-21 -18 -74.5 -67.5t-82.5 -74.5t-77.5 -59.5t-93.5 -56.5q-7 -4 -22 -16.5t-27.5 -19.5t-24.5 -7 q-32 0 -53 2t-48.5 11.5t-45.5 27.5q-30 28 -55 75t-25 91q0 41 25 91t28 59q17 61 62.5 127.5t91.5 99.5q11 7 28.5 36.5t47.5 53.5q19 15 53 61t61 66q22 13 49 44t37 36q73 33 133 33q35 0 84.5 -25.5t73.5 -25.5q5 0 23.5 41.5t45 108t33.5 83.5q4 12 11 40.5t14.5 53 t18 50t27.5 40.5t38 15q8 0 16.5 -2.5t20.5 -6.5t20 -6q-2 0 -14 -4q3 0 16.5 -0.5t23 -3t13.5 -8.5q34 -38 64 -41zM682 506q3 10 16 45q-9 -6 -48.5 -32t-55.5 -37.5t-46 -34t-51.5 -43.5t-39.5 -44q-24 -28 -94 -103t-112.5 -130.5t-72.5 -118.5l84 33q25 14 49.5 32 t59.5 47.5t45 37.5q10 7 31 30t38 33q18 12 38 32.5t47.5 53t37.5 43.5q5 5 22 20t23 25q8 12 13.5 27t7.5 25t4.5 31t3.5 28z" />
<glyph unicode="e" horiz-adv-x="866" d="M786 223q19 0 31 -12t12 -35q0 -57 -67.5 -132t-175.5 -131t-207 -56q-98 0 -192 78.5t-150.5 196.5t-56.5 230q0 26 13.5 68t22.5 57q20 20 40.5 62.5t31.5 58.5q14 22 48.5 52t47.5 47q37 46 72.5 75.5t93.5 61.5q6 5 14.5 17.5t18 21t23.5 8.5q10 0 36 -13.5 t68.5 -26.5t91.5 -13h-2q77 -8 162.5 -83t85.5 -159q0 -73 -39.5 -132t-102 -93t-132.5 -52t-138 -18q-80 0 -127 12q-4 1 -17.5 7t-19.5 6q-4 0 -19 -24.5t-28.5 -59.5t-13.5 -56q0 -57 59 -81q13 -5 56 -17q9 -2 33 -16.5t51 -14.5q89 0 211 68q16 10 54.5 38t66 44 t44.5 16zM459 627q-22 -12 -42.5 -28.5t-35 -30.5t-34 -37.5t-29 -36t-30 -41t-28.5 -39.5q30 -13 43 -13q8 0 46 19.5t84.5 49t83 75t36.5 88.5q0 10 -11 19.5t-22 9.5q-10 0 -21 -6t-22.5 -16t-17.5 -13z" />
<glyph unicode="f" horiz-adv-x="864" d="M1120 1393l-14 -74l-4 -25q0 -3 7 -13.5t7 -18.5q0 -17 -41.5 -60t-64.5 -43q-11 0 -37 45q-2 -2 -2 -6q-3 8 -8 8q-8 0 -23 -20l-10 -25l-68 -96q-2 -2 -2 -6q0 -1 0.5 -1.5t1 -2t0.5 -4.5q0 -14 -25.5 -38.5t-25.5 -35.5q-2 -21 -13 -36.5t-23 -22.5t-22 -15t-10 -16 t9 -23q0 -15 -30 -47t-30 -45q0 -3 5 -10.5t5 -11.5q0 -12 -12 -25t-24 -18l-41 -84q-3 -5 -24.5 -43t-45.5 -70h4q4 0 11 -6t10 -6q12 0 36 24q8 6 29 27l96 72q3 3 13 14.5t17.5 20t10.5 8.5q28 0 50 -42.5t22 -74.5t-8 -51l-6 -11q-17 -20 -59.5 -85.5t-78 -107.5 t-59.5 -42q-20 0 -36.5 26t-16.5 52q-71 -35 -109.5 -62.5t-46 -42.5t-15.5 -35t-20 -34q-13 -14 -21 -52.5t-13 -48.5q-5 -7 -16 -20.5t-17 -24.5t-6 -22q0 -2 12 -16.5t12 -22.5q1 -10 -3.5 -15.5t-19.5 -14.5t-26 -19q-7 -7 -14 -16.5t-12 -16.5t-10 -20.5t-8 -19 t-7.5 -22t-5.5 -20.5t-6 -23t-5 -20q-5 -19 -14 -67t-18 -81.5t-21 -48.5q-21 -13 -37.5 -38.5t-25 -47t-25.5 -38.5t-41 -17q-22 0 -36.5 11.5t-14.5 33.5q1 26 20 107q4 24 13 80t17 95.5t20 77.5q5 18 32 70.5t27 85.5q0 25 8.5 51t27 64.5t25.5 56.5q-18 -4 -24.5 -11.5 t-11.5 -25.5q0 -4 -23.5 -25.5t-56 -43t-51.5 -21.5q-10 0 -19.5 4.5t-20 13t-14.5 11.5l-9 5q-9 5 -18.5 10.5t-23.5 14.5t-26.5 18t-25.5 19.5t-22.5 20t-15.5 19.5t-6 18q0 34 24.5 74t51.5 40h18h2q3 0 5 -2.5t5 -3.5q29 11 52 11l14 -2q17 3 49 16.5t49 17.5 q176 25 182 60q4 36 31.5 93.5t44.5 82.5l49 158q3 3 16 12.5t20 18.5t7 20l-4 26q0 14 24.5 40t24.5 46q0 -3 1.5 -4.5t4 -2t3.5 -1.5l-11 43q-2 2 -2 6q0 1 13 21.5t29.5 48t23.5 41.5q4 9 14 38.5t21.5 47t29.5 27.5q4 2 6 6.5t2.5 8t1.5 11t1 10.5q3 18 49 90.5 t61 102.5q2 4 12 26.5t15 32.5t17 29t22.5 28t26.5 17t34 8q16 0 39 -15t35 -15l6 2l19 -9q8 -6 29 -11.5t24 -6.5q21 -7 40.5 -12.5t25.5 -7t14 -6.5t12.5 -10.5t13.5 -20.5z" />
<glyph unicode="g" horiz-adv-x="985" d="M700 29l-8 -25l-12 -31l176 93q12 6 37.5 24t46.5 30.5t35 12.5q13 0 28 -13.5t15 -21.5q0 -37 -60.5 -93t-128.5 -101q-35 -24 -102 -61.5t-92 -53.5q-20 -12 -59 -123t-44 -166q0 -6 -12 -36.5t-38 -76t-54 -73.5l6 4q-11 -11 -22 -26t-17.5 -26.5t-18 -31.5t-16.5 -29 q-59 -108 -139 -202t-172 -150q-13 -8 -46.5 -33t-59.5 -36t-60 -11q-51 0 -73.5 22t-22.5 77q0 162 76 286q153 281 321 465q23 25 68.5 80.5t71.5 83.5q26 29 34 60.5t11.5 63.5t17.5 56q-92 -74 -131 -96q-81 -45 -180 -45q-88 0 -129 43q-30 26 -63.5 91.5t-33.5 86.5 l3 14q0 5 -5.5 15t-5.5 18q0 29 21.5 54.5t44.5 25.5q-2 4 -2 21q0 16 3.5 22.5t14.5 12t15 8.5q7 3 23.5 28.5t27.5 36.5q-6 0 -10 -4q8 8 9 22.5t3 18.5q1 6 10.5 17t11.5 14q-6 -6 -6 -9q12 44 41 79.5t81.5 81.5t74.5 69q4 3 21.5 22.5t35.5 32.5q0 17 13.5 32t41 34.5 t33.5 25.5q106 85 182 101q39 30 62 30h41h27q45 0 102 -13t57 -42q0 -3 -11 -20t-35.5 -35.5t-51.5 -18.5l-31 2q-45 0 -101.5 -36.5t-102.5 -83t-106 -123.5t-91 -122.5t-78 -115.5q-6 -8 -38.5 -54t-45.5 -67t-28 -55t-15 -59q0 -11 10 -11q57 0 102 16.5t101 51.5 q14 8 53.5 31t52.5 32t37.5 28t38.5 39t25 46q59 144 135 254q12 16 27 34t23 28t15 24t9 31q4 29 32 49t50 20q10 0 17.5 -3.5t18 -12t17.5 -12.5q18 -6 27.5 -14t11.5 -13.5t3.5 -21.5t2.5 -23v4q2 -5 11 -19t9 -24q0 -44 -20.5 -89.5t-58 -103.5t-50.5 -83 q-10 -22 -19 -61.5t-15 -55.5q-4 -11 -22.5 -63.5t-29.5 -75.5zM250 -567q10 40 65 157q-13 -16 -38 -49.5t-46 -59t-38 -40.5q-25 -18 -45 -46t-29 -49t-24 -62t-21 -56q-9 -22 -33.5 -56t-42.5 -66t-18 -62q0 -3 4 -19q95 102 153 201q7 12 41 65.5t50.5 86t21.5 55.5z " />
<glyph unicode="h" horiz-adv-x="1058" d="M1165 125q4 -28 4 -39q0 -41 -12.5 -69.5t-36.5 -44.5t-47 -24.5t-57 -18.5t-53 -19q-12 -4 -25 -4q-27 0 -66.5 15t-79 41t-67 67.5t-27.5 87.5l7 41q0 42 -9 82q-17 -2 -31 -14.5t-19 -22t-15.5 -36t-12.5 -30.5q-89 -198 -122 -252.5t-72 -54.5q-38 0 -101 62t-63 94 l2 22q0 7 -3.5 11.5t-4.5 5.5t-10 6q-21 9 -43 188q-42 -26 -47 -26l-9 2q-7 0 -18 -18.5t-21 -18.5l-38 -2q2 -1 6.5 -3.5t7.5 -2.5q-20 0 -59.5 -38t-69.5 -38q-15 0 -38.5 20.5t-23.5 42.5q0 41 66 107q36 36 147.5 128t165.5 156q-2 2 -2 17q0 16 12.5 43.5t12.5 40.5 l-4 30q0 11 2 13q8 24 25.5 100t35.5 117q4 9 15.5 31.5t17.5 38.5t6 30q-6 42 -6 43q0 56 109 193q0 17 5 37.5t10.5 36t19 41.5t19.5 37t24.5 42t23.5 39q21 46 84.5 107t120.5 61q13 0 22 -7t11 -7l40 13q10 2 13 3q4 0 4 -2t-2 -4q1 1 10 11t13.5 13.5t13 8t16.5 4.5 q16 0 53.5 -24.5t51.5 -24.5q35 0 62.5 -36t39.5 -77.5t12 -73.5q0 -19 -15.5 -52.5t-32 -59t-44.5 -67t-35 -52.5q-7 -12 -19 -34t-19.5 -33t-23.5 -26.5t-38 -27.5q-4 -3 -10.5 -16t-10.5 -17q-2 -2 -5 -3.5t-4 -2.5t-2 -2.5t-1 -3.5v-4q0 -17 -15 -28t-30 -11l-6 -27 q-15 -20 -33 -32.5t-26 -20.5q-6 -6 -27 -43q1 3 0 2q-13 -5 -60 -72l-47 -73q-19 -28 -74 -101.5t-86.5 -127t-43.5 -105.5q-45 -151 -45 -336q0 -35 14 -35q6 6 10.5 16.5t6.5 19.5t5.5 23t4.5 19q29 107 75 186q14 24 52 73.5t53 84.5q29 70 100 144q4 4 32 37t48.5 47 t46.5 14q34 0 92 -23.5t66 -60.5q-29 -156 -82 -369q-19 -51 -19 -96q0 -36 25 -39q36 0 47 4q0 6 51 59.5t66 53.5q18 0 29 -4t17 -13.5t8 -17t4.5 -22.5t4.5 -23zM563 981q-24 -64 -100 -287q129 153 233 322q7 11 22.5 40.5t28.5 49t29 33.5q21 19 38.5 51t25 52.5 t22.5 69.5t19 60q-21 -4 -36.5 -12.5t-24 -16.5t-29.5 -30q-6 -7 -62.5 -63t-95.5 -101.5t-39 -61.5l4 -12q0 -8 -6.5 -24t-15.5 -37t-13 -33z" />
<glyph unicode="i" horiz-adv-x="520" d="M664 981q18 -37 18 -53q0 -6 -2.5 -12.5t-6 -12.5t-10 -18.5t-12.5 -24.5l2 2l-10 -16q-77 -74 -119 -74q-22 0 -43 19.5t-47 78.5q-35 85 -35 131q0 29 6.5 64.5t27 69.5t50.5 34q26 0 97 -71q68 -68 73 -92v-2q0 -8 11 -23zM268 565q17 0 150 -73l16 -27v-19 q0 -34 -7.5 -60.5t-17.5 -42.5t-33 -49.5t-40 -62.5q-12 -34 -22.5 -73.5t-18.5 -61.5t-36 -83t-81 -163l-26 -16q-41 0 -76.5 42t-53.5 92t-24 93q0 2 -16.5 26.5t-16.5 57.5q0 34 22.5 63.5t30.5 65.5l5 13q21 66 37 90.5t85 93.5q8 3 11 25l14 24q70 45 98 45z" />
<glyph unicode="j" horiz-adv-x="557" d="M481 692l-4 -10l-6 -27l-6 -24q2 -18 2 -51v-2q0 -54 -24 -165.5t-54 -199.5q-36 -121 -102 -258q-1 -1 -4 -13q-13 -64 -123 -337l-19 -43q0 -22 -1 -31t-9.5 -26t-26.5 -33q2 -6 2 -25q0 -11 -4.5 -23.5t-9 -20.5t-14 -22t-12.5 -20v-18q0 -19 -8 -31.5t-15.5 -15.5 t-13.5 -3q-9 -9 -20 -25t-15 -20q10 -23 10 -34l-4 -15q-27 -51 -31 -69v4l-30 -31h-19q-62 0 -105.5 33.5t-43.5 83.5l26 164l4 10q31 55 62 153l4 23q1 3 10.5 35.5t15 47t20.5 49.5t36 75q3 17 19 57.5t28 91.5l4 11q5 9 10 20.5t10 26.5t20.5 55t37.5 92l6 10q6 5 16 9 q-8 13 -8 26q0 12 8 31l-8 -10l-53 -52q-49 -36 -160 -88l-12 -2q-13 0 -24 11t-11 30q0 14 10 31q-10 10 -10 27q0 30 39 69l31 23v10q15 24 182 199l16 10l-8 -4q17 11 67 78.5t74 128.5q10 53 44 71.5t100 18.5l20 -2q6 0 70 -37l-6 -4zM629 946q6 -18 6 -26v-21l-21 -29 q-46 -16 -71 -16q-22 0 -88 59q-65 56 -84 84l-6 19q0 10 -21 39l2 41q27 24 51 24q90 0 109 -8q44 -14 83.5 -72t39.5 -94z" />
<glyph unicode="k" horiz-adv-x="858" d="M971 -115q-4 -4 -4 -10l4 -18q0 -4 -8 -10.5t-20 -14.5l-15 -10q-68 10 -176 61q-66 29 -187 88t-157 76q-17 8 -37.5 20t-34.5 21.5t-37.5 25.5t-34.5 23q-39 -92 -39 -117q-6 -62 -14.5 -95.5t-16.5 -43t-25.5 -25t-31.5 -34.5q-7 -15 -57 -15q-30 0 -62 34t-32 67 q0 11 2.5 21.5t7 23.5t6.5 22q34 166 96 359q3 10 6 27.5t7 31t10 27.5q50 116 86 229q91 207 178 369q36 72 91.5 144.5t90.5 72.5q17 0 29.5 -8t19.5 -17.5t12 -28.5t7 -31t4 -34q0 -24 -9 -49.5t-30 -65t-25 -47.5q-102 -224 -124 -278q8 4 60 31t72.5 36.5t58.5 21 t67 11.5q50 0 80 -29t30 -71q0 -93 -41 -117l-61 -43l-189 -108q-79 -50 -147 -86q35 -21 99.5 -57.5t117 -68t96.5 -63.5l146 -108q9 -7 38.5 -27.5t43 -32t29.5 -33.5t20 -47z" />
<glyph unicode="l" horiz-adv-x="651" d="M897 1329q4 -28 4 -51q0 -57 -14 -117v-6q0 -25 -13 -82l-4 -6q-217 -390 -405 -584q-21 -43 -77.5 -99t-61.5 -83l-7 -12q-14 -18 -35.5 -33.5t-30.5 -29.5t-9 -44q0 -7 2 -19t2 -13l8 -19q20 -23 64 -38t88 -15q63 0 102 28l22 7q9 0 21 -4q23 10 45 10 q40 0 61.5 -21.5t36.5 -64.5v-6q0 -13 -4 -27v-6l-49 -17q-15 15 -47 15q-22 0 -143 -35t-172 -35l-37 -2l-23 4q-71 9 -121 44t-84 120l-18 -8q2 2 0 2q-1 0 -23 -13t-57.5 -31.5t-64.5 -29.5l-41 -2q-25 -1 -46.5 13t-27.5 36l14 37q6 3 15.5 9t24 15t24.5 15 q12 7 44.5 22.5t64 34t61.5 43.5q8 5 21 28t22 34l12 74l8 26q8 25 10 35q1 1 3 15t11 44t27 70l6 21q11 22 21 47l23 59l12 18q8 45 41 86q24 81 73 150l37 78l11 6l8 22l110 134q2 6 5.5 11.5t6.5 9.5t8 9l8 8t9.5 8.5t9.5 8.5l21 6q68 82 84 98l12 9q77 28 148 28 q92 0 131 -24zM688 993q10 23 10 43q0 17 -7.5 35.5t-22.5 18.5q-33 -3 -140 -172.5t-163 -301.5q-10 -24 -32.5 -67.5t-37 -76t-14.5 -48.5q9 4 34 29l191 256q24 32 51 67t36.5 48t22 32t19 33.5t14.5 38.5l13 19.5t6.5 9.5t4 5.5t5.5 9.5t10 21z" />
<glyph unicode="m" horiz-adv-x="1378" d="M1350 506q0 -10 -2 -14q-43 -46 -107.5 -198t-64.5 -204q0 -38 55 -53v-23l-70 -69q-16 0 -32 25.5t-51 75.5t-85 91q-39 -29 -80 -61.5t-63.5 -50t-44 -33.5t-34.5 -22.5t-23 -6.5q-12 0 -39 32.5t-56 92.5l-3 4q-88 105 -93 148q6 46 6 141l-10 10q-47 -50 -74 -92 l-100 -168q-18 -23 -50 -67t-53 -70.5t-69 -73.5t-113 -100q-20 3 -26 51q-5 45 -16.5 73.5t-21.5 37.5t-18 19t-8 24q0 17 64 282q8 9 26 33q84 243 154 391q11 28 39 69q31 44 51 44q26 0 60 -30t34 -56q0 -10 -20 -51l-136 -381v-17v-2q0 -2 3 -2h8q28 0 51 29 q11 21 23 47q18 37 36.5 61t144.5 169q56 65 91 106q21 0 52.5 20.5t43.5 20.5q6 -1 16 -3.5t36 -13t46 -24t36 -37.5t16 -53v-11l-113 -393q0 -24 22 -24q17 0 103 93t117 134q0 3 13 39.5t33.5 74.5t35.5 38l16 -7q4 0 36.5 12.5t41.5 12.5l9 -3t23 -8.5t33 -13t35 -15.5 t32.5 -17t23.5 -17t10 -16z" />
<glyph unicode="n" horiz-adv-x="815" d="M963 0v-6v-4q-1 -1 -1 -7.5t-2.5 -17t-8 -23t-19.5 -28t-35 -29.5l-45 -41l-51 -37q-19 -12 -37 -12l-4 -2q-2 -1 -16 -8.5t-29 -9.5v-2q-27 -5 -60 -17h-4q-8 0 -22 -3t-21 -3q-6 0 -20 4.5t-38 18.5t-47.5 35.5t-46 61.5t-34.5 91l-2 2q-14 77 -14 111l-5 16v23l-2 22 v111l-8 24l15 33l-3 8l7 23l2 51q2 10 2 33q-10 -12 -25 -35l-53 -102l-2 -15l-25 -47l-6 -26l-10 -15l-27 -57l-26 -37l-17 -12l-14 -2v-2l2 -2q-4 -4 -4 -5h-2q-63 -93 -84 -116h-2q-39 -39 -86 -39q-19 0 -30 11.5t-11 25.5q0 -2 -6 4.5t-11.5 23t-5.5 39.5 q0 31 29 129.5t29 173.5v4q7 31 23.5 77.5t21.5 68.5l-2 61q5 17 13.5 32.5t17 28t10.5 17.5v2q11 24 36.5 71t30.5 58q0 1 7.5 14t13.5 21.5t17 20.5t25 18t31 6t23 -4q27 -20 27 -111q0 -4 -1.5 -12.5t-1.5 -13.5v-2q-19 -73 -22 -92q-5 -21 -14 -43.5t-13 -49.5l-2 -2 q0 -27 4 -41q29 37 73 97.5t77 105t51 62.5q14 12 54.5 57.5t75.5 70.5t73 25q16 0 25 -11t11 -21l1 -11l1 -1q1 -1 4 -5.5t5 -10t4 -15t2 -19.5l-2 -2q-5 -22 -31 -146h-2q-3 -14 -16.5 -57t-21 -82t-7.5 -82v-2q0 -10 3 -22.5t10.5 -34t9.5 -29.5v-2q31 -134 35 -149v-2 q3 -16 5 -32t3 -31t2 -19q0 -23 9 -36.5t19.5 -19.5t10.5 -8q8 3 37.5 8t33.5 7h2q20 20 52 20q7 0 17 -3t11 -3l13 6l34 -6q0 -1 5.5 -11t5.5 -16z" />
<glyph unicode="o" horiz-adv-x="966" d="M967 502q0 -69 -11 -125q-4 -21 -18.5 -57t-19.5 -54q-23 -93 -85.5 -159.5t-164.5 -126.5q-10 -6 -37.5 -23.5t-41.5 -26t-36 -21t-40.5 -20t-35.5 -12.5q-4 -1 -14.5 -3.5t-13 -3.5t-9.5 -3t-9.5 -3.5t-8.5 -4.5t-11 -6.5t-12 -8.5q-64 -45 -161 -45q-28 0 -52 10.5 t-39 23.5t-34.5 27t-36.5 19q-27 8 -44.5 28.5t-23 36t-13 52t-9.5 45.5q0 -4 2 -6l-2 24v9q0 8 2 8h2q-10 17 -10 39q0 83 22 114q4 7 21.5 19.5t17.5 17.5t-8 37q0 14 8 26.5t22.5 27t20.5 22.5q12 17 43 69.5t53 79.5q47 55 146 154q9 9 32 33.5t40.5 42t40 37.5t42 30.5 t35.5 10.5q4 0 13 -2.5t14 -2.5q12 0 29.5 26t39.5 26q-1 0 26 -11.5t71.5 -30t81.5 -32.5q37 0 66 -13.5t47 -39.5t30.5 -53.5t19 -67t9 -67.5t4.5 -66zM248 188l-2 -2q0 2 2 2zM659 487q4 16 11 23q-6 3 -8.5 10t-3.5 20t-1 15q2 2 2 8q0 1 -10 31l-12 -4 q-101 -68 -227 -201q-35 -37 -51 -54t-50 -57.5t-51 -68.5t-32 -64t-15 -65q0 -21 39 -21q37 -1 81.5 14.5t69.5 30t72 43.5q4 3 38 14t42 27l47 86q18 35 34 112.5t25 100.5z" />
<glyph unicode="p" horiz-adv-x="931" d="M893 573q8 -13 8 -30q0 -14 -8 -33q-9 -19 -16.5 -43.5t-11 -42.5t-10 -48.5t-9.5 -45.5q0 -7 -27 -67.5t-70 -124.5t-75 -64q-3 0 -11 5t-12 5q-7 0 -18 -6t-15 -6q-9 0 -12 10q-86 -64 -96 -72q-3 -2 -31.5 -24t-45 -33t-44.5 -28.5t-52 -26.5t-44 -11q-1 0 -12 -1 t-16.5 -2.5t-12.5 -4.5t-10 -8q-21 -36 -38.5 -105.5t-38.5 -135t-54 -105.5q-11 -14 -17.5 -27t-13 -30.5t-10.5 -26.5q-11 -22 -22 -60t-20.5 -68t-23 -59.5t-35.5 -46t-51 -16.5q-38 0 -55 26.5t-17 61.5q0 27 7 51q12 51 19.5 100.5t15 116t12.5 101.5q100 440 305 897 q-128 -86 -176 -86q-58 0 -58 104q0 90 63.5 151.5t153.5 90.5q9 3 33 12t42.5 14t33.5 5l12 -2q3 2 10 6.5t11 7t11 6t13 5t13 1.5q4 0 13.5 -4t14.5 -4q7 0 20 2t17 2q45 -5 79.5 -10.5t74.5 -19t55 -19t69.5 -28.5t69.5 -29q31 -10 51.5 -35t28.5 -49.5t16.5 -53 t16.5 -39.5zM676 584q0 4 1 7l1 3q0 2 -23 14t-65.5 24t-81.5 11q-10 0 -17.5 -3t-11.5 -7t-7 -12.5t-3.5 -13.5t-1.5 -16.5t-2 -15.5q-21 -110 -59 -249q-17 -53 -52.5 -145t-48.5 -130q4 2 12 6.5t10.5 6t9 5.5t9 6t7 6t6 7t4.5 7.5t3.5 9.5t1.5 11t1 13l63 49 q62 50 62 62l-7 12q0 11 11.5 21t24.5 16t24.5 14t11.5 16q0 16 5 26t15.5 20.5t14.5 17.5l29 78q36 63 53 123z" />
<glyph unicode="q" horiz-adv-x="837" d="M809 592q10 -17 10 -39q0 -51 -26.5 -109t-59 -119t-41.5 -108q-4 -22 -19 -60t-20 -57q-72 -266 -147 -487q-8 -13 -8 -29l2 -16q0 -28 -9 -59t-19 -51t-27 -50.5t-23 -42.5q-9 -17 -16.5 -40t-10.5 -35t-9 -43t-7 -35l-5 -36q-4 -35 -10 -76.5t-17.5 -76.5t-24.5 -35 q-4 1 -12 2t-11 2q-7 1 -31 9v53l13 436v37q0 19 1.5 29.5t8.5 25t22 29.5q-6 -6 -10 -6q-12 0 -12 41q0 6 -1 13.5t-0.5 12.5t3.5 11q1 6 14.5 115t34.5 159q-67 -67 -125.5 -100t-142.5 -33q-91 0 -129 57q-25 37 -49.5 92.5t-24.5 75.5q2 2 2 10q0 1 -4 10t-4 23 q0 8 8 19t8 14q-2 2 -2 8q0 7 1.5 12t4.5 9t5.5 7t7.5 4.5t8 2.5t9 1.5t8 0.5h8h6q-3 3 -8.5 7.5t-6.5 7t-2.5 9t-1.5 17.5q0 8 15.5 13t17.5 9q0 8 -7 22t-7 17l1 2q2 3 5.5 7l7 8t8 7t8.5 3t10 -4t9 -4q4 0 11 7.5t9 12.5q-8 0 -8 11q0 12 2 23.5t4.5 21t8 20.5t9.5 18.5 t12 18t12.5 16.5t14 16.5t14 14.5t15.5 15l14 14q18 18 56 64t61 67q8 7 13.5 22.5t11.5 22.5q16 16 39 36.5t73.5 62t103 68.5t91.5 27l45 -2q12 0 32.5 -3t45 -9t42 -19t17.5 -30q-7 -7 -47 -27q12 -4 17 -4q7 0 16 6q-4 -3 -20.5 -17t-29 -20t-26.5 -6l-24 2 q-150 0 -428 -460q-11 -18 -44 -66.5t-49.5 -76t-32.5 -67.5t-16 -71q0 -8 15 -8q46 0 93.5 16t74 31.5t80.5 52.5t73 49q25 12 38.5 38t24 64t17.5 52q30 75 91 173.5t79 139.5q0 41 23.5 64.5t64.5 23.5q7 0 25.5 -13.5t33.5 -27t15 -14.5q1 -4 1 -12t0.5 -13.5t3 -12 t5.5 -11.5z" />
<glyph unicode="r" horiz-adv-x="569" d="M811 799q6 -11 6 -41v-8q-6 -21 -26 -29q-45 -23 -71.5 -33t-33 -10t-22.5 -8.5t-50 -32.5q-117 -38 -247 -213l-2 -2q-17 -20 -29 -51l-2 -2q-15 -26 -21 -66l-2 -2l-8 -16l-24 -109q-21 -80 -37 -119l-2 -4v-12l-2 -10l4 -11v-14q-6 -42 -25 -90l-6 -12q0 -3 -2.5 -9 t-11 -12t-19.5 -6l-24 8q0 -6 -2 -10l-2 -4q-1 -4 -2.5 -7t-5.5 -8t-9.5 -8t-15 -5.5t-21.5 -2.5q-9 -1 -22 9t-25 10q-20 41 -24 47l-2 4l-7 12q-6 11 -12 17l-1 6q-7 41 -13 47l-2 8l-8 25q0 15 4 24t4 10v2l2 27q49 183 59 244l2 6v1q2 3 2 15l8 27q3 3 4.5 5t3.5 5.5 t3 6t2 8.5t2 11t2 16t2 20.5t2.5 27t3.5 33.5v4q1 8 6 47.5t9.5 60t20.5 54t40 57.5l4 13q5 8 16 15t29 42l6 2q20 20 43 20q3 0 8.5 -1t7.5 -1t6.5 1t6.5 1q10 0 24 -9t26.5 -20t14.5 -12l25 -26q25 -25 27 -25l2 -2l2 -2q17 0 116 55l2 3q119 55 189 55q12 0 18 -2h10 q47 -10 64 -43z" />
<glyph unicode="s" horiz-adv-x="692" d="M768 879q3 -4 13.5 -13t15 -17t4.5 -20q0 -62 -26 -114.5t-63 -89.5t-74 -72.5t-63 -80t-26 -95.5l2 -15q7 -45 31.5 -156t29.5 -169l-11 -23q-11 -24 -29.5 -58t-41 -68t-51.5 -57.5t-55 -23.5q-125 0 -209 21q-15 4 -39 23t-29 22q-36 20 -53 35q-18 14 -37 45.5 t-32 55.5t-19 24q-1 0 -2 -0.5t-3.5 -1.5t-4.5 -2q-12 -9 -64.5 -52.5t-90.5 -67.5t-64 -24q-4 0 -20.5 19.5t-16.5 21.5q0 4 2.5 10.5t5.5 13.5t4 9q20 55 63 97t85 64t100 52.5t92 56.5q12 9 52 38.5t65.5 51t46.5 46.5q21 23 31.5 42.5t12.5 30.5t4.5 41t4.5 47 q1 19 4.5 38.5t11 42t13 35.5t17.5 40.5t16 36.5q13 30 30 94t29 84l1 1q14 15 29.5 31t47.5 39.5t51 24.5q12 0 21 -6q22 -12 60 -41.5t69.5 -48t58.5 -18.5zM391 55v64q0 14 -1.5 28.5t-3 25t-6 28t-6.5 24.5t-9 28t-8.5 25l-10.5 28t-10 26l-277 -213q29 -21 52 -21 q8 0 24 6.5t25 6.5q8 0 22 -14.5t21 -14.5q3 0 10.5 2t11.5 2q24 0 72.5 -18.5t67.5 -18.5q4 0 12.5 3t13.5 3zM612 35v2v-2z" />
<glyph unicode="t" horiz-adv-x="712" d="M911 762q-5 -16 -47 -37q1 -2 4.5 -7.5t3.5 -8.5q0 -18 -23 -33t-57.5 -27t-41.5 -16q-14 -20 -41 -36t-49 -23.5t-62.5 -19.5t-56.5 -17q-37 -14 -82 -37q-12 -30 -56 -115t-59 -131q-8 -23 -34.5 -81.5t-46 -108.5t-19.5 -74q0 -56 -11 -70q0 1 3 4q-9 -9 -23 -53 t-31 -81.5t-35 -37.5t-30 7.5t-18 16.5t-9 26.5t-3 28.5t0.5 31.5t0.5 26.5q0 8 3 28t3 32q0 6 -5 17.5t-5 21.5q0 9 4 27t4 26q0 5 -2 15t-2 12q0 73 19 147.5t58 174t48 126.5q-4 8 -10 14q-3 4 -36 38.5t-61 67.5t-28 44q0 23 10.5 38.5t26 21t31 7t26 0.5t10.5 -2 q18 1 51 -2.5t48 -3.5q23 0 46.5 55t49.5 137.5t41 112.5q13 21 22.5 71.5t24 84t43.5 33.5q10 0 27 -9.5t24 -9.5q5 0 15 2.5t14 2.5q39 0 83 -23.5t44 -56.5q0 -10 -60 -138q-19 -43 -48.5 -123.5t-43.5 -115.5q16 -2 49 -2q53 0 144.5 21.5t120.5 21.5q4 0 8 -2.5t8 -8 t6.5 -9.5t6.5 -11.5t5 -9.5z" />
<glyph unicode="u" horiz-adv-x="788" d="M823 250q11 -33 11 -60q0 -46 -24.5 -78.5t-52.5 -44.5t-52 -12q-34 0 -103 21q-11 3 -21.5 12t-16 16t-15.5 22.5t-12 18.5q-13 -19 -59.5 -97t-78.5 -114q-10 -11 -22.5 -19t-22 -11.5t-28.5 -9.5t-27 -9q-3 -2 -17 -8t-18.5 -8t-15 -6t-19 -5t-18.5 -1q-21 0 -56 7.5 t-51 22.5q-10 7 -18.5 16t-19.5 25t-15 21q-2 2 -23 22t-28.5 29t-21.5 26.5t-19.5 33.5t-5.5 32q0 129 10 177q14 72 57 130q15 20 30 64.5t32 64.5q-2 -2 -4 -2h-2q1 4 9 21.5t21.5 43.5t24.5 44q12 19 35 81t48.5 103t59.5 41q26 0 53 -38.5t27 -80.5q0 -20 -10 -53.5 t-10 -50.5l10 -66q0 -29 -34.5 -108.5t-41.5 -100.5q-9 -25 -33 -73.5t-38.5 -88t-14.5 -71.5q0 -9 7.5 -16t13.5 -7q2 3 8 5q33 16 58.5 35t41 35.5t30 41t21 40.5t18.5 46t19 47q6 15 17.5 46t20.5 54.5t22 54t24.5 52t24.5 41.5t27 30.5t28 10.5q22 0 57.5 -27.5 t49.5 -31.5q-1 0 -4.5 -1.5t-6.5 -2.5h43q16 0 25.5 -45.5t9.5 -63.5q0 -34 -5.5 -70.5t-17 -89.5t-14.5 -71q3 1 16 7.5t21.5 10t21 7t21.5 3.5q4 0 11.5 -3.5t17 -9t14.5 -7.5z" />
<glyph unicode="v" horiz-adv-x="913" d="M1243 936v-53l-10 -6v-7l-16 -24l-37 -23v-4l-9 -4v-20l-8 -4l-16 -29l-25 -14l-16 -27q0 -1 -29.5 -24.5t-74 -59t-64.5 -51.5l-66 -54l-10 -20l-37 -29l-4 -8l-243 -239l-111 -80q-80 -63 -128 -113t-48 -66l-6 -10q-48 -56 -64 -76l4 -18q0 1 -1 -3.5t-2.5 -13t-5 -17 t-11 -16.5t-17.5 -11l-6 -2h-10.5h-14.5t-15.5 1t-17.5 3t-16 7t-14.5 11t-10.5 16t-7 23q-5 14 -10 27t-7 18t-2 6h2l-8 15q-10 114 -10 241v240l51 270l37 129l8 14q10 83 41 91l33 -2l12 -5h41l35 -6l29 -18l32 -49v-131l-41 -267q100 73 242.5 162.5t259.5 147.5 q1 0 17.5 11.5t37 24.5t50.5 31.5t62.5 36t67 34t71 29.5t67.5 19l10 4l29 -2z" />
<glyph unicode="w" horiz-adv-x="1089" d="M1262 1231l26 -39l2 -4q0 -12 -8 -34t-8 -36q0 -23 -22 -57.5t-25 -48.5q-4 -27 -54.5 -138t-50.5 -141v-14q0 -31 -26 -99t-29 -79q-3 -9 -26 -62t-23 -88q0 -3 1 -7t1 -5q-2 -17 -14 -49q-9 -18 -29 -75t-41.5 -107.5t-52.5 -104.5t-74.5 -86.5t-93.5 -32.5 q-17 0 -31.5 3t-20.5 5t-21.5 10t-20.5 11q-19 9 -54 57t-65.5 120.5t-30.5 129.5l2 47v101q-10 -23 -10 -41v-19q0 -16 -13.5 -54.5t-13.5 -51.5v-17q0 -44 -30 -145q-38 -117 -64 -153t-80 -36q-7 0 -14.5 2.5t-16 7.5t-13.5 9t-14 11t-11 9q-60 49 -80.5 124t-20.5 171 v271v63q0 43 2 66l10 123q16 153 107 153q38 0 74.5 -48t36.5 -93l-5 -150q0 -12 5 -80q17 49 35 86t46.5 73t69.5 55.5t92 19.5q50 0 83.5 -33t48 -87.5t19.5 -99.5t5 -95v-138l-2 -45l2 -22q23 50 82.5 172t89.5 190q4 9 18 40t18.5 41t17 37.5t18.5 40t17.5 36.5t20 39.5 t19.5 36.5t22 39.5t23 37.5q9 14 36 68t52 84q0 3 14.5 30t41 58.5t51.5 36.5z" />
<glyph unicode="x" horiz-adv-x="712" d="M844 821q4 -32 4 -53q0 -33 -39 -83.5t-114.5 -127.5t-104.5 -111q-8 -9 -36.5 -39.5t-43 -50t-14.5 -30.5q0 -9 2 -11q65 -167 123 -295q5 -10 18.5 -30.5t17.5 -32.5q3 -13 26.5 -59t23.5 -58q0 -4 -13.5 -25.5t-15.5 -21.5l-8 2l-11 -8q-29 0 -73 17.5t-72 56.5 q-76 87 -201 278q-1 -1 -43 -55l-69 -88q-58 -72 -99 -113q-1 -1 -12 -17.5t-23 -32t-35 -29t-48 -13.5q-54 0 -54 76q0 21 17 55q59 113 207 305q5 7 24.5 30.5t33 42.5t13.5 26q0 8 -3.5 20t-8 21.5t-10 21t-6.5 14.5q-60 174 -60 285l2 84q0 45 45 71.5t88 26.5 q17 0 33 -12t29.5 -33.5t25 -45.5t22.5 -55.5t18 -54.5t15 -52t11 -39q17 19 57.5 68t71.5 83t63 62q7 6 28.5 26.5t31 27.5t29.5 19t41 16.5t47 4.5q28 0 49 -64z" />
<glyph unicode="y" horiz-adv-x="966" d="M913 696q2 -3 7.5 -9.5t8.5 -12.5t3 -12q0 -16 -17 -56q-29 -335 -147 -586q-6 -11 -29 -83q-3 -9 -9.5 -24.5t-10.5 -27.5t-4 -20v-15q-2 -21 -12.5 -51t-20.5 -52t-24 -50.5t-17 -34.5q0 -1 -11 -39t-27.5 -78t-41.5 -77q0 2 2 4q-10 -17 -31 -17q-7 0 -16 6v-12 q0 -13 -7 -22t-7 -11v-10q0 -17 -10.5 -26.5t-23.5 -13.5t-27 -17t-19 -35h4q23 0 29 20q-6 -24 -34 -64t-28 -46q0 -3 2.5 -10.5l3.5 -10.5q0 -13 -10 -35t-12 -30q-6 -38 -20 -49t-66 -11q-56 0 -91.5 30.5t-41.5 84.5q0 19 4 45.5t8 45.5t12 53t11 47q0 1 6.5 21.5 t14.5 43t19.5 51t23 50.5t25.5 37.5t27 15.5q20 0 73 133.5t83 232.5q1 3 11 44t20 57q4 12 17 19.5t13 19.5q0 22 -2 28q0 5 6 13t7 10q-106 -99 -158 -134q-91 -61 -168 -61q-14 0 -16 2q-2 0 -24 15.5t-54.5 44t-64 63.5t-53.5 80.5t-22 87.5l19 72l-2 37q0 18 6 30 q8 14 14.5 23t9.5 11t5 4.5t2 6.5q0 57 106 187q0 -2 -2 -4q35 55 85 96t104 41q43 0 75.5 -32t36.5 -79q0 -25 -13.5 -49t-30 -39t-32 -34t-18.5 -35q-7 -34 -64 -151t-57 -153q65 19 182 117q20 13 43.5 44t42.5 44q52 39 140 166q14 21 25 64t22 61q28 53 119 53 q14 0 31.5 -5t29 -10t31 -15t26.5 -13z" />
<glyph unicode="z" horiz-adv-x="1032" d="M1112 215l41 -25q0 -4 1 -7l1 -3q0 -8 -3 -15t-10 -15.5t-10.5 -12t-14 -12.5t-11.5 -10q-167 -151 -422 -250q-16 -7 -54 -91.5t-38 -105.5l4 -18q0 -17 -23 -58l2 -14q0 -23 -8 -31q-7 -7 -43 -46t-64.5 -66.5t-43.5 -34.5q-16 -8 -26 -40.5t-15 -39.5q-26 -37 -72 -98 q-11 -14 -45 -52.5t-53 -65.5t-19 -44l4 -2q0 -21 -54.5 -72.5t-141.5 -98t-158 -46.5t-107 26.5t-36 94.5q0 153 88 276q157 243 366 449q14 13 67.5 69.5t86.5 83.5q23 19 59.5 61t51.5 54q-24 0 -27 -21q2 14 2 54q0 12 -18.5 26.5t-37 30.5t-18.5 33q0 9 0.5 14.5 t4.5 10.5t6 6.5t12 9.5q-23 36 -51.5 64.5t-47 42t-31.5 30t-13 35.5q0 20 41.5 62t66.5 50q9 3 39.5 12t38 11.5t32 10.5t33 11.5t29 11.5t32 14t29.5 15t34 19t34 22q28 18 62 60t34 61q0 13 -6 17t-30 4l-328 -74q-50 0 -105 20.5t-114 47.5t-101 36q-6 2 -15.5 3.5 t-15.5 3t-14 4.5t-16 8q-14 3 -52 51.5t-38 61.5q0 4 4 12t10 19t8 16l-16 -4q33 18 63 57q8 9 18 32t22 37.5t30 14.5q49 0 89.5 -16t66.5 -40.5t53.5 -53t50.5 -53t57.5 -40.5t75.5 -16q17 0 19 2q165 27 325 61q48 0 141 -38.5t93 -86.5v-14q0 -46 -1 -73t-6 -69t-19 -71 t-36 -45q-8 -6 -39 -29.5t-40.5 -30.5t-35.5 -25.5t-40 -26.5t-36.5 -21t-42.5 -21.5t-42 -15.5q-7 -5 -27 -15.5t-30 -17.5t-19.5 -22.5t-9.5 -36.5q0 -11 18.5 -23.5t18.5 -25.5l-2 -7q0 -11 60 -58.5t71 -47.5q10 0 30 12q167 65 238 103q5 3 25.5 14.5t30 16.5t25.5 13 t27.5 11.5t20.5 3.5zM369 -356l59 141q-19 -6 -72 -53q-249 -217 -329 -369q-21 -40 -65 -106t-62 -99q-35 -58 -35 -82q0 -18 18 -18q36 0 56 20q57 46 119 112t91.5 102t102.5 128q13 16 25.5 35.5t21 33.5t20 39t16.5 35.5t17.5 41t16.5 39.5z" />
<glyph unicode="{" horiz-adv-x="673" d="M899 1550l6 -20l-12 -17q-14 -53 -66 -53l-57 6q-22 0 -40 -10t-43 -31.5t-40 -31.5l-22 -7l-9 3q-21 -7 -24 -7q0 -36 33 -94l2 -2q2 0 4 -2q3 0 7 -0.5t15.5 -4.5t20 -10t15.5 -18.5t7 -29.5q0 -7 -1 -14t-2.5 -12.5t-4.5 -12t-5 -10t-6.5 -10t-6 -8.5l-6 -8t-5.5 -7 q0 -1 2.5 -6.5t2.5 -12.5l-11 -22l-67 -66q-21 -27 -79.5 -95.5t-84.5 -107.5l-68 -75q0 -20 -12 -58q8 -16 8 -26q0 -17 -9.5 -29.5t-18.5 -17t-25 -9.5l18 -47v-20q0 -10 18 -48.5t32 -52.5l2 -2q2 -4 23 -18.5t37.5 -37.5t16.5 -52l-12 -70l-18 -24q-3 -10 -7.5 -55.5 t-13.5 -71.5v-6q0 -16 -10 -25t-17.5 -10.5t-11.5 -1.5v-35q-2 -12 -2 -40t-2 -52l-6 -56l18 -63l3 -23l-7 -69l23 -19l6 -6q4 -2 9 -10.5t5 -17.5q0 -11 -4 -19l9 -20l-3 -25l33 -41l5 -4q5 -5 12 -12.5t14.5 -17.5t12.5 -24t5 -28q0 -28 -22.5 -47t-50 -29t-29.5 -12 l-6 10l-10 -6l-11 -18l-34 -15q-65 18 -107 73.5t-57 125.5l4 45q0 21 20 41q-6 6 -10 25q-5 26 -18 89t-21 108.5t-12 88.5l8 56v67l-14 8l-17 31q0 26 15 57.5t26 42.5q-2 3 -8.5 11t-10.5 15.5t-7 16.5v2q0 11 -2 17l-7 10l-10 41q0 1 -7 6t-9 10l-2 2q-11 25 -18.5 67.5 t-12.5 55.5v23l4 10l-6 4l-8 17q-1 7 -15 38t-16 56l2 6q0 19 6 25v12q2 24 19 41q-6 6 -6 22q0 14 10.5 25.5t23.5 11.5h2q15 31 42.5 76t41.5 59l31 43l41 41l7 12q8 12 16 28t8 26q0 3 -6 27.5t-6 46.5q0 19 26 45q0 2 -3 12.5t-3 19.5l2 31q2 9 7 16.5t9 10.5l5 4 q0 1 -1.5 3t-3.5 6.5t-2 10.5l21 31l8 4q-14 2 -14 27l2 12q59 123 215 217q67 67 129 76l16 -2l19 -8l2 6q34 0 51 -17l29 7q29 0 43 -19l30 -10l6 -8q46 -25 58 -49zM705 1628l4 2z" />
<glyph unicode="|" horiz-adv-x="1273" d="M944 1583v-12l-16 -17q-3 -7 -5.5 -17t-4.5 -23.5t-3 -23.5t-2 -29.5t-2 -28.5l2 -46l-18 -83l2 -29q1 -12 -1 -25.5t-6 -29.5t-5 -25q-21 -90 -44.5 -272t-47.5 -283q0 -34 -14.5 -104.5t-14.5 -96.5v-30l-29 -162v-29q0 -34 -17.5 -106t-17.5 -84v-9q-6 -22 -10 -67 t-10 -68q0 -48 -23.5 -142t-23.5 -114q0 -21 6 -39v-4q0 -44 -11.5 -72.5t-33.5 -40.5t-42.5 -16t-51.5 -4l-13 12q-45 4 -77 52l4 4l-23 22q-1 32 9.5 87.5t13.5 84.5q1 9 5 67.5t11 132.5t16 136q2 12 18.5 65t16.5 93q0 39 15.5 80t15.5 51q1 4 4.5 29.5t9 55t13.5 54.5 q0 12 10 63.5t23 119t18 106.5v4q11 41 20.5 99.5t19.5 133.5t17 117l-4 54q2 16 8 41.5t6 35.5v41q0 26 7.5 69t7.5 60v31q0 23 12 59q1 7 4 21q18 91 35 116q27 40 106 40l15 -17q33 -7 66.5 -32.5t33.5 -55.5zM410 -485l4 4z" />
<glyph unicode="}" horiz-adv-x="708" d="M684 424l-2 -6q0 -1 -6 -25v-12q-2 -24 -19 -41q7 -7 7 -23q0 -18 -11 -27t-24 -9h-2q-15 -32 -43.5 -78t-40.5 -58l-31 -43l-41 -43q-31 -48 -31 -63q0 -3 6.5 -29t6.5 -45q0 -13 -5.5 -22.5t-13 -16t-8.5 -8.5q0 -2 3 -12.5t3 -18.5l-2 -32q-4 -13 -20 -29q0 -1 3 -7 t3 -14l-29 -34l3 -3q4 -3 7.5 -9t3.5 -15l-2 -12q-57 -122 -215 -217q-67 -67 -129 -76l-16 2l-19 8l-2 -6q-40 0 -51 16l-28 -6q-32 0 -43 19l-33 10l-4 8q-43 20 -60 49l-10 10l-6 21l12 16q14 54 66 54l57 -7q21 0 39 9.5t44.5 33t37.5 31.5l24 6l9 -2q5 1 13.5 3.5 t10.5 2.5q0 37 -33 95l-2 2q-23 8 -36 15t-23 19.5t-10 30.5q0 43 37 80q0 2 -2 7.5t-2 13.5l10 22l67 66q22 30 79.5 96.5t82.5 105.5l70 76q0 1 3.5 21.5t8.5 35.5q-8 8 -8 27q0 41 53 55l-18 47v21q0 14 -17.5 48.5t-31.5 51.5l-2 2q-1 1 -12.5 9t-20.5 16t-20.5 20.5 t-18 29t-6.5 34.5l12 70l18 24q3 10 7.5 55.5t13.5 71.5v6q0 19 13.5 28t25.5 9v35q0 61 4 92l6 55l-18 64l-2 22l6 70l-23 18l-5 3q-5 4 -10 12t-5 20q0 11 4 19l-8 20l2 25l-33 41q-2 2 -4 6q-45 45 -45 80q0 29 23.5 49t50.5 29t28 10l6 -10l11 6l10 18l33 14 q67 -17 107.5 -71.5t57.5 -126.5l-4 -45q0 -21 -20 -41q1 -1 2.5 -4.5t4 -10t3.5 -10.5q5 -25 18 -89t21 -109.5t12 -88.5l-8 -55v-67l14 -9l17 -30q0 -26 -15.5 -59.5t-25.5 -43.5q22 -30 26 -41v-4q0 -5 1 -10l2 -4l16 -51q15 -15 16 -17l2 -2q11 -26 19 -68t12 -55v-22 l-4 -10l6 -4l8 -17q2 -9 14.5 -39.5t16.5 -54.5z" />
<glyph unicode="~" horiz-adv-x="1206" d="M1217 467l26 -53l-8 -6l-16 -13q-3 -2 -8.5 -6t-9.5 -6.5t-5 -3.5l-6 -6l-10 -11q-3 -1 -5.5 -2.5t-5.5 -3t-4 -2.5q-12 -6 -16 -10l-8 -8l-8 -4l-13 -8l-36 -42q-27 -34 -25 -36l-4 6l-8 12l6 -24q1 -2 2 -6t2 -5l-8 -8l-21 -14q14 -23 39 -51q1 -1 23 -29l61 -78l2 -33 l-4 -8l-27 -16h-20l-2 2l-2 -2l-8 -10l-31 -23l-19 -6q-4 -3 -7 -5t-3 -3l-4 -4l-20 -9l-29 2l-41 17l-86 96l-4 4q-4 4 -4 8q-1 -1 -16.5 -5t-30 -11.5t-17.5 -17.5l-14 -13q-9 -7 -39.5 -14t-56.5 -18.5t-33 -32.5l-10 -6l-54 -21l-71 -12q-14 4 -33.5 6.5t-47.5 3t-48 1 t-56.5 0t-52.5 -0.5l-63 23q-6 6 -21 6l-37 20l-49 37l-43 55l-24 47l-9 52l7 73l32 76l68 96l100 119q86 82 119 115q118 114 131 127v186v6l16 78l21 62l51 75l60 56l57 37l72 30l57 6h67l52 -10l59 -39l49 -55l23 -33l30 -65l5 -51l-11 -37l-24 -47l-56 -64q0 3 -3 1 t-22.5 -25.5t-57.5 -71.5l-7 -4q-4 0 -22.5 -21t-18.5 -30q-1 0 -28.5 -21.5t-30.5 -24.5l-8 -14l-19 -14q-6 -8 -10.5 -13t-8 -8.5t-14 -13t-22.5 -21.5l16 -34q18 -18 43.5 -68t40.5 -55l5 -4q4 -15 12 -23q18 -32 24 -39q73 15 193 56zM610 266l54 35l-9 18l-18 -4v27 l-37 64l-18 16v18l-13 17l-22 -4l-4 -4l-39 -13l-17 -18v-12h-14v-13l-12 -8v-6l-66 -55l-24 -35l-27 -27l-12 -24l-2 -27l67 4l90 21l78 26zM625 864l186 183v14h-10l-70 -14l-59 -33l-47 -45l-7 -58v-47h7z" />
<glyph unicode="&#xa1;" horiz-adv-x="671" d="M489 858q37 -37 37 -98q0 -10 -3 -21t-8.5 -25.5t-6.5 -17.5q-11 -38 -24 -111.5t-27 -111.5q2 2 4 8q-2 -2 -2 -12q-4 -37 -24 -105t-23 -79l-27 -115q-6 -18 -10.5 -51.5t-5.5 -40.5q-24 -138 -39 -185q-38 -113 -97 -114q-120 0 -120 143q0 10 3 22t8 27.5t7 22.5 q39 196 72 328.5t82 267.5q5 16 20 66.5t26 81t29 69t39.5 57.5t46.5 19t43 -25zM666 1294q22 -25 22 -67q0 -28 -7.5 -59t-23 -61.5t-44.5 -48t-66 -11.5h12l-47 6h-4q-6 5 -42.5 21.5t-45.5 39.5q-3 8 -21 24t-18 36l25 73q0 21 27 46t50 32q1 0 5 -1t8 -1q3 0 22 17 t33 20q7 0 18 -1t15 -1q19 0 46.5 -32t35.5 -32z" />
<glyph unicode="&#xa2;" horiz-adv-x="931" d="M924 756v-35l-31 -31q-3 0 -21 -4t-24 -4q-9 0 -135 51l-51 -155l-68 -179l-90 -204q173 47 237 102q2 2 13 10t17.5 15.5t17 21t19 33.5t15.5 45l60 2l32 -94l-2 -25l-32 -61l-15 -15l-20 -8q-69 -56 -124 -94.5t-142 -82t-170 -60.5l-31 -70l-92 -152l-27 -71l-35 -49 l-12 -4l-37 -39l-35 -9l-10 7l-2 -3l-43 23l-8 49v33l24 78l123 305l-18 22q-168 168 -168 373q0 80 14 123q2 6 13.5 17t22.5 28.5t15 42.5l11 19q44 38 47 124l8 23q3 3 11 10t10.5 9t9.5 9.5t11.5 13.5t12.5 18t16.5 26.5t20 35t25.5 46.5l24 16q51 0 64 13l35 14 q25 0 76 -9t96 -30l39 -18l139 305l39 76l18 26l33 12l8 -2l21 -41l-15 -41v-20l-6 -14l-10 -49l4 -25l-12 -59l-4 -33l-56 -166v-8l-8 -43l2 -13q32 -25 78 -73t63 -62zM553 780l20 45q-52 21 -55 21q-82 0 -174 -234q-78 -206 -78 -264q0 -126 33 -164l29 76z" />
<glyph unicode="&#xa3;" horiz-adv-x="1290" d="M1315 313q20 -52 20 -90q0 -62 -37 -114.5t-93 -83t-116 -47.5t-112 -17q-35 0 -137 10q-1 0 -171 23.5t-239 23.5q-100 0 -164 -22l-180 -43l-20 57q7 3 17 9t13 8q-6 2 -16 2q-48 0 -180 -23l-15 60q20 10 110 68t144 77l8 49l19 25q27 10 53.5 48t41 74.5t30.5 82 t18 49.5v106q0 11 4 31q-20 4 -30 4q-36 0 -70 16t-55 30.5t-27 12.5q-59 0 -92 35t-33 94l10 23q34 29 105 29q39 0 117 -8.5t104 -8.5q19 0 27 2q34 156 34 195q26 152 108.5 236.5t205.5 84.5q106 0 179 -42.5t101 -116.5v-21l-57 -182l-55 -6q-36 55 -86 83t-133 44 q-3 -3 -10.5 -30t-16 -94t-8.5 -145q0 -3 1 -9.5t1 -8.5l233 -45q3 0 5.5 -1t15.5 -1q49 0 49 -37q0 -14 -10 -39q2 -2 2 -8q0 -41 -64 -51q-3 0 -11 -1l-5 -1l2 -13l-25 -10h4l-6 -61l-217 18q0 -3 1 -10.5t1 -11.5q0 -67 -38 -143t-128 -210q10 0 93 -18q14 -3 91 -21 t146 -29.5t125 -11.5q98 0 159 40.5t93 125.5l12 17l53 35l39 -7q43 -46 62 -86z" />
<glyph unicode="&#xa4;" horiz-adv-x="612" />
<glyph unicode="&#xa5;" horiz-adv-x="1198" d="M1278 1249v-2l2 -10q0 -10 -19 -50.5t-34 -51.5q16 -2 16 -31q0 -21 -6 -27l-72 -82q-10 -11 -18.5 -22.5t-17.5 -25t-14 -22t-15 -27t-15 -26.5q-27 -46 -96 -123t-96 -124l102 2q225 0 256 -82v4q6 -12 6 -25q0 -12 -6 -22t-18 -17t-20.5 -11t-24.5 -9t-19 -6h-6 q0 -6 -1.5 -10.5t-5 -8.5t-7 -7t-11.5 -6t-14.5 -5t-19 -5t-22.5 -5t-27 -6t-31 -7l-147 -14q-25 -7 -66 -11t-71 -8t-60 -12.5t-46 -29.5t-16 -54q39 5 111.5 17t133 20t112.5 8q29 0 46 -11t17 -28q0 -6 -3 -13t-6.5 -12t-10.5 -11.5t-11 -10t-12 -9.5t-10 -7 q-8 -5 -15.5 -17.5t-11.5 -15.5q-54 -35 -110 -67q-11 -6 -29 -24t-33 -23q-47 -22 -141 -46.5t-125 -35.5q-11 -3 -14 -5.5t-3.5 -12.5t-2.5 -17q-10 -28 -46 -94t-48 -105q-1 -2 -10 -63t-26 -102.5t-44 -41.5q-30 0 -51 25.5t-21 56.5v13q0 8 -5 29.5t-5 33.5 q1 38 11.5 119t10.5 123q0 4 -21.5 9t-31.5 5q-3 0 -16 -3t-21 -3q-40 0 -66 40.5t-26 78.5q0 17 5 31.5t16.5 26t22.5 21t30.5 17t32.5 13t36 10.5l34.5 7.5t35 7t29.5 5.5q4 0 14 38.5t10 47.5q-15 -3 -47.5 -11t-53 -13t-50 -9t-54.5 -4q-64 0 -112.5 28.5t-48.5 78.5 q0 23 10 43q11 24 64.5 49t110.5 41.5t103.5 33t46.5 27.5q0 13 -12 63t-12 76q0 122 10 185q0 9 2 34t12 74.5t27 91t51.5 73.5t79.5 32q68 0 103.5 -67t35.5 -160q0 -59 -18 -230q95 83 261 247.5t198 195.5l23.5 23.5t28 28.5t28 28t30.5 27.5t26.5 21.5t24 16.5 t17.5 5.5q19 0 33.5 -14.5t15.5 -38.5z" />
<glyph unicode="&#xa7;" horiz-adv-x="929" d="M928 1165q12 -18 12 -45q0 -16 -4 -24v-2q-11 -31 -45 -31v-1q0 -3 -2.5 -6.5t-22 -10.5t-55.5 -13h-4q-28 0 -49 8.5t-46.5 28t-31.5 23.5l-22 -16q-21 -16 -45.5 -39.5t-30.5 -39.5q0 -11 8 -47v-4v-4q25 -25 60.5 -69t64.5 -68l41 -29q24 -21 35.5 -25.5t74.5 -19.5 l4 -2q16 -8 29 -25t14 -18v-2q9 -14 9 -37q0 -117 -45 -194q-11 -15 -20 -32.5t-14.5 -24t-24.5 -16.5t-58 -22q-26 0 -38 -4.5t-14 -10t-4 -18.5t-6 -22l-2 -2q-3 -5 -5 -17.5t-5 -15.5h2q-3 -11 -9.5 -20.5t-6.5 -11.5q19 -22 37 -72.5t18 -83.5q0 -25 -2 -37h-2 q-15 -49 -94 -137.5t-178 -138.5l-2 -3q-7 -3 -32.5 -15.5t-36 -16.5t-32.5 -11.5t-44.5 -11t-49.5 -4.5h-2q-20 0 -58.5 12.5t-56.5 12.5q4 -2 4 -6q0 -19 -51 -19l-127 10q-46 11 -53 15h-8q-89 25 -123 55h-2q-25 25 -25 68q0 20 2 28l2 4q12 50 33 66l2 2q28 20 90 20 q20 0 66 -22t67 -27q104 -30 365 -30q76 0 90 77l2 2q4 16 4 27q0 9 -4 29v4q0 25 -14 47q-1 1 -11.5 13t-32.5 30.5t-55 38.5l-2 2q-15 10 -31 21t-20 14q-3 1 -15 2t-26 5.5t-28 14.5l-3 2q-22 13 -39.5 45t-17.5 56q0 19 14 48.5t15 33.5l2 2q0 2 -1.5 9t-3 21.5 t-1.5 32.5q0 27 15.5 46t38 31.5t24.5 14.5q3 4 24 19.5t51 44t58 63.5h2q6 31 6 33v6q0 19 6 25q-10 18 -61 34v-2q-2 0 -10 7.5t-18 26t-13 40.5v4q0 15 11 37.5t11 26.5l2 2q11 52 29 87t44.5 54.5t50 30t60.5 23.5t60 24q3 0 6.5 4.5t12.5 12.5t22 14l49 49q17 7 39 10 t24 4l3 2q12 2 30 2q103 0 150 -82zM590 594q-4 2 -12 2q-51 0 -98.5 -51t-47.5 -84q0 -15 6 -23t12 -9t19 -1h4q12 -2 51 -2q78 0 134.5 16t56.5 37q0 8 -1 13t-2 9t-6 9t-9.5 8.5t-16 13t-21.5 17.5l-2 2q-17 17 -67 43z" />
<glyph unicode="&#xa8;" horiz-adv-x="815" d="M301 1716q40 -17 70 -65.5t30 -91.5q0 -18 -4 -33.5t-15.5 -33t-36.5 -28t-62 -10.5q-15 0 -42.5 10t-58.5 28t-53.5 49.5t-22.5 68.5q0 53 33 96t84 43q20 0 43 -15t35 -18zM707 1610q4 -28 4 -35q0 -39 -27.5 -70.5t-71.5 -31.5q-68 0 -118 42.5t-50 102.5 q0 19 10.5 46.5t36.5 53t60 25.5l37 -10h12q29 0 60.5 -41t46.5 -82z" />
<glyph unicode="&#xa9;" horiz-adv-x="1273" d="M1155 977l8 -2q0 -11 -2 -17l-6 -28l2 -6q2 0 4 -2q0 -6 -3.5 -15.5t-11.5 -27t-13 -29.5l-25 -57q-53 -72 -86 -105l2 -6q-4 -1 -5 -4l-1 -4l-51 -29q-2 -2 -14.5 -11.5t-20.5 -17.5l-8 -6q-6 -3 -43 -20l-52 -25l-57 -16l-10 -6q-58 -15 -78 -19l-63 -10q-13 0 -31 -6 q-74 0 -144 12q-48 9 -70.5 14.5t-67 22.5t-85 48t-82.5 77q-1 3 -10.5 17t-23 44.5t-27.5 77.5q0 -2 2 -2q4 0 4 35q0 4 -1 18.5t-1 24.5q6 18 6 31l19 61q5 8 16 33.5t38 67t89 122.5l88 93q3 3 12.5 8.5t14.5 9.5l18 18q12 7 30 17t26.5 14.5t21.5 10.5t26 9t29 5l23 12 q10 0 15.5 1.5t12.5 4.5t34 11.5t69 19.5l26 4l13 2q21 0 30 -4l27 2q7 -6 31 -20q28 -19 53 -19q-2 -2 -2 -4q0 -11 11 -22.5t23.5 -20t36 -22t35.5 -21.5l43 -29q25 -25 33 -32l12 -13q15 -20 19 -24l2 -6v-3q2 0 4 -2l18 -26q2 -2 6 -8t9 -9l8 -16q20 -35 39 -149l4 -23 v-2zM954 913v11q13 35 13 69q0 54 -25 109l-29 55q-11 9 -30.5 30t-36.5 34l-53 39l-82 32q-22 -14 -52 -14l-65 -2q-8 -1 -20.5 -8t-23 -15t-31 -24t-32.5 -25q-16 -5 -60.5 -51.5t-70.5 -101.5q-3 -7 -28 -43t-42.5 -76.5t-17.5 -83.5q0 -19 2 -23v-16q0 -5 -1 -16.5 t0 -15.5t6 -15.5t17.5 -26.5t33.5 -39q53 -53 204 -53h12t4 0.5t5 1t16 1.5t35 3l51 6l76 23q7 4 28 13.5t41.5 21t37.5 26.5l53 62q3 3 8 12.5t21.5 38t35.5 61.5zM811 909l6 -26l2 -19q0 -11 -5.5 -21t-10.5 -14.5t-14 -10.5l-9 -5q-5 -3 -63.5 -45t-100 -62t-77.5 -20 q-41 0 -87 75.5t-46 139.5q0 19 2 35t8.5 32t9 22t13 22.5t10.5 17.5q8 11 22.5 40.5t32.5 47.5l20 29q3 4 11.5 15.5t11.5 15.5t11 11.5t14.5 10.5t17 5.5t22.5 2.5q1 0 4.5 -1.5t6.5 -2.5q1 -1 18.5 -11t35 -21.5t33 -29.5t15.5 -36q0 -27 -39 -27l-33 8q-20 0 -52.5 -45 t-57.5 -108t-25 -109q0 -25 10.5 -34t32.5 -9q39 0 107 31t96 66q2 4 6.5 13.5t7.5 14t6 4.5q19 0 27 -2z" />
<glyph unicode="&#xaa;" horiz-adv-x="702" />
<glyph unicode="&#xab;" horiz-adv-x="1056" d="M459 240q45 -42 45 -105q0 -29 -19.5 -49t-48.5 -20l-14 2q-5 -2 -12.5 -6.5t-15 -6.5t-17.5 -2q-51 0 -119 47.5t-117 115.5t-49 120q0 46 30 101.5t58 78.5l88 82q27 25 80 67t64 52q101 80 151 80q41 0 65.5 -24.5t24.5 -63.5q0 -11 -1.5 -21t-6 -19.5t-8 -16.5 t-12 -16.5t-12.5 -14.5t-15.5 -14.5t-15.5 -13t-17 -14t-16 -12.5q-7 -6 -34 -26t-42 -31.5t-40.5 -32t-41 -34t-31.5 -29t-24 -27t-8 -18.5q0 -14 24 -37t60 -52t47 -40zM995 674v-8q0 -44 -35 -89t-108.5 -107.5t-89.5 -78.5q-1 -1 2 -4t7 -7.5t5 -6.5q11 -15 36 -45 t39.5 -49t27 -47t12.5 -54q0 -12 -12 -28.5t-23 -16.5q-15 0 -46.5 -20.5t-51.5 -20.5l-12 4q-12 4 -31.5 11t-40 15.5t-38.5 19t-26 20.5l-75 82q-39 39 -39 110q0 35 11 68.5t25.5 58t43.5 56t49.5 50t60 52.5t59.5 53q33 33 75 61.5t73 28.5q26 0 44 -8.5t29 -26 t16.5 -32.5t12.5 -41z" />
<glyph unicode="&#xac;" horiz-adv-x="1435" />
<glyph unicode="&#xad;" horiz-adv-x="849" d="M782 487q17 -21 17 -34q0 -11 -8 -18.5t-23 -15t-20 -11.5q2 3 -2 -1q-75 -70 -136 -92q-34 -12 -65 -12q-3 0 -6 1t-4 1q-5 0 -7 -2q-105 -55 -200 -55h-39q-25 0 -35 -2l-74 8q-6 0 -23 -3t-26 -3q-27 0 -51.5 33t-24.5 59v12l-2 27q0 10 2 12q13 26 27 42t33.5 23.5 t32.5 10t41 4.5t42 4q224 33 455 33q61 0 96 -21z" />
<glyph unicode="&#xae;" horiz-adv-x="1230" d="M1151 977l8 -2q0 -11 -2 -17l-6 -28l2 -6q2 0 4 -2q0 -6 -4 -15.5t-12 -26.5t-13 -30l-24 -57q-53 -72 -86 -105l2 -6q-4 -1 -5 -4l-1 -4l-51 -29q-2 -2 -14.5 -11.5t-20.5 -17.5l-8 -6q-6 -3 -43 -20l-52 -25l-57 -16l-10 -6q-58 -15 -78 -19l-64 -10q-12 0 -30 -6 q-74 0 -144 12q-48 9 -70.5 14.5t-67 22.5t-85 48t-82.5 77q-1 3 -10.5 17t-23 44.5t-27.5 77.5q0 -2 2 -2q4 0 4 35q0 4 -1 18.5t-1 24.5q6 18 6 31l18 61q4 7 15.5 33.5t39 67.5t89.5 122l88 93q3 3 12 8.5t14 9.5l19 18q12 7 30 17t26.5 14.5t21.5 10.5t26 9t29 5l23 12 q10 0 15.5 1.5t12.5 4.5t34 11.5t69 19.5l26 4l13 2q21 0 30 -4l27 2q7 -6 31 -20q29 -19 53 -19q-2 -2 -2 -4q0 -11 11 -22.5t23.5 -20t36 -22t35.5 -21.5l43 -29q25 -25 33 -32l12 -13q15 -20 19 -24l2 -6l4 -5l18 -26q2 -2 6 -8t9 -9l8 -16q20 -35 39 -149l4 -23 q0 -4 2 -4zM950 913v11q13 35 13 69q0 54 -25 109l-29 55q-11 9 -30.5 30t-36.5 34l-54 39l-81 32q-22 -14 -52 -14l-65 -2q-8 -1 -20.5 -8t-23 -15t-31 -24t-32.5 -25q-16 -5 -60.5 -51.5t-70.5 -101.5q-2 -5 -27.5 -42t-43 -78t-17.5 -83q0 -19 2 -23q0 -13 -1 -25t-1 -18 q0 -21 58 -86q53 -53 204 -53h12t4 0.5t5 1t16 1.5t35 3l51 6l76 23q6 4 27.5 13.5t41.5 21t37 26.5l54 62q3 3 8 12.5t21.5 38t35.5 61.5zM801 838q4 -2 12 -6.5t12.5 -7.5t10.5 -7.5t9.5 -9t6 -11.5t2.5 -14q0 -10 -17.5 -16t-29.5 -6q-31 0 -128 53t-124 53l-27 -13 q-26 -13 -26 -19v-7q0 -16 -11.5 -48.5t-13.5 -39.5v2q-18 -55 -43 -55q-27 0 -38 24.5t-11 51.5q0 62 12 104q3 23 7.5 51t15 74.5t23 82.5t32.5 62.5t43 26.5l14 -2q8 0 16 3t20.5 11.5t13.5 8.5q62 35 127 35q46 0 74 -31t28 -74q0 -41 -28 -69t-73.5 -51.5t-60.5 -37.5 q-9 -25 -16 -28q30 -18 87.5 -47.5t80.5 -42.5zM604 1018q21 4 62 39.5t41 66.5q-58 -13 -91.5 -36t-58.5 -74l-4 -17l41 15h-2h2q0 3 10 6z" />
<glyph unicode="&#xaf;" horiz-adv-x="487" d="M678 1073q2 -6 2 -24q0 -52 -38 -128t-81 -124q-56 -67 -124.5 -212.5t-94.5 -189.5q-16 -35 -28.5 -94.5t-12.5 -95.5v-23q0 -24 15 -84t26 -71q5 -6 29 -27t37.5 -40.5t13.5 -41.5q0 -21 -19 -37t-49 -16q-15 0 -45 10t-69 31t-75.5 63.5t-53.5 98.5q-20 28 -32.5 77.5 t-12.5 92.5q0 28 6 77t6 58q0 3 -1 8t-1 6l4 16q4 14 12.5 45.5t13.5 49.5t14.5 44t20.5 48q13 27 35 79.5t41.5 93.5t40.5 73q4 6 35 67t62.5 115.5t80 102.5t92.5 48q103 0 150 -96z" />
<glyph unicode="&#xb0;" horiz-adv-x="0" />
<glyph unicode="&#xb1;" horiz-adv-x="944" />
<glyph unicode="&#xb4;" horiz-adv-x="681" d="M573 1745q0 -18 -19 -44.5t-19 -27.5q0 -8 9 -16t9 -10q0 -5 -16.5 -29.5t-48 -59t-70 -67.5t-89.5 -56.5t-100 -23.5h-16.5t-28.5 5t-36 14.5t-26.5 30.5t-12.5 50q0 41 67 105t166 114t176 50q13 0 34 -9t21 -26z" />
<glyph unicode="&#xb5;" horiz-adv-x="796" d="M825 238q9 -34 9 -64q-11 -28 -19.5 -44t-23.5 -36.5t-35.5 -30.5t-46.5 -10q-18 0 -34.5 3t-42.5 10t-30 8q-11 3 -21.5 12t-16 16t-15.5 22.5t-12 18.5q-62 -112 -115 -182q-85 -106 -211 -106q-29 0 -61.5 10t-51.5 24q-14 -19 -14 -34l2 -25v-4q0 2 -8 2 q-18 0 -49 -84q-7 -18 -17 -53t-18.5 -60t-22 -51.5t-35 -40.5t-49.5 -14q-38 0 -54.5 25.5t-16.5 62.5q0 53 24.5 155t24.5 150l-2 31q0 23 7 51.5t19 64.5t17 54q48 171 131 413l17 51t19.5 56t19 45.5t26.5 50.5q12 17 25 56.5t27 63.5t36 24q37 0 92 -50t55 -90 q0 -17 -12 -50t-12 -54q0 -8 10 -26t10 -27q0 -61 -82 -222q-21 -40 -39 -112q-5 -18 -23 -59.5t-24 -73.5q4 -1 11 -5t10 -4q4 0 39 21q29 14 51 32.5t38 44.5t25 45t22.5 53.5t20.5 51.5q6 15 17.5 46t20.5 54.5t22 54t24.5 52t24.5 41.5t27 30.5t28 10.5q22 0 57.5 -27.5 t49.5 -31.5q-1 0 -4.5 -1.5t-6.5 -2.5h43q12 0 24.5 -43t12.5 -68q0 -32 -6 -69.5t-17.5 -87.5t-15.5 -72q19 10 45 18t35 8t25 -9t20 -19z" />
<glyph unicode="&#xb6;" horiz-adv-x="765" />
<glyph unicode="&#xb7;" horiz-adv-x="432" d="M408 446l-2 -28l2 -12l-11 -9l-12 -32l-27 -15l-26 -8l-13 -16l-28 -13l-51 6l-56 19l-73 51l-13 33v-19l-12 13l-6 18l-39 19l-14 43l6 12l10 43l14 10l2 17l9 16l45 49l24 16l25 5l51 -15l57 -10l23 -14l2 -7h12l17 -14l16 -29l8 3l21 -15l22 -31l6 -14z" />
<glyph unicode="&#xb8;" horiz-adv-x="819" />
<glyph unicode="&#xba;" horiz-adv-x="722" />
<glyph unicode="&#xbb;" horiz-adv-x="1110" d="M498 356q-6 -10 -17 -17.5t-27.5 -15.5t-23.5 -12q-129 -108 -188 -159q-94 -84 -144 -84q-40 0 -71 36.5t-31 79.5q0 38 30.5 82.5t65.5 69.5q50 35 164 108q-58 44 -105 109.5t-47 116.5q0 12 11 28.5t22 16.5q15 0 46.5 21.5t49.5 21.5q17 0 39 -16t33 -17 q11 -2 21 -8.5t16 -12.5t15.5 -17t15.5 -17q1 -1 32.5 -31t45 -45.5t37 -45.5t34 -59t10.5 -57q0 -11 -4 -22.5t-7.5 -18t-12 -19t-10.5 -16.5zM999 436v-10q2 -6 2 -31q0 -19 -4 -51q-3 -18 -37 -55.5t-87 -71t-97 -33.5l-18 2l-25 -12l-158 -37q-13 -3 -40 -21t-39 -18 q-4 0 -8 1l-3 1l-8 -5q-8 -5 -20.5 -12t-27 -13.5t-30.5 -11.5t-28 -5q-22 0 -34.5 17t-12.5 39q0 26 7 49t22.5 42.5t32.5 36t43.5 32.5t48 27.5t55 24.5t55.5 21.5t58 21t54 19.5q-26 21 -50.5 44t-59 63t-55.5 90t-21 100q0 42 38 77.5t71 35.5q19 0 35 -9.5t31 -24 t22 -18.5l163 -104q37 -27 81 -89.5t44 -111.5z" />
<glyph unicode="&#xbf;" horiz-adv-x="972" d="M811 145q18 -18 18 -36q0 -9 -4 -21q0 -16 -23.5 -50t-69 -76.5t-104 -81t-138.5 -65t-162 -26.5q-113 0 -209 80t-105 194v3q0 18 8.5 51t8.5 51l2 4q5 12 8 25l8 16q14 16 57 74q4 4 27.5 25t38.5 40l64 62q14 20 51 53q60 51 86 74t69.5 65.5t70.5 79t46 76.5t67 86.5 t97 46.5q55 0 55 -64l6 -10q0 -12 -2.5 -21t-7.5 -20t-8 -18q-96 -190 -191 -307l-2 -2q-18 -24 -69.5 -80.5t-86.5 -102t-44 -77.5q0 -47 10 -60l20 -12q5 -5 5 -6l2 -2l-4 -4l2 -3q2 0 5 -1t5 -1v5l4 -1q7 -4 12 -6l6 -2q2 -3 3.5 -5.5t4 -4t3.5 -2.5t4 -1.5t4 -0.5h5h5 q37 0 79 26t88 54t89 31h2q25 0 51 -24.5t33 -27.5zM430 92l8 4zM946 1186l6 -33q-22 -49 -57 -98l-12 -11q-3 -2 -7.5 -3.5t-5.5 -2.5l-2 -4q-13 -13 -34 -28l-3 -2q-6 -4 -16 -10.5t-16 -10.5h-2q-6 -4 -13 -4q-49 0 -84 16h-4v-6q-4 -1 -8.5 1t-7.5 4l-2 3h2l-10 7l-2 6 l-17 6q-22 22 -22 49l-2 -2l-1 -1q-9 5 -5 11l-5 6l-8 43q0 39 49 123l11 10q42 25 77 56l7 2q16 8 47 8h12q23 -8 35 -15t25.5 -18.5t25.5 -19.5l8 -11q3 -6 8 -14.5t9 -14.5t4 -7l2 -17q3 -3 7 -7.5t6.5 -7t4.5 -3.5zM618 1079h3h-3z" />
<glyph unicode="&#xc0;" horiz-adv-x="817" d="M885 1354q0 -33 -26.5 -48.5t-53.5 -15.5q-46 0 -109.5 30t-115.5 71q-17 13 -52.5 38.5t-59 44t-49.5 44.5t-39 54.5t-13 59.5q0 42 24.5 59t79.5 17q37 0 92 -49l137 -121q9 -7 31 -25t35.5 -29.5t34 -29t33 -30.5t25.5 -27t19.5 -24.5t6.5 -18.5zM807 1073l4 -49 q0 -209 -31 -367q-3 -15 -9 -71t-15 -76q0 2 4 6q-6 -9 -6 -27q0 -12 9 -30.5t9 -32.5q0 -18 -13.5 -52.5t-13.5 -92.5v-9q0 -5 3 -8v2q-1 2 -3 4q2 -27 11.5 -117.5t9.5 -136.5q0 -79 -27.5 -157t-62.5 -78q-8 0 -16 6t-14 17t-10.5 22t-8.5 27l-6.5 26t-5.5 23.5t-3 15.5 q-6 26 -17.5 89t-20.5 109t-13 50q-6 4 -46.5 53t-49.5 49l-12 -2l-15 -1q-14 -1 -35.5 -3.5t-43 -6t-37 -10.5t-17.5 -16q-3 -9 -11.5 -41t-15 -53t-17 -48.5t-21.5 -45.5l6 10q-10 -10 -21 -49t-22 -76.5t-39 -68.5t-68 -31q-38 0 -71 34.5t-33 80.5q0 30 11 75t23.5 81 t33.5 93.5t30 83.5q2 5 7.5 16.5t8.5 20.5t3 15l-7 34q1 11 5 24.5t10.5 29.5t9.5 24l-2 -6q9 20 29 37q18 12 39 77t38 87l-4 -6q51 106 181 395q21 48 36 81t41 79.5t52 71t51 24.5q64 0 98 -23h-2l14 -4l23 -14q74 -47 86 -164zM537 514l4 96q8 84 8 189l-2 73 q-118 -284 -146 -370q36 0 86 3.5t50 8.5z" />
<glyph unicode="&#xc1;" horiz-adv-x="845" d="M807 1073l4 -49q0 -209 -31 -367q-3 -15 -9 -71t-15 -76q0 2 4 6q-6 -9 -6 -27q0 -12 9 -30.5t9 -32.5q0 -18 -13.5 -52.5t-13.5 -92.5v-9q0 -5 3 -8v2q-1 2 -3 4q2 -27 11.5 -117.5t9.5 -136.5q0 -79 -27.5 -157t-62.5 -78q-8 0 -16 6t-14 17t-10.5 22t-8.5 27l-6.5 26 t-5.5 23.5t-3 15.5q-6 26 -17.5 89t-20.5 109t-13 50q-6 4 -46.5 53t-49.5 49l-12 -2l-15 -1q-14 -1 -35.5 -3.5t-43 -6t-37 -10.5t-17.5 -16q-3 -9 -11.5 -41t-15 -53t-17 -48.5t-21.5 -45.5l6 10q-10 -10 -21 -49t-22 -76.5t-39 -68.5t-68 -31q-38 0 -71 34.5t-33 80.5 q0 30 11 75t23.5 81t33.5 93.5t30 83.5q2 5 7.5 16.5t8.5 20.5t3 15l-7 34q1 11 5 24.5t10.5 29.5t9.5 24l-2 -6q9 20 29 37q18 12 39 77t38 87l-4 -6q51 106 181 395q21 48 36 81t41 79.5t52 71t51 24.5q64 0 98 -23h-2l14 -4l23 -14q74 -47 86 -164zM537 514l4 96 q8 84 8 189l-2 73q-118 -284 -146 -370q36 0 86 3.5t50 8.5zM958 1720l-2 -2q0 2 2 2q3 0 5 2q-3 -12 -7 -16v8q-2 -3 -4.5 -11.5t-6 -14.5t-9.5 -9q-4 0 -4 -6q0 -8 9 -16t9 -10q0 -5 -16.5 -29.5t-47.5 -59t-69.5 -67.5t-89.5 -56.5t-100 -23.5q0 -1 -6.5 -1t-17 1 t-23.5 4t-25.5 10.5t-23.5 18t-18 28t-7 39.5q0 41 67 105t166 114t176 50q13 0 34.5 -9t21.5 -26q0 -6 -6.5 -15t-6.5 -10z" />
<glyph unicode="&#xc2;" horiz-adv-x="845" d="M807 1073l4 -49q0 -209 -31 -367q-3 -15 -9 -71t-15 -76q0 2 4 6q-6 -9 -6 -27q0 -12 9 -30.5t9 -32.5q0 -18 -13.5 -52.5t-13.5 -92.5v-9q0 -5 3 -8v2q-1 2 -3 4q2 -27 11.5 -117.5t9.5 -136.5q0 -79 -27.5 -157t-62.5 -78q-8 0 -16 6t-14 17t-10.5 22t-8.5 27l-6.5 26 t-5.5 23.5t-3 15.5q-6 26 -17.5 89t-20.5 109t-13 50q-6 4 -46.5 53t-49.5 49l-12 -2l-15 -1q-14 -1 -35.5 -3.5t-43 -6t-37 -10.5t-17.5 -16q-3 -9 -11.5 -41t-15 -53t-17 -48.5t-21.5 -45.5l6 10q-10 -10 -21 -49t-22 -76.5t-39 -68.5t-68 -31q-38 0 -71 34.5t-33 80.5 q0 30 11 75t23.5 81t33.5 93.5t30 83.5q2 5 7.5 16.5t8.5 20.5t3 15l-7 34q1 11 5 24.5t10.5 29.5t9.5 24l-2 -6q9 20 29 37q18 12 39 77t38 87l-4 -6q51 106 181 395q21 48 36 81t41 79.5t52 71t51 24.5q64 0 98 -23h-2l14 -4l23 -14q74 -47 86 -164zM537 514l4 96 q8 84 8 189l-2 73q-118 -284 -146 -370q36 0 86 3.5t50 8.5zM961 1485q4 -20 4 -27q0 -27 -18 -49.5t-46 -22.5q-36 0 -70 39.5t-68.5 99.5t-51.5 79q-16 -19 -44.5 -53.5t-54 -64.5t-53.5 -59q-1 -2 -7.5 -11.5t-10.5 -15.5t-12 -15.5t-16 -16t-17.5 -13t-21 -9.5t-23.5 -3 q-30 0 -59.5 30.5t-29.5 64.5q0 35 62.5 124t142.5 166.5t121 77.5q25 0 45 -14q57 -39 94 -87.5t73 -116.5t61 -103z" />
<glyph unicode="&#xc3;" horiz-adv-x="845" d="M807 1073l4 -49q0 -209 -31 -367q-3 -15 -9 -71t-15 -76q0 2 4 6q-6 -9 -6 -27q0 -12 9 -30.5t9 -32.5q0 -18 -13.5 -52.5t-13.5 -92.5v-9q0 -5 3 -8v2q-1 2 -3 4q2 -27 11.5 -117.5t9.5 -136.5q0 -79 -27.5 -157t-62.5 -78q-8 0 -16 6t-14 17t-10.5 22t-8.5 27l-6.5 26 t-5.5 23.5t-3 15.5q-6 26 -17.5 89t-20.5 109t-13 50q-6 4 -46.5 53t-49.5 49l-12 -2l-15 -1q-14 -1 -35.5 -3.5t-43 -6t-37 -10.5t-17.5 -16q-3 -9 -11.5 -41t-15 -53t-17 -48.5t-21.5 -45.5l6 10q-10 -10 -21 -49t-22 -76.5t-39 -68.5t-68 -31q-38 0 -71 34.5t-33 80.5 q0 30 11 75t23.5 81t33.5 93.5t30 83.5q2 5 7.5 16.5t8.5 20.5t3 15l-7 34q1 11 5 24.5t10.5 29.5t9.5 24l-2 -6q9 20 29 37q18 12 39 77t38 87l-4 -6q51 106 181 395q21 48 36 81t41 79.5t52 71t51 24.5q64 0 98 -23h-2l14 -4l23 -14q74 -47 86 -164zM537 514l4 96 q8 84 8 189l-2 73q-118 -284 -146 -370q36 0 86 3.5t50 8.5zM1053 1700l12 -39q-4 -13 -12 -23v-4q-8 -18 -39 -57l-15 -27l-20 -41l2 -12l-29 -45l-24 -20q-29 -22 -31 -23l-2 -2q-31 -14 -94 -14h-2q-85 6 -158 51l-8 4h2q-1 1 -4 2.5t-8.5 5t-10.5 6.5l-8 4q-6 6 -12 9 l-2 2q-19 6 -21 8q0 -1 -1 -5t-1 -7l-2 -9q-19 -53 -73 -53q-13 0 -21 2h-4l-18 4h-13q-15 4 -24.5 13.5t-14 18.5t-14.5 36l2 12q-2 2 -2 12q0 27 8 54l2 4q19 41 39.5 69t35.5 42t35.5 21t31.5 8t30 1h6l54 -10l22 -10l64 -43l47 -50l8 -22v6q4 -17 10 -23h6q24 8 31 15 l78 92q18 21 34 34t28.5 16t21 3.5t16 -2t8.5 -2.5l7 2q6 0 22 -4h6z" />
<glyph unicode="&#xc4;" horiz-adv-x="845" d="M807 1073l4 -49q0 -209 -31 -367q-3 -15 -9 -71t-15 -76q0 2 4 6q-6 -9 -6 -27q0 -12 9 -30.5t9 -32.5q0 -18 -13.5 -52.5t-13.5 -92.5v-9q0 -5 3 -8v2q-1 2 -3 4q2 -27 11.5 -117.5t9.5 -136.5q0 -79 -27.5 -157t-62.5 -78q-8 0 -16 6t-14 17t-10.5 22t-8.5 27l-6.5 26 t-5.5 23.5t-3 15.5q-6 26 -17.5 89t-20.5 109t-13 50q-6 4 -46.5 53t-49.5 49l-12 -2l-15 -1q-14 -1 -35.5 -3.5t-43 -6t-37 -10.5t-17.5 -16q-3 -9 -11.5 -41t-15 -53t-17 -48.5t-21.5 -45.5l6 10q-10 -10 -21 -49t-22 -76.5t-39 -68.5t-68 -31q-38 0 -71 34.5t-33 80.5 q0 30 11 75t23.5 81t33.5 93.5t30 83.5q2 5 7.5 16.5t8.5 20.5t3 15l-7 34q1 11 5 24.5t10.5 29.5t9.5 24l-2 -6q9 20 29 37q18 12 39 77t38 87l-4 -6q51 106 181 395q21 48 36 81t41 79.5t52 71t51 24.5q64 0 98 -23h-2l14 -4l23 -14q74 -47 86 -164zM537 514l4 96 q8 84 8 189l-2 73q-118 -284 -146 -370q36 0 86 3.5t50 8.5zM551 1585q40 -17 70 -66t30 -92q0 -18 -4.5 -33.5t-16 -32.5t-36.5 -27.5t-62 -10.5q-15 0 -42.5 10t-58.5 28t-53 49.5t-22 68.5q0 53 33 96t84 43q20 0 43 -15t35 -18zM956 1479q1 -5 2 -12.5t2 -13t1 -9.5 q0 -39 -27.5 -71t-71.5 -32q-68 0 -118 43t-50 103q0 19 10.5 46.5t36.5 53t60 25.5l37 -10h12q29 0 60 -41t46 -82z" />
<glyph unicode="&#xc5;" horiz-adv-x="845" d="M881 1663l22 -49q5 -22 6 -27q2 -4 2 -8v2q0 -63 -18 -113l-14 -14q-31 -35 -95.5 -69.5t-93.5 -34.5q-14 0 -18 4q-3 0 -18 -3t-19 -3q-10 0 -45 13t-41 19q-36 36 -44.5 61.5t-8.5 88.5q0 9 4 45l18 41v12l10 12q42 82 76 103l60 31l41 12l63 -14q11 -11 31 -23l20 -23 l12 -9q12 -9 25.5 -23t24.5 -31zM719 1513q51 26 51 60q0 59 -43 59q-7 0 -27 -20l-26 -31q-35 -21 -35 -70q0 -36 18 -36q0 3 62 38zM807 1073l4 -49q0 -209 -31 -367q-3 -15 -9 -71t-15 -76q0 2 4 6q-6 -9 -6 -27q0 -12 9 -30.5t9 -32.5q0 -18 -13.5 -52.5t-13.5 -92.5v-9 q0 -5 3 -8v2q-1 2 -3 4q2 -27 11.5 -117.5t9.5 -136.5q0 -79 -27.5 -157t-62.5 -78q-8 0 -16 6t-14 17t-10.5 22t-8.5 27l-6.5 26t-5.5 23.5t-3 15.5q-6 26 -17.5 89t-20.5 109t-13 50q-6 4 -46.5 53t-49.5 49l-12 -2l-15 -1q-14 -1 -35.5 -3.5t-43 -6t-37 -10.5t-17.5 -16 q-3 -9 -11.5 -41t-15 -53t-17 -48.5t-21.5 -45.5l6 10q-10 -10 -21 -49t-22 -76.5t-39 -68.5t-68 -31q-38 0 -71 34.5t-33 80.5q0 30 11 75t23.5 81t33.5 93.5t30 83.5q2 5 7.5 16.5t8.5 20.5t3 15l-7 34q1 11 5 24.5t10.5 29.5t9.5 24l-2 -6q9 20 29 37q18 12 39 77t38 87 l-4 -6q51 106 181 395q21 48 36 81t41 79.5t52 71t51 24.5q64 0 98 -23h-2l14 -4l23 -14q74 -47 86 -164zM537 514l4 96q8 84 8 189l-2 73q-118 -284 -146 -370q36 0 86 3.5t50 8.5z" />
<glyph unicode="&#xc6;" horiz-adv-x="1411" d="M1571 1096q2 -4 2 -17q0 -16 -17 -28.5t-49.5 -22t-59.5 -15t-69 -12.5t-55 -10q-41 -10 -139 -22.5t-158 -12.5q-16 0 -36 -11.5t-31 -21t-32.5 -32.5t-23.5 -25q-20 -98 -20 -127q0 -10 6 -16q7 -7 19 -36.5t26 -53t29 -23.5q37 0 97.5 17.5t90.5 17.5q23 0 45 -3.5 t46 -11.5t39 -26.5t15 -44.5q0 -24 -22.5 -44.5t-48.5 -25.5q-50 -8 -136 -28.5t-106 -20.5h-29q-44 0 -94 -57q-20 -26 -20 -133q0 -44 23 -75t61 -45.5t74.5 -20t76.5 -5.5q22 0 43 7.5t33 7.5q10 0 18 -4h-2q23 -6 36.5 -34.5t13.5 -70.5q-4 -22 -13 -33 q-22 -26 -113.5 -51.5t-164.5 -25.5q-104 0 -187.5 49.5t-132.5 150.5q-20 39 -30.5 105t-12.5 76q-3 15 -38 36t-54 21q-29 0 -209 -180q-15 -15 -33.5 -52t-34 -68.5t-44 -57t-64.5 -25.5q-28 0 -43.5 27t-15.5 65q0 56 32.5 140t36.5 126q13 90 39 127q3 5 16.5 12.5 t14.5 10.5q8 8 35 80q48 97 156 305.5t145 281.5q3 6 12 25t13 26t13 24t15 24.5l16 20t19.5 18.5t21 13t24.5 10t28 3q39 0 72 -18t53 -43.5t34.5 -51t23.5 -43.5t13 -18q15 0 151 17.5t228 17.5q5 0 13 -1t10 -1q14 0 75.5 6t106.5 6q96 -12 127 -69zM573 805l-2 49l2 25 q-105 -215 -143 -332l72 16q22 4 37 18t22.5 30.5t10.5 45.5t3 48t-1 53t-1 47z" />
<glyph unicode="&#xc7;" horiz-adv-x="772" d="M948 975l10 -72l-20 -12v-14l-6 -7l2 -6l-16 -8l-11 -10l-6 2l-20 -8l-11 10l-6 -4l-24 14h-9h-4q-12 -4 -24 -4h-15l-22 8l-10 10q0 1 -5.5 4.5t-5.5 10.5l-18 4l-25 -35l-28 -33l-6 -14l-13 -14l-37 -23l-16 -29l-20 -18l-82 -109l-29 -49l-61 -92l-17 -47l-53 -115 l-6 -41l-10 -38v-76l18 -29l29 -16l90 -21l90 8l22 -2l29 2l19 -8l18 -26l2 -33l-4 -25l-23 -22l2 -4l-26 -13l-68 -20l-28 -6l-7 -6l-32 -5l-33 -2l16 -6l29 -14l35 -37l26 -59l2 -21l-4 -16l-30 -23l-15 -14l-37 -21l-63 -32l-176 -68h-39l-16 4l-39 17l-7 6l7 49l16 10 l133 66l-4 4l-4 -4l-2 4l-17 10l-2 -2l-20 12l-14 25l-4 45l4 16l39 72l-9 4l-47 21l-90 71l-41 51l-39 84l-4 35l-8 29v78l18 100l15 27l2 16l12 35l55 104l13 25l10 14q2 1 3.5 2.5t2.5 1.5q20 43 74 111l39 47l2 8l69 82l6 8l64 80l31 23l61 69l14 9l35 26l13 17l18 12 h16h2l48 22l112 19h25l63 -29l15 -10l6 -10l2 2q1 -2 2 -2l20 -11l27 -16l25 -35l26 -57l-4 -8h2z" />
<glyph unicode="&#xc8;" horiz-adv-x="970" d="M1153 1116q6 -15 6 -29q0 -35 -38 -48.5t-91 -16t-67 -10.5q-10 -6 -48.5 -20t-111.5 -30t-137 -16q-10 0 -17.5 -2t-10.5 -3t-10.5 -6.5t-9.5 -6.5q-54 -41 -77 -60t-54.5 -51.5t-47.5 -66t-27 -78.5q117 6 118 6l56 -2l32 2q7 0 30.5 -4t37.5 -4t38 5t36 5q61 0 61 -53 q0 -28 -18 -51t-43.5 -37t-62.5 -25.5t-64 -16.5t-60.5 -11t-40.5 -7q-2 0 -38.5 -1.5t-67.5 -8.5t-49 -23q-17 -13 -37.5 -41.5t-20.5 -39.5q0 -49 5.5 -79t15.5 -41.5t20 -15t22.5 -4.5t18.5 -6q3 -3 10 -10.5t11 -11.5t9.5 -7.5t10.5 -3.5q22 0 50 4t46.5 8t53.5 12 t47 11l59 15q27 0 34.5 -12t12.5 -46q-1 0 -3.5 -10.5t-2.5 -15.5q-28 -104 -104.5 -146.5t-196.5 -42.5q-55 0 -100.5 14.5t-76 32t-56 54t-38.5 59.5t-26 71.5t-16 66t-11 64.5q-1 7 -2 10.5t-1.5 9t-1.5 9.5q0 163 45 297q5 18 20.5 63t25 79.5t9.5 52.5q-25 44 -25 63 q0 4 4 15.5t5 15.5q30 82 59 98q8 3 17.5 10.5t15.5 14t15 16.5t13 13q0 4 -1 7l-1 3q0 34 34 54t71 20q9 -1 32.5 -5t36.5 -4l154 7l233 -7q28 4 31 4q56 0 136 -12.5t114 -42.5zM920 1333q0 -33 -26.5 -48t-53.5 -15q-46 0 -110 30t-116 70q-16 13 -52.5 39t-59 44.5 t-49 44.5t-39.5 54.5t-13 59.5q0 42 25 59t80 17q36 0 92 -50l137 -120q7 -6 30.5 -25t35.5 -29.5t33.5 -29t34 -31t26 -27t19.5 -25t6 -18.5z" />
<glyph unicode="&#xc9;" horiz-adv-x="970" d="M1153 1116q6 -15 6 -29q0 -35 -38 -48.5t-91 -16t-67 -10.5q-10 -6 -48.5 -20t-111.5 -30t-137 -16q-10 0 -17.5 -2t-10.5 -3t-10.5 -6.5t-9.5 -6.5q-54 -41 -77 -60t-54.5 -51.5t-47.5 -66t-27 -78.5q117 6 118 6l56 -2l32 2q7 0 30.5 -4t37.5 -4t38 5t36 5q61 0 61 -53 q0 -28 -18 -51t-43.5 -37t-62.5 -25.5t-64 -16.5t-60.5 -11t-40.5 -7q-2 0 -38.5 -1.5t-67.5 -8.5t-49 -23q-17 -13 -37.5 -41.5t-20.5 -39.5q0 -49 5.5 -79t15.5 -41.5t20 -15t22.5 -4.5t18.5 -6q3 -3 10 -10.5t11 -11.5t9.5 -7.5t10.5 -3.5q22 0 50 4t46.5 8t53.5 12 t47 11l59 15q27 0 34.5 -12t12.5 -46q-1 0 -3.5 -10.5t-2.5 -15.5q-28 -104 -104.5 -146.5t-196.5 -42.5q-55 0 -100.5 14.5t-76 32t-56 54t-38.5 59.5t-26 71.5t-16 66t-11 64.5q-1 7 -2 10.5t-1.5 9t-1.5 9.5q0 163 45 297q5 18 20.5 63t25 79.5t9.5 52.5q-25 44 -25 63 q0 4 4 15.5t5 15.5q30 82 59 98q8 3 17.5 10.5t15.5 14t15 16.5t13 13q0 4 -1 7l-1 3q0 34 34 54t71 20q9 -1 32.5 -5t36.5 -4l154 7l233 -7q28 4 31 4q56 0 136 -12.5t114 -42.5zM1057 1720l-2 -2q0 2 2 2t4 2q-3 -13 -6 -16v8q-2 -3 -4.5 -11.5t-6.5 -14.5t-10 -9 q-4 0 -4 -6q0 -8 9.5 -16t9.5 -10q0 -5 -16.5 -29.5t-48 -59t-70 -67.5t-89.5 -56.5t-100 -23.5q0 -1 -6.5 -1t-17 1t-23.5 4t-25.5 10.5t-23.5 18t-18 28t-7 39.5q0 30 41.5 76.5t101.5 89t134.5 73t132.5 30.5q13 0 34 -9t21 -26q0 -6 -6 -15t-6 -10z" />
<glyph unicode="&#xca;" horiz-adv-x="970" d="M1153 1116q6 -15 6 -29q0 -35 -38 -48.5t-91 -16t-67 -10.5q-10 -6 -48.5 -20t-111.5 -30t-137 -16q-10 0 -17.5 -2t-10.5 -3t-10.5 -6.5t-9.5 -6.5q-54 -41 -77 -60t-54.5 -51.5t-47.5 -66t-27 -78.5q117 6 118 6l56 -2l32 2q7 0 30.5 -4t37.5 -4t38 5t36 5q61 0 61 -53 q0 -28 -18 -51t-43.5 -37t-62.5 -25.5t-64 -16.5t-60.5 -11t-40.5 -7q-2 0 -38.5 -1.5t-67.5 -8.5t-49 -23q-17 -13 -37.5 -41.5t-20.5 -39.5q0 -49 5.5 -79t15.5 -41.5t20 -15t22.5 -4.5t18.5 -6q3 -3 10 -10.5t11 -11.5t9.5 -7.5t10.5 -3.5q22 0 50 4t46.5 8t53.5 12 t47 11l59 15q27 0 34.5 -12t12.5 -46q-1 0 -3.5 -10.5t-2.5 -15.5q-28 -104 -104.5 -146.5t-196.5 -42.5q-55 0 -100.5 14.5t-76 32t-56 54t-38.5 59.5t-26 71.5t-16 66t-11 64.5q-1 7 -2 10.5t-1.5 9t-1.5 9.5q0 163 45 297q5 18 20.5 63t25 79.5t9.5 52.5q-25 44 -25 63 q0 4 4 15.5t5 15.5q30 82 59 98q8 3 17.5 10.5t15.5 14t15 16.5t13 13q0 4 -1 7l-1 3q0 34 34 54t71 20q9 -1 32.5 -5t36.5 -4l154 7l233 -7q28 4 31 4q56 0 136 -12.5t114 -42.5zM1061 1485q4 -20 4 -27q0 -27 -18 -49.5t-46 -22.5q-36 0 -70 39.5t-68.5 99.5t-51.5 79 q-16 -19 -44.5 -53.5t-54 -64.5t-53.5 -59q-1 -2 -7.5 -11.5t-10.5 -15.5t-12 -15.5t-16 -16t-17.5 -13t-21 -9.5t-23.5 -3q-30 0 -59 30.5t-29 64.5q0 35 62 124t142 166.5t121 77.5q26 0 46 -14q57 -39 93.5 -87.5t72.5 -116.5t61 -103z" />
<glyph unicode="&#xcb;" horiz-adv-x="970" d="M1153 1116q6 -15 6 -29q0 -35 -38 -48.5t-91 -16t-67 -10.5q-10 -6 -48.5 -20t-111.5 -30t-137 -16q-10 0 -17.5 -2t-10.5 -3t-10.5 -6.5t-9.5 -6.5q-54 -41 -77 -60t-54.5 -51.5t-47.5 -66t-27 -78.5q117 6 118 6l56 -2l32 2q7 0 30.5 -4t37.5 -4t38 5t36 5q61 0 61 -53 q0 -28 -18 -51t-43.5 -37t-62.5 -25.5t-64 -16.5t-60.5 -11t-40.5 -7q-2 0 -38.5 -1.5t-67.5 -8.5t-49 -23q-17 -13 -37.5 -41.5t-20.5 -39.5q0 -49 5.5 -79t15.5 -41.5t20 -15t22.5 -4.5t18.5 -6q3 -3 10 -10.5t11 -11.5t9.5 -7.5t10.5 -3.5q22 0 50 4t46.5 8t53.5 12 t47 11l59 15q27 0 34.5 -12t12.5 -46q-1 0 -3.5 -10.5t-2.5 -15.5q-28 -104 -104.5 -146.5t-196.5 -42.5q-55 0 -100.5 14.5t-76 32t-56 54t-38.5 59.5t-26 71.5t-16 66t-11 64.5q-1 7 -2 10.5t-1.5 9t-1.5 9.5q0 163 45 297q5 18 20.5 63t25 79.5t9.5 52.5q-25 44 -25 63 q0 4 4 15.5t5 15.5q30 82 59 98q8 3 17.5 10.5t15.5 14t15 16.5t13 13q0 4 -1 7l-1 3q0 34 34 54t71 20q9 -1 32.5 -5t36.5 -4l154 7l233 -7q28 4 31 4q56 0 136 -12.5t114 -42.5zM551 1556q40 -17 70 -65.5t30 -91.5q0 -18 -4.5 -33.5t-16 -33t-36.5 -28t-62 -10.5 q-15 0 -42.5 10t-58.5 28t-53 49.5t-22 68.5q0 53 33 96t84 43q20 0 43 -15t35 -18zM956 1450q1 -5 2 -12.5t2 -13t1 -9.5q0 -39 -27.5 -70.5t-71.5 -31.5q-68 0 -118 42.5t-50 102.5q0 19 10.5 46.5t36.5 53t60 25.5l37 -10h12q29 0 60 -41t46 -82z" />
<glyph unicode="&#xcc;" horiz-adv-x="512" d="M735 1300q0 -33 -26.5 -48t-53.5 -15q-46 0 -109.5 30t-115.5 70q-16 13 -52.5 39t-59 44.5t-49 44.5t-39.5 54.5t-13 59.5q0 42 25 59t80 17q37 0 92 -49l137 -121q5 -4 30.5 -25t36 -30t33 -28.5t33.5 -31t25 -26.5t20 -25.5t6 -18.5zM563 1069v-14q0 -78 -35 -162 q-120 -274 -184 -510q-4 -16 -17 -51.5t-22.5 -69.5t-13.5 -67q-2 -10 -6.5 -42.5t-8 -53t-11 -55t-14.5 -57.5t-19.5 -51t-26 -44t-33 -27.5t-41.5 -11.5q-15 0 -26 5t-17.5 16.5t-10 22t-5 30.5t-1.5 32.5t0.5 36.5t0.5 35l4 86l-6 127q0 40 8 92t15 83.5t25 104t23 92.5 l15 35q25 82 42.5 133.5t51.5 130.5t76 152q14 32 54 71.5t93 39.5q25 0 43 -10t27 -28.5t13 -33.5t7 -37z" />
<glyph unicode="&#xcd;" horiz-adv-x="512" d="M834 1720l-3 -2q0 2 3 2q2 0 4 2q-3 -12 -7 -16v8q-2 -3 -4.5 -11.5t-6 -14.5t-9.5 -9q-4 0 -4 -6q0 -8 9 -16t9 -10q0 -5 -16.5 -29.5t-47.5 -59t-69.5 -67.5t-89.5 -56.5t-100 -23.5q0 -1 -6.5 -1t-17 1t-23.5 4t-25.5 10.5t-23.5 18t-18 28t-7 39.5q0 30 41.5 76.5 t101.5 89t134.5 73t132.5 30.5q13 0 34 -9t21 -26q0 -6 -6 -15t-6 -10zM563 1069v-14q0 -78 -35 -162q-120 -274 -184 -510q-4 -16 -17 -51.5t-22.5 -69.5t-13.5 -67q-2 -10 -6.5 -42.5t-8 -53t-11 -55t-14.5 -57.5t-19.5 -51t-26 -44t-33 -27.5t-41.5 -11.5q-15 0 -26 5 t-17.5 16.5t-10 22t-5 30.5t-1.5 32.5t0.5 36.5t0.5 35l4 86l-6 127q0 40 8 92t15 83.5t25 104t23 92.5l15 35q25 82 42.5 133.5t51.5 130.5t76 152q14 32 54 71.5t93 39.5q25 0 43 -10t27 -28.5t13 -33.5t7 -37z" />
<glyph unicode="&#xce;" horiz-adv-x="512" d="M836 1485q4 -20 4 -27q0 -27 -18 -49.5t-46 -22.5q-36 0 -70 39.5t-68.5 99.5t-51.5 79q-16 -19 -44.5 -53.5t-54 -64.5t-53.5 -59q-1 -2 -7.5 -11.5t-10.5 -15.5t-12 -15.5t-16 -16t-17.5 -13t-21 -9.5t-23.5 -3q-30 0 -59 30.5t-29 64.5q0 35 62 124t142 166.5 t121 77.5q25 0 45 -14q57 -39 94 -87.5t73 -116.5t61 -103zM563 1069v-14q0 -78 -35 -162q-120 -274 -184 -510q-4 -16 -17 -51.5t-22.5 -69.5t-13.5 -67q-2 -10 -6.5 -42.5t-8 -53t-11 -55t-14.5 -57.5t-19.5 -51t-26 -44t-33 -27.5t-41.5 -11.5q-15 0 -26 5t-17.5 16.5 t-10 22t-5 30.5t-1.5 32.5t0.5 36.5t0.5 35l4 86l-6 127q0 40 8 92t15 83.5t25 104t23 92.5l15 35q25 82 42.5 133.5t51.5 130.5t76 152q14 32 54 71.5t93 39.5q25 0 43 -10t27 -28.5t13 -33.5t7 -37z" />
<glyph unicode="&#xcf;" horiz-adv-x="512" d="M551 1556q40 -17 70 -65.5t30 -91.5q0 -18 -4.5 -33.5t-16 -33t-36.5 -28t-62 -10.5q-15 0 -42.5 10t-58.5 28t-53 49.5t-22 68.5q0 53 33 96t84 43q20 0 43 -15t35 -18zM956 1450q1 -5 2 -12.5t2 -13t1 -9.5q0 -39 -27.5 -70.5t-71.5 -31.5q-68 0 -118 42.5t-50 102.5 q0 19 10.5 46.5t36.5 53t60 25.5l37 -10h12q29 0 60 -41t46 -82zM563 1069v-14q0 -78 -35 -162q-120 -274 -184 -510q-4 -16 -17 -51.5t-22.5 -69.5t-13.5 -67q-2 -10 -6.5 -42.5t-8 -53t-11 -55t-14.5 -57.5t-19.5 -51t-26 -44t-33 -27.5t-41.5 -11.5q-15 0 -26 5 t-17.5 16.5t-10 22t-5 30.5t-1.5 32.5t0.5 36.5t0.5 35l4 86l-6 127q0 40 8 92t15 83.5t25 104t23 92.5l15 35q25 82 42.5 133.5t51.5 130.5t76 152q14 32 54 71.5t93 39.5q25 0 43 -10t27 -28.5t13 -33.5t7 -37z" />
<glyph unicode="&#xd0;" horiz-adv-x="980" d="M940 952q18 -36 32.5 -136t14.5 -154q0 -29 -14 -111q-10 -58 -59 -136t-125 -159.5t-186.5 -159.5t-229.5 -127q-8 -3 -25 -4t-24 -4l4 2h2q0 -1 -14.5 -7t-36.5 -11.5t-37 -5.5l-45 10q-8 0 -20 -1t-15 -1q-8 0 -18.5 6t-12.5 6q-3 0 -3 -3q0 -1 -1 -1q-5 0 -12 6t-9 6 l-22 -2q-59 0 -59 45q0 35 22.5 84.5t22.5 77.5l-2 47q0 35 10.5 113.5t19.5 124.5l-63 6l-47 -4q-26 0 -55 33.5t-29 70.5q0 32 11.5 55.5t26.5 36t42 20t45.5 9.5t50.5 4t45 4q4 0 13 60t20.5 141t17.5 111q3 12 3 52t9.5 67t36.5 42q6 2 60.5 41t91.5 39q24 0 55.5 9.5 t52.5 9.5q7 0 9 -2q44 -22 112 -33q40 -7 107 -45t118 -80q19 -21 36.5 -44.5t41 -60t31.5 -47.5zM758 602q2 6 2 27q0 77 -47 168t-118 154t-134 63q-8 0 -31.5 -13t-23.5 -20l2 -12q-3 -28 -10 -121t-13 -133h127h15.5h19t19.5 -0.5t21.5 -2t19 -4t18 -6t13.5 -9t10 -13 t3 -16.5t-8 -18t-16 -14.5t-21.5 -13t-15.5 -8.5t-24 -17.5t-47 -33t-59.5 -31t-62.5 -14.5q-3 0 -6 1t-4 1q-16 0 -36.5 -50.5t-36 -134t-15.5 -163.5q54 24 103.5 49.5t114 68.5t112.5 88t84.5 105.5t44.5 122.5z" />
<glyph unicode="&#xd1;" horiz-adv-x="1253" d="M1053 1700l12 -39q-4 -13 -12 -23v-4q-8 -18 -39 -57l-15 -27l-20 -41l2 -12l-29 -45l-24 -20q-29 -22 -31 -23l-2 -2q-31 -14 -94 -14h-2q-85 6 -158 51l-8 4h2q-1 1 -4 2.5t-8.5 5t-10.5 6.5l-8 4q-6 6 -12 9l-2 2q-19 6 -21 8q0 -1 -1 -5t-1 -7l-2 -9q-19 -53 -73 -53 q-13 0 -21 2h-4l-18 4h-13q-15 4 -24.5 13.5t-14 18.5t-14.5 36l2 12q-2 2 -2 12q0 27 8 54l2 4q19 41 39.5 69t35.5 42t35.5 21t31.5 8t30 1h6l54 -10l22 -10l64 -43l47 -50l8 -22v6q4 -17 10 -23h6q24 8 31 15l78 92q18 21 34 34t28.5 16t21 3.5t16 -2t8.5 -2.5l7 2 q6 0 22 -4h6zM1278 1346q0 -14 -3 -29.5t-8 -34.5t-7 -29q-4 -18 -4 -50.5t-3 -47.5q-8 -41 -10 -117.5t-6 -109.5q-3 -24 -18 -90t-15 -97l4 -30q0 -6 -6 -54q-11 -55 -22.5 -165.5t-24.5 -169.5q-4 -19 -12.5 -68.5t-17.5 -84.5t-25 -65q-17 -29 -44.5 -41.5t-55 -19 t-39.5 -18.5q-22 -22 -35.5 -34t-36.5 -24t-45 -12q-23 0 -44.5 11.5t-30 19.5t-29.5 36.5t-23 30.5q-82 98 -115 150l-104 190q-22 32 -49.5 104.5t-40.5 96.5q-11 -40 -42.5 -146.5t-52.5 -190t-37 -171.5l-3 -14q-3 -13 -6.5 -24.5t-9 -31.5t-13 -36t-17 -36t-22 -34.5 t-26.5 -27.5t-32 -20t-38 -7q-26 0 -50 25.5t-24 64.5q0 8 3 15.5t3 10.5l-4 35q0 49 26 125q7 26 16.5 80t16.5 80q26 109 65.5 318t61.5 304q21 94 40 127q32 56 89 56q50 0 94 -44t64 -96q18 -44 57.5 -122t48.5 -97q7 -15 51.5 -129t73.5 -155q10 -25 44 -97.5t40 -72.5 q40 0 43 39q1 38 23.5 111.5t26.5 90.5q15 71 37.5 197t44.5 232.5t47 199.5q4 15 12.5 52t14.5 57.5t19 51t28 47.5t40 29.5t56 12.5q53 0 61 -57z" />
<glyph unicode="&#xd2;" horiz-adv-x="1155" d="M944 1262q0 -33 -26.5 -48.5t-53.5 -15.5q-46 0 -109.5 30t-115.5 70q-16 13 -52.5 39t-59 44.5t-49 44.5t-39.5 54.5t-13 59.5q0 42 24.5 59t79.5 17q38 0 93 -49l137 -121q7 -6 30 -25t35.5 -29.5t34 -29t33.5 -30.5t25.5 -26.5t19.5 -25t6 -18.5zM1112 602 q2 -11 3 -38.5t5.5 -47.5t14.5 -37q0 -68 -24.5 -145.5t-75.5 -155.5t-120 -141.5t-168.5 -103t-211.5 -39.5q-81 2 -165.5 34t-155.5 86t-116 136.5t-45 177.5q0 102 43 232t126.5 257t185.5 201q21 14 57 24.5t49 18.5q9 9 74 31t104 22q29 0 53.5 -8t49 -27t40 -34.5 t42.5 -45.5q17 -19 50.5 -49t59.5 -58t41 -58q54 -83 84 -232zM877 432q12 47 12 96q0 48 -12 90.5t-26.5 70t-47 62t-51.5 50.5t-62 51q-28 -12 -57 -12l-31 2q-21 0 -29 -8q-106 -83 -196 -241t-90 -308q0 -48 23.5 -82.5t61.5 -50.5t73 -22.5t71 -6.5q49 0 88.5 9t66 21 t55 38t45 46t46.5 60v-2q42 53 60 137z" />
<glyph unicode="&#xd3;" horiz-adv-x="1155" d="M940 1524l-2 -2q0 2 2 2t4 2q-4 -15 -6 -17v9q-2 -3 -4.5 -11.5t-6 -14.5t-9.5 -9q-5 0 -5 -6q0 -8 9.5 -16.5t9.5 -10.5q0 -5 -16.5 -29.5t-48 -59t-70 -67.5t-89.5 -56.5t-100 -23.5q0 -1 -6.5 -1t-17 1t-23.5 4.5t-25.5 10.5t-23.5 17.5t-18 28.5t-7 40q0 41 67 104.5 t166.5 113.5t176.5 50q13 0 34 -9t21 -26q0 -6 -6 -14.5t-6 -9.5zM1112 602q2 -11 3 -38.5t5.5 -47.5t14.5 -37q0 -68 -24.5 -145.5t-75.5 -155.5t-120 -141.5t-168.5 -103t-211.5 -39.5q-81 2 -165.5 34t-155.5 86t-116 136.5t-45 177.5q0 102 43 232t126.5 257t185.5 201 q21 14 57 24.5t49 18.5q9 9 74 31t104 22q29 0 53.5 -8t49 -27t40 -34.5t42.5 -45.5q17 -19 50.5 -49t59.5 -58t41 -58q54 -83 84 -232zM877 432q12 47 12 96q0 48 -12 90.5t-26.5 70t-47 62t-51.5 50.5t-62 51q-28 -12 -57 -12l-31 2q-21 0 -29 -8q-106 -83 -196 -241 t-90 -308q0 -48 23.5 -82.5t61.5 -50.5t73 -22.5t71 -6.5q49 0 88.5 9t66 21t55 38t45 46t46.5 60v-2q42 53 60 137z" />
<glyph unicode="&#xd4;" horiz-adv-x="1155" d="M1014 1417q4 -20 4 -26q0 -27 -18 -49.5t-46 -22.5q-36 0 -70 39.5t-68.5 99t-51.5 78.5q-15 -18 -44 -53t-54.5 -64.5t-53.5 -58.5q-1 -2 -7.5 -11.5t-10.5 -15.5t-12 -15.5t-16 -16t-17.5 -13t-21 -9.5t-23.5 -3q-30 0 -59 30t-29 64q0 35 62 124.5t142 167t121 77.5 q24 0 45 -15q57 -39 94 -87.5t73 -116.5t61 -103zM1112 602q2 -11 3 -38.5t5.5 -47.5t14.5 -37q0 -68 -24.5 -145.5t-75.5 -155.5t-120 -141.5t-168.5 -103t-211.5 -39.5q-81 2 -165.5 34t-155.5 86t-116 136.5t-45 177.5q0 102 43 232t126.5 257t185.5 201q21 14 57 24.5 t49 18.5q9 9 74 31t104 22q29 0 53.5 -8t49 -27t40 -34.5t42.5 -45.5q17 -19 50.5 -49t59.5 -58t41 -58q54 -83 84 -232zM877 432q12 47 12 96q0 48 -12 90.5t-26.5 70t-47 62t-51.5 50.5t-62 51q-28 -12 -57 -12l-31 2q-21 0 -29 -8q-106 -83 -196 -241t-90 -308 q0 -48 23.5 -82.5t61.5 -50.5t73 -22.5t71 -6.5q49 0 88.5 9t66 21t55 38t45 46t46.5 60v-2q42 53 60 137z" />
<glyph unicode="&#xd5;" horiz-adv-x="1155" d="M1053 1700l12 -39q-4 -13 -12 -23v-4q-8 -18 -39 -57l-15 -27l-20 -41l2 -12l-29 -45l-24 -20q-29 -22 -31 -23l-2 -2q-31 -14 -94 -14h-2q-85 6 -158 51l-8 4h2q-1 1 -4 2.5t-8.5 5t-10.5 6.5l-8 4q-6 6 -12 9l-2 2q-19 6 -21 8q0 -1 -1 -5t-1 -7l-2 -9q-19 -53 -73 -53 q-13 0 -21 2h-4l-18 4h-13q-15 4 -24.5 13.5t-14 18.5t-14.5 36l2 12q-2 2 -2 12q0 27 8 54l2 4q19 41 39.5 69t35.5 42t35.5 21t31.5 8t30 1h6l54 -10l22 -10l64 -43l47 -50l8 -22v6q4 -17 10 -23h6q24 8 31 15l78 92q18 21 34 34t28.5 16t21 3.5t16 -2t8.5 -2.5l7 2 q6 0 22 -4h6zM1112 602q2 -11 3 -38.5t5.5 -47.5t14.5 -37q0 -68 -24.5 -145.5t-75.5 -155.5t-120 -141.5t-168.5 -103t-211.5 -39.5q-81 2 -165.5 34t-155.5 86t-116 136.5t-45 177.5q0 102 43 232t126.5 257t185.5 201q21 14 57 24.5t49 18.5q9 9 74 31t104 22 q29 0 53.5 -8t49 -27t40 -34.5t42.5 -45.5q17 -19 50.5 -49t59.5 -58t41 -58q54 -83 84 -232zM877 432q12 47 12 96q0 48 -12 90.5t-26.5 70t-47 62t-51.5 50.5t-62 51q-28 -12 -57 -12l-31 2q-21 0 -29 -8q-106 -83 -196 -241t-90 -308q0 -48 23.5 -82.5t61.5 -50.5 t73 -22.5t71 -6.5q49 0 88.5 9t66 21t55 38t45 46t46.5 60v-2q42 53 60 137z" />
<glyph unicode="&#xd6;" horiz-adv-x="1155" d="M551 1556q40 -17 70 -65.5t30 -91.5q0 -18 -4.5 -33.5t-16 -33t-36.5 -28t-62 -10.5q-15 0 -42.5 10t-58.5 28t-53 49.5t-22 68.5q0 53 33 96t84 43q20 0 43 -15t35 -18zM956 1450q1 -5 2 -12.5t2 -13t1 -9.5q0 -39 -27.5 -70.5t-71.5 -31.5q-68 0 -118 42.5t-50 102.5 q0 19 10.5 46.5t36.5 53t60 25.5l37 -10h12q29 0 60 -41t46 -82zM1112 602q2 -11 3 -38.5t5.5 -47.5t14.5 -37q0 -68 -24.5 -145.5t-75.5 -155.5t-120 -141.5t-168.5 -103t-211.5 -39.5q-81 2 -165.5 34t-155.5 86t-116 136.5t-45 177.5q0 102 43 232t126.5 257t185.5 201 q21 14 57 24.5t49 18.5q9 9 74 31t104 22q29 0 53.5 -8t49 -27t40 -34.5t42.5 -45.5q17 -19 50.5 -49t59.5 -58t41 -58q54 -83 84 -232zM877 432q12 47 12 96q0 48 -12 90.5t-26.5 70t-47 62t-51.5 50.5t-62 51q-28 -12 -57 -12l-31 2q-21 0 -29 -8q-106 -83 -196 -241 t-90 -308q0 -48 23.5 -82.5t61.5 -50.5t73 -22.5t71 -6.5q49 0 88.5 9t66 21t55 38t45 46t46.5 60v-2q42 53 60 137z" />
<glyph unicode="&#xd8;" horiz-adv-x="1124" d="M1114 618q2 -11 12 -54.5t13 -67.5q0 -26 -2.5 -50t-9.5 -53t-11 -44t-16 -53.5t-15 -49.5q-21 -61 -77 -117q-49 -66 -150 -123q-10 -6 -38.5 -24.5t-41.5 -26t-37 -18.5t-47 -15t-49 -4q-25 0 -69.5 -10t-67.5 -10q-13 0 -33.5 5t-23.5 5q-4 0 -16.5 -15.5t-18.5 -29.5 q-44 -146 -92 -146q-34 0 -49 22t-15 48l10 121v24q0 8 5.5 23t5.5 18q0 4 -5 9q-113 72 -156.5 173.5t-43.5 227.5q0 42 22.5 115.5t24.5 93.5v-4q7 32 22.5 63.5t39.5 69t34 57.5q97 172 201 240l-2 -2q72 45 124 65.5t120 24.5q22 0 53 -26.5t39 -26.5q3 0 13 6t22 14.5 t18 11.5q19 12 36 39t27.5 50t33.5 41t57 18q37 0 59 -35.5t22 -85.5q0 -43 -30.5 -94t-30.5 -66l4 -37q-2 -4 -2 -16q0 -9 8 -14q19 -10 40.5 -51.5t35.5 -53.5q25 -52 47 -162zM352 152l103 256q114 227 221 452l-12 -2l-46 4q-24 0 -46 -12.5t-35 -27t-30.5 -36.5 t-25.5 -30q-28 -32 -50 -70t-48 -95.5t-37 -78.5q-61 -113 -61 -215t67 -145zM887 399q2 5 6 11.5t6 12t2 11.5v6q10 58 10 92q0 104 -69 199l-103 -194q-11 -22 -47 -79.5t-49 -90.5q-15 -39 -54.5 -127t-56.5 -136q10 3 66 11t90 26q85 44 127.5 103.5t71.5 154.5z" />
<glyph unicode="&#xd9;" horiz-adv-x="1067" d="M870 1223q0 -33 -26 -48.5t-53 -15.5q-46 0 -110 30t-116 71q-17 13 -52.5 38.5t-59 44t-49.5 44.5t-39 54.5t-13 59.5q0 42 25 59t80 17q37 0 92 -49l137 -121q7 -6 30 -25t35.5 -29.5t34 -29t33.5 -30.5t25.5 -26.5t19.5 -25t6 -18.5zM1196 1030q-9 -37 -20 -92 q-18 -74 -19 -80v-2q0 2 2 4q-34 -202 -168 -465q-60 -124 -98.5 -183.5t-108.5 -133.5q-1 -1 -11 -11.5t-14 -14t-15 -14t-17 -16t-17.5 -15t-20 -15t-20 -13.5t-21 -12.5t-20.5 -9t-22 -6.5h-24q-11 -1 -36 -7.5t-38 -6.5q-51 -3 -121.5 27.5t-137.5 98t-85 152.5v-2 q-7 23 -23 72t-25.5 85.5t-13.5 73.5q-6 93 25 269q13 77 40.5 160.5t71.5 152.5t89 72q6 0 17 -4.5t11 -8.5q-2 0 -4 2q23 -23 23 -20q0 1 -2 4q8 -5 8 -18l-4 -37q3 -21 20 -41q38 -39 56 -77t22 -97q3 -41 -7 -130t-7 -136q4 -28 4 -33q0 -8 1 -18t1 -15q0 -28 12 -74 t29 -55q12 -7 23.5 -38t32 -56.5t57.5 -28.5l-7 -2l19 -2q20 1 38 15.5t27 29t21 37.5q45 85 83.5 206t31.5 216q-1 22 -16.5 61.5t-18.5 57.5q0 10 2.5 17.5t7.5 16.5t8 17q21 49 69.5 129.5t65.5 124.5q-2 -2 -2 -11q0 -10 2 -12q4 9 14 23.5t13 19.5q-6 0 -8 -2 q2 1 21 12.5t30 12.5q1 0 21 -3t34 -3q3 1 20 10t27 10q20 2 47 -26.5t31 -61.5q1 -11 0 -24.5t-3 -30.5t-3 -25z" />
<glyph unicode="&#xda;" horiz-adv-x="1067" d="M915 1524l-2 -2q0 2 2 2q3 0 5 2q-3 -13 -7 -17v9q-2 -3 -4.5 -11.5t-6 -14.5t-9.5 -9q-4 0 -4 -6q0 -8 9 -16.5t9 -10.5q0 -5 -16.5 -29.5t-47.5 -59t-69.5 -67.5t-89.5 -56.5t-100 -23.5q0 -1 -6.5 -1t-17 1t-23.5 4.5t-25.5 10.5t-23.5 17.5t-18 28.5t-7 40 q0 41 67 104.5t166 113.5t176 50q13 0 34.5 -9t21.5 -26q0 -6 -6 -14t-7 -10zM1196 1030q-9 -37 -20 -92q-18 -74 -19 -80v-2q0 2 2 4q-34 -202 -168 -465q-60 -124 -98.5 -183.5t-108.5 -133.5q-1 -1 -11 -11.5t-14 -14t-15 -14t-17 -16t-17.5 -15t-20 -15t-20 -13.5 t-21 -12.5t-20.5 -9t-22 -6.5h-24q-11 -1 -36 -7.5t-38 -6.5q-51 -3 -121.5 27.5t-137.5 98t-85 152.5v-2q-7 23 -23 72t-25.5 85.5t-13.5 73.5q-6 93 25 269q13 77 40.5 160.5t71.5 152.5t89 72q6 0 17 -4.5t11 -8.5q-2 0 -4 2q23 -23 23 -20q0 1 -2 4q8 -5 8 -18l-4 -37 q3 -21 20 -41q38 -39 56 -77t22 -97q3 -41 -7 -130t-7 -136q4 -28 4 -33q0 -8 1 -18t1 -15q0 -28 12 -74t29 -55q12 -7 23.5 -38t32 -56.5t57.5 -28.5l-7 -2l19 -2q20 1 38 15.5t27 29t21 37.5q45 85 83.5 206t31.5 216q-1 22 -16.5 61.5t-18.5 57.5q0 10 2.5 17.5t7.5 16.5 t8 17q21 49 69.5 129.5t65.5 124.5q-2 -2 -2 -11q0 -10 2 -12q4 9 14 23.5t13 19.5q-6 0 -8 -2q2 1 21 12.5t30 12.5q1 0 21 -3t34 -3q3 1 20 10t27 10q20 2 47 -26.5t31 -61.5q1 -11 0 -24.5t-3 -30.5t-3 -25z" />
<glyph unicode="&#xdb;" horiz-adv-x="1067" d="M975 1339q4 -20 4 -26q0 -27 -18 -49.5t-46 -22.5q-36 0 -70 39.5t-68.5 99t-51.5 78.5q-15 -18 -44 -53t-54.5 -64.5t-53.5 -58.5q-1 -2 -7.5 -11.5t-10.5 -15.5t-12 -15.5t-16 -16t-17.5 -13t-21 -9.5t-23.5 -3q-30 0 -59 30t-29 64q0 35 62 124.5t142 167t121 77.5 q26 0 46 -14q57 -39 93.5 -88t72.5 -117t61 -103zM1196 1030q-9 -37 -20 -92q-18 -74 -19 -80v-2q0 2 2 4q-34 -202 -168 -465q-60 -124 -98.5 -183.5t-108.5 -133.5q-1 -1 -11 -11.5t-14 -14t-15 -14t-17 -16t-17.5 -15t-20 -15t-20 -13.5t-21 -12.5t-20.5 -9t-22 -6.5h-24 q-11 -1 -36 -7.5t-38 -6.5q-51 -3 -121.5 27.5t-137.5 98t-85 152.5v-2q-7 23 -23 72t-25.5 85.5t-13.5 73.5q-6 93 25 269q13 77 40.5 160.5t71.5 152.5t89 72q6 0 17 -4.5t11 -8.5q-2 0 -4 2q23 -23 23 -20q0 1 -2 4q8 -5 8 -18l-4 -37q3 -21 20 -41q38 -39 56 -77t22 -97 q3 -41 -7 -130t-7 -136q4 -28 4 -33q0 -8 1 -18t1 -15q0 -28 12 -74t29 -55q12 -7 23.5 -38t32 -56.5t57.5 -28.5l-7 -2l19 -2q20 1 38 15.5t27 29t21 37.5q45 85 83.5 206t31.5 216q-1 22 -16.5 61.5t-18.5 57.5q0 10 2.5 17.5t7.5 16.5t8 17q21 49 69.5 129.5t65.5 124.5 q-2 -2 -2 -11q0 -10 2 -12q4 9 14 23.5t13 19.5q-6 0 -8 -2q2 1 21 12.5t30 12.5q1 0 21 -3t34 -3q3 1 20 10t27 10q20 2 47 -26.5t31 -61.5q1 -11 0 -24.5t-3 -30.5t-3 -25z" />
<glyph unicode="&#xdc;" horiz-adv-x="1067" d="M551 1556q40 -17 70 -65.5t30 -91.5q0 -18 -4.5 -33.5t-16 -33t-36.5 -28t-62 -10.5q-15 0 -42.5 10t-58.5 28t-53 49.5t-22 68.5q0 53 33 96t84 43q20 0 43 -15t35 -18zM956 1450q1 -5 2 -12.5t2 -13t1 -9.5q0 -39 -27.5 -70.5t-71.5 -31.5q-68 0 -118 42.5t-50 102.5 q0 19 10.5 46.5t36.5 53t60 25.5l37 -10h12q29 0 60 -41t46 -82zM1196 1030q-9 -37 -20 -92q-18 -74 -19 -80v-2q0 2 2 4q-34 -202 -168 -465q-60 -124 -98.5 -183.5t-108.5 -133.5q-1 -1 -11 -11.5t-14 -14t-15 -14t-17 -16t-17.5 -15t-20 -15t-20 -13.5t-21 -12.5 t-20.5 -9t-22 -6.5h-24q-11 -1 -36 -7.5t-38 -6.5q-51 -3 -121.5 27.5t-137.5 98t-85 152.5v-2q-7 23 -23 72t-25.5 85.5t-13.5 73.5q-6 93 25 269q13 77 40.5 160.5t71.5 152.5t89 72q6 0 17 -4.5t11 -8.5q-2 0 -4 2q23 -23 23 -20q0 1 -2 4q8 -5 8 -18l-4 -37 q3 -21 20 -41q38 -39 56 -77t22 -97q3 -41 -7 -130t-7 -136q4 -28 4 -33q0 -8 1 -18t1 -15q0 -28 12 -74t29 -55q12 -7 23.5 -38t32 -56.5t57.5 -28.5l-7 -2l19 -2q20 1 38 15.5t27 29t21 37.5q45 85 83.5 206t31.5 216q-1 22 -16.5 61.5t-18.5 57.5q0 10 2.5 17.5t7.5 16.5 t8 17q21 49 69.5 129.5t65.5 124.5q-2 -2 -2 -11q0 -10 2 -12q4 9 14 23.5t13 19.5q-6 0 -8 -2q2 1 21 12.5t30 12.5q1 0 21 -3t34 -3q3 1 20 10t27 10q20 2 47 -26.5t31 -61.5q1 -11 0 -24.5t-3 -30.5t-3 -25z" />
<glyph unicode="&#xdd;" horiz-adv-x="1228" d="M797 1524l-2 -2q0 2 2 2t4 2q-4 -15 -6 -17v9q-2 -3 -4.5 -11.5t-6.5 -14.5t-10 -9q-4 0 -4 -6q0 -8 9 -16.5t9 -10.5q0 -5 -16.5 -29.5t-47.5 -59t-69.5 -67.5t-89.5 -56.5t-100 -23.5q0 -1 -6.5 -1t-17 1t-23.5 4.5t-25.5 10.5t-23.5 17.5t-18 28.5t-7 40 q0 41 67 104.5t166.5 113.5t176.5 50q13 0 34 -9t21 -26q0 -6 -6 -14.5t-6 -9.5zM1065 1323q2 -33 -18 -66q-32 -56 -67 -113t-77.5 -122t-70 -106t-80 -118t-72.5 -106q-10 -14 -22 -46t-26.5 -57.5t-35.5 -35.5q-3 -6 -13.5 -23t-16.5 -29t-9 -24q-19 -112 -44 -278 q-34 -224 -59 -275t-114 -51q-34 0 -58.5 16t-37 38t-19.5 56t-8.5 58.5t-1.5 56.5q0 74 27.5 217t27.5 211q0 15 -4 19l-39 49q-32 40 -55 72t-50 79t-41.5 97.5t-14.5 101.5q0 44 26.5 75.5t67.5 37.5q5 0 11.5 -4t10.5 -4l17 4q37 0 121 -94.5t139 -215.5q17 37 44.5 78 t44.5 62.5t59 72t52 62.5q147 183 250 260q1 1 18.5 14.5t32 24t32.5 20t28 9.5q7 0 45 -23z" />
<glyph unicode="&#xde;" horiz-adv-x="843" d="M768 344v-6l-4 -45l-21 -55l-24 -33l-35 -31l-41 -22l-53 -19l-105 2q-8 4 -14 6q-19 5 -20 6h-9l-39 15l-16 8h2l6 -2l-14 18v-2q-17 5 -9.5 28.5t1.5 25.5l2 8l33 22l36 -4q36 -4 41 -4q1 0 8.5 -0.5t12 0t12.5 1.5t13 3.5t11 8t9 12.5v10q0 31 -24 89.5t-58 92.5l-8 8 l-25 37v2l-6 4q-2 0 -2 2l-4 7q-3 3 -8 12t-9.5 16.5t-5.5 7.5q-24 -63 -35.5 -97t-16 -52t-9.5 -33l-2 -6q-6 -8 -13 -28.5t-6 -30.5l-2 -7q-18 -29 -41 -182q-8 -26 -26 -129l-31 -78l-33 -39l-41 -24h-28l-23 12l-16 25l-6 94l2 12l-2 10v9v61q2 6 2 16q0 19 2 25 q-2 0 -2 2l-4 113l2 80q10 47 26 137l2 2q5 10 18.5 67t20.5 101l4 8q3 0 8.5 16.5t12.5 41.5t12 36v2l35 105v14q0 8 2 10l4 15q28 39 35 67l2 4q1 4 10 17q2 3 7 11t8 11v8l4 13l43 73l10 11q3 -1 7 6t7 14.5t4 7.5l47 45l54 23l24 2l41 -14l12 -11l23 -36v-50v-108 l-29 -70q-9 -19 -24.5 -54.5t-18.5 -41.5l45 -47l31 -33q0 -4 2 -6q4 -4 6 -4l6 -6l89 -111l4 -8q3 -9 6 -6l4 -6l49 -82l4 -13q5 -15 6 -16l6 -6q2 -2 2 -4l7 -15q2 -4 2 -10q0 -10 2 -10v-4l2 -10q-2 -1 -1.5 -4.5t3.5 -4.5q2 -2 2 -6z" />
<glyph unicode="&#xdf;" horiz-adv-x="1077" d="M1065 360v-12q0 -53 -21.5 -95t-66.5 -87q-83 -83 -160.5 -131t-177.5 -60q-10 -1 -50 -10.5t-63 -9.5l-14 2q-4 0 -15 -3t-18 -3q-137 18 -172 36.5t-35 82.5q0 84 52 84q14 0 26.5 -16t14.5 -17q38 -25 94 -25q28 0 64.5 3.5t87.5 16.5t91.5 33.5t69.5 58.5t29 87 q0 59 -44 95t-104 36q-13 0 -61.5 -15.5t-63.5 -15.5q-8 0 -34 11q-105 52 -105 133q0 6 3.5 17t8.5 25t7 23q6 21 19 36t27.5 26t18.5 16q8 13 22.5 18.5t23 6t32.5 0.5l14 -5q11 0 45 27q-8 -4 0 4l19 19q84 79 84 100q0 45 -30 72.5t-83 27.5q-68 0 -103.5 -38.5 t-56.5 -104.5q-42 -115 -101 -322.5t-95 -308.5q-18 -53 -29 -113.5t-22 -148t-15 -113.5q-3 -14 -19 -36t-20 -31q-13 -32 -28.5 -48t-47.5 -16q-43 0 -43 45q-2 0 -2 -2q-14 54 -14 68l2 14q28 301 82.5 558t144.5 544q102 330 379 330q60 0 144 -25q17 -5 45 -22 t63 -47.5t65.5 -67t51 -86.5t20.5 -100q0 -69 -47.5 -126.5t-109.5 -90.5q93 -64 146 -133.5t75 -170.5z" />
<glyph unicode="&#xe0;" d="M854 700q55 -39 55 -88l-16 -47v-2l-8 -65l-8 -19q-20 -20 -52 -131q-9 -30 -26.5 -70.5t-31.5 -91.5t-26 -137l-26 -172q-2 -6 -2 -27q0 -32 4 -43l-58 -22q-5 14 -38 43q-35 34 -46.5 67.5t-11.5 92.5q0 36 4 82q-37 -37 -131 -121q-17 -35 -57 -63.5t-141 -80.5 q-47 -53 -103 -53q-34 0 -65 30t-43 73q-8 24 -29 54t-35 60t-14 70q0 47 22 117l19 20q20 7 28 21t27.5 55.5t52.5 89.5l68 100q11 9 38.5 52t71.5 81q101 136 168.5 199.5t126.5 63.5q45 0 97 -52q20 -2 31.5 -11t32.5 -21.5t63 -22.5q1 0 10 -4t23.5 -11.5t25.5 -15.5z M573 449q38 92 41 92q0 24 -20 24q-17 0 -64 -41q-14 -8 -29.5 -20.5t-39.5 -38.5t-45.5 -50.5t-67 -76.5t-84.5 -96q-1 -2 -38.5 -58.5t-66 -105t-28.5 -64.5t14 -16q13 0 37 20t67 60.5t75 66.5q5 7 10.5 13.5t17 18l23.5 23.5t39 38.5t55 54.5q0 17 39 75.5t65 80.5z M885 946q0 -33 -26.5 -48t-53.5 -15q-46 0 -109.5 30t-115.5 70q-16 13 -52.5 39t-59 44.5t-49 44.5t-39.5 54.5t-13 59.5q0 42 24.5 58.5t79.5 16.5q37 0 92 -49l137 -121q9 -7 31 -25t35.5 -29.5t34 -29t33 -30.5t25.5 -27t19.5 -24.5t6.5 -18.5z" />
<glyph unicode="&#xe1;" d="M854 700q55 -39 55 -88l-16 -47v-2l-8 -65l-8 -19q-20 -20 -52 -131q-9 -30 -26.5 -70.5t-31.5 -91.5t-26 -137l-26 -172q-2 -6 -2 -27q0 -32 4 -43l-58 -22q-5 14 -38 43q-35 34 -46.5 67.5t-11.5 92.5q0 36 4 82q-37 -37 -131 -121q-17 -35 -57 -63.5t-141 -80.5 q-47 -53 -103 -53q-34 0 -65 30t-43 73q-8 24 -29 54t-35 60t-14 70q0 47 22 117l19 20q20 7 28 21t27.5 55.5t52.5 89.5l68 100q11 9 38.5 52t71.5 81q101 136 168.5 199.5t126.5 63.5q45 0 97 -52q20 -2 31.5 -11t32.5 -21.5t63 -22.5q1 0 10 -4t23.5 -11.5t25.5 -15.5z M573 449q38 92 41 92q0 24 -20 24q-17 0 -64 -41q-14 -8 -29.5 -20.5t-39.5 -38.5t-45.5 -50.5t-67 -76.5t-84.5 -96q-1 -2 -38.5 -58.5t-66 -105t-28.5 -64.5t14 -16q13 0 37 20t67 60.5t75 66.5q5 7 10.5 13.5t17 18l23.5 23.5t39 38.5t55 54.5q0 17 39 75.5t65 80.5z M958 1243l-2 -2q0 2 2 2q3 0 5 2q-3 -12 -7 -16v8q-2 -3 -4.5 -11.5t-6 -14.5t-9.5 -9q-4 0 -4 -6q0 -8 9 -16.5t9 -10.5q0 -5 -16.5 -29t-47.5 -59t-69.5 -68t-89.5 -56t-100 -23q0 -1 -6.5 -1t-17 1t-23.5 4t-25.5 10.5t-23.5 18t-18 28t-7 39.5q0 41 67 105t166 114 t176 50q13 0 34.5 -9t21.5 -26q0 -6 -6.5 -15t-6.5 -10z" />
<glyph unicode="&#xe2;" d="M854 700q55 -39 55 -88l-16 -47v-2l-8 -65l-8 -19q-20 -20 -52 -131q-9 -30 -26.5 -70.5t-31.5 -91.5t-26 -137l-26 -172q-2 -6 -2 -27q0 -32 4 -43l-58 -22q-5 14 -38 43q-35 34 -46.5 67.5t-11.5 92.5q0 36 4 82q-37 -37 -131 -121q-17 -35 -57 -63.5t-141 -80.5 q-47 -53 -103 -53q-34 0 -65 30t-43 73q-8 24 -29 54t-35 60t-14 70q0 47 22 117l19 20q20 7 28 21t27.5 55.5t52.5 89.5l68 100q11 9 38.5 52t71.5 81q101 136 168.5 199.5t126.5 63.5q45 0 97 -52q20 -2 31.5 -11t32.5 -21.5t63 -22.5q1 0 10 -4t23.5 -11.5t25.5 -15.5z M573 449q38 92 41 92q0 24 -20 24q-17 0 -64 -41q-14 -8 -29.5 -20.5t-39.5 -38.5t-45.5 -50.5t-67 -76.5t-84.5 -96q-1 -2 -38.5 -58.5t-66 -105t-28.5 -64.5t14 -16q13 0 37 20t67 60.5t75 66.5q5 7 10.5 13.5t17 18l23.5 23.5t39 38.5t55 54.5q0 17 39 75.5t65 80.5z M889 999q4 -20 4 -26q0 -27 -18 -49.5t-46 -22.5q-36 0 -70 39.5t-68.5 99t-51.5 78.5q-15 -18 -44 -53t-54.5 -64.5t-53.5 -58.5q-1 -2 -7.5 -11.5t-10.5 -15.5t-12 -15.5t-16 -16t-17.5 -13t-21 -9.5t-23.5 -3q-30 0 -59 30t-29 64q0 35 62 125t142 167t121 77 q26 0 46 -14q57 -39 93.5 -88t72.5 -117t61 -103z" />
<glyph unicode="&#xe3;" d="M854 700q55 -39 55 -88l-16 -47v-2l-8 -65l-8 -19q-20 -20 -52 -131q-9 -30 -26.5 -70.5t-31.5 -91.5t-26 -137l-26 -172q-2 -6 -2 -27q0 -32 4 -43l-58 -22q-5 14 -38 43q-35 34 -46.5 67.5t-11.5 92.5q0 36 4 82q-37 -37 -131 -121q-17 -35 -57 -63.5t-141 -80.5 q-47 -53 -103 -53q-34 0 -65 30t-43 73q-8 24 -29 54t-35 60t-14 70q0 47 22 117l19 20q20 7 28 21t27.5 55.5t52.5 89.5l68 100q11 9 38.5 52t71.5 81q101 136 168.5 199.5t126.5 63.5q45 0 97 -52q20 -2 31.5 -11t32.5 -21.5t63 -22.5q1 0 10 -4t23.5 -11.5t25.5 -15.5z M573 449q38 92 41 92q0 24 -20 24q-17 0 -64 -41q-14 -8 -29.5 -20.5t-39.5 -38.5t-45.5 -50.5t-67 -76.5t-84.5 -96q-1 -2 -38.5 -58.5t-66 -105t-28.5 -64.5t14 -16q13 0 37 20t67 60.5t75 66.5q5 7 10.5 13.5t17 18l23.5 23.5t39 38.5t55 54.5q0 17 39 75.5t65 80.5z M1004 1200l12 -39q-4 -11 -12 -22v-4q-9 -20 -39 -58l-15 -26l-20 -41l2 -13l-29 -45l-24 -20q-29 -22 -31 -23l-2 -2q-31 -14 -94 -14h-2q-85 6 -158 51l-8 4h2q-1 1 -4 3t-8.5 5.5t-10.5 6.5l-8 4q-4 4 -12 8l-2 2q-19 6 -21 8q0 -1 -1 -5t-1 -7l-2 -8 q-10 -27 -30.5 -40.5t-43.5 -13.5q-12 0 -20 2h-4l-19 5h-12q-15 4 -24.5 13.5t-14 18.5t-14.5 35l2 12q-2 2 -2 13q0 26 8 53l2 4q19 41 39.5 69t35.5 42t35.5 21t31.5 8t30 1h6l53 -10l23 -10l64 -43l47 -49l8 -23v6q4 -16 10 -22h6q25 9 31 14l78 92q18 21 34 34t28.5 16 t21 3.5t16 -2t8.5 -2.5l6 2q7 0 23 -4h6z" />
<glyph unicode="&#xe4;" d="M854 700q55 -39 55 -88l-16 -47v-2l-8 -65l-8 -19q-20 -20 -52 -131q-9 -30 -26.5 -70.5t-31.5 -91.5t-26 -137l-26 -172q-2 -6 -2 -27q0 -32 4 -43l-58 -22q-5 14 -38 43q-35 34 -46.5 67.5t-11.5 92.5q0 36 4 82q-37 -37 -131 -121q-17 -35 -57 -63.5t-141 -80.5 q-47 -53 -103 -53q-34 0 -65 30t-43 73q-8 24 -29 54t-35 60t-14 70q0 47 22 117l19 20q20 7 28 21t27.5 55.5t52.5 89.5l68 100q11 9 38.5 52t71.5 81q101 136 168.5 199.5t126.5 63.5q45 0 97 -52q20 -2 31.5 -11t32.5 -21.5t63 -22.5q1 0 10 -4t23.5 -11.5t25.5 -15.5z M573 449q38 92 41 92q0 24 -20 24q-17 0 -64 -41q-14 -8 -29.5 -20.5t-39.5 -38.5t-45.5 -50.5t-67 -76.5t-84.5 -96q-1 -2 -38.5 -58.5t-66 -105t-28.5 -64.5t14 -16q13 0 37 20t67 60.5t75 66.5q5 7 10.5 13.5t17 18l23.5 23.5t39 38.5t55 54.5q0 17 39 75.5t65 80.5z M555 1163q40 -17 70 -65.5t30 -91.5q0 -18 -4 -33.5t-15.5 -33t-36.5 -28t-62 -10.5q-15 0 -42.5 10t-58.5 28t-53.5 49.5t-22.5 68.5q0 53 33 96t84 43q20 0 43 -15t35 -18zM961 1057q4 -28 4 -35q0 -39 -27.5 -70.5t-71.5 -31.5q-68 0 -118 42.5t-50 102.5q0 19 10.5 46.5 t36.5 53t60 25.5l37 -10h12q29 0 60.5 -41t46.5 -82z" />
<glyph unicode="&#xe5;" d="M854 700q55 -39 55 -88l-16 -47v-2l-8 -65l-8 -19q-20 -20 -52 -131q-9 -30 -26.5 -70.5t-31.5 -91.5t-26 -137l-26 -172q-2 -6 -2 -27q0 -32 4 -43l-58 -22q-5 14 -38 43q-35 34 -46.5 67.5t-11.5 92.5q0 36 4 82q-37 -37 -131 -121q-17 -35 -57 -63.5t-141 -80.5 q-47 -53 -103 -53q-34 0 -65 30t-43 73q-8 24 -29 54t-35 60t-14 70q0 47 22 117l19 20q20 7 28 21t27.5 55.5t52.5 89.5l68 100q11 9 38.5 52t71.5 81q101 136 168.5 199.5t126.5 63.5q45 0 97 -52q20 -2 31.5 -11t32.5 -21.5t63 -22.5q1 0 10 -4t23.5 -11.5t25.5 -15.5z M573 449q38 92 41 92q0 24 -20 24q-17 0 -64 -41q-14 -8 -29.5 -20.5t-39.5 -38.5t-45.5 -50.5t-67 -76.5t-84.5 -96q-1 -2 -38.5 -58.5t-66 -105t-28.5 -64.5t14 -16q13 0 37 20t67 60.5t75 66.5q5 7 10.5 13.5t17 18l23.5 23.5t39 38.5t55 54.5q0 17 39 75.5t65 80.5z M840 1227l22 -49q4 -22 6 -27q2 -4 2 -8v2q0 -63 -18 -113l-14 -14q-31 -35 -95.5 -70t-93.5 -35q-13 0 -18 5q-3 0 -18 -3.5t-19 -3.5q-10 0 -45 13.5t-41 19.5q-36 36 -44.5 61.5t-8.5 88.5q0 9 4 45l18 41v12l10 12q42 82 76 103l60 30l41 13l63 -15q8 -9 31 -22l20 -23 l12 -9q12 -9 25.5 -23t24.5 -31zM678 1077q51 26 51 60q0 59 -43 59q-7 0 -27 -20l-26 -31q-35 -21 -35 -70q0 -37 18 -37q0 4 62 39z" />
<glyph unicode="&#xe6;" horiz-adv-x="1646" d="M1526 143q17 0 28 -8l17 -31q-2 -24 -21 -75l-6 -13v2q0 -2 -4 -6q-200 -235 -436 -235q-145 0 -316 249l-8 11l-24 -164q-2 -6 -2 -23q0 -31 4 -40l-56 -27q-65 75 -76 93q-22 39 -22 112q0 34 4 80q-40 -40 -131 -119q-17 -35 -57 -63.5t-141 -80.5q-51 -55 -103 -55 q-34 0 -64.5 30t-43.5 70v3q-10 26 -31 56.5t-34 59.5t-13 70q0 38 22 115l15 18q16 8 25.5 19t16 25t28 53t50.5 85l60 88q14 11 39.5 51t70.5 82q100 134 168.5 197.5t126.5 63.5q44 0 97 -50q20 -2 30.5 -10.5t31.5 -22t63 -24.5l12 -4q3 0 20 -8t41 -27.5t35 -42.5 q3 4 68 74l8 4l65 37q18 7 21 24l31 25h16q10 0 29 -12.5t24 -20.5l105 -16q6 -1 14.5 -2t12.5 -1.5t5 -0.5h-2h9q32 -10 70 -29.5t77.5 -48t65.5 -69t26 -83.5q0 -181 -186 -260q-57 -25 -115 -36t-88 -11q-132 0 -190 27q-58 -104 -58 -154q0 -4 23 -39q19 -31 31 -36.5 t59 -10.5l14 -4q27 -27 76 -27q61 0 180 56q42 20 87 48t70.5 45t35.5 17zM1257 584l-59 -37q-49 -28 -79.5 -58t-67 -82.5t-52.5 -72.5q41 -12 43 -12q23 0 103 51q33 21 57.5 41.5t38.5 35t24 32.5t13.5 27t8.5 26.5t7 23.5q-25 25 -37 25zM614 446q38 95 41 95 q0 22 -20 22q-6 1 -13.5 -2.5t-24.5 -17t-26 -19.5q-78 -57 -266 -284q-34 -47 -83.5 -125.5t-49.5 -100.5q0 -18 14 -18t37.5 20t66 61t75.5 68q6 8 15 18t21.5 21.5t43.5 42t65 64.5q0 17 39 75t65 80z" />
<glyph unicode="&#xe7;" horiz-adv-x="935" d="M903 313l8 -20q0 -8 -2.5 -14t-5 -8.5t-8.5 -7.5t-10 -9l-21 -49q0 -4 -2 -6q-2 -5 -6 -19l-20 -20q-3 0 -4.5 -3t-4 -7.5t-4.5 -6.5l-6 -8l-35 -24l-24 -23l-60 -33q-28 -22 -106 -55v-8l2 8q0 -8 -2 -10l2 -6v-2l2 -19q0 -3 -3 -22t-3 -27v-27q2 -4 2 -20l2 -3 q1 -3 4.5 -10t7 -14.5t6 -17.5t2.5 -19v-4v-16q0 -55 -41 -113l-14 -10l-80 -25q-2 0 -14 -4q-5 -1 -11 -2t-9.5 -1.5t-6.5 -0.5q-4 -2 -10 -2h-16l-39 -4q-11 4 -60 8h-2q-1 0 -7 -1t-15 -2t-15 -1l-22 -4h-8h-17h-22l-19 6l-16 35q9 33 35 33q7 0 21 -4t26 -4l-2 4l24 10 q55 3 74 25l10 6q7 3 16 8t22.5 14t23.5 15l8 4v6v2q0 2 2 4q0 9 -8 12l-14 27q0 40 -11 51l-8 2q5 0 -4.5 15t-22 32.5t-12.5 20.5l2 22q0 2 -2 4q-3 0 -21 -4t-28 -4q-17 0 -25 8q-9 8 -41.5 25.5t-59.5 42.5t-42 63h-2l-10 21q-2 3 -35 55v2q-6 12 -6 23l2 18 q0 14 -14 37l-5 12q-4 9 -4 45q0 64 35 156l4 6q30 74 146 187q35 32 62 50.5t43.5 25.5t62.5 24l18 6q38 16 62 16q25 0 63.5 -22.5t67.5 -65.5l16 -20l-6 -43l-33 -33l-10 -6q-36 -12 -39 -21l-12 -6q-3 -3 -6 -4t-7 -1t-6 -1l-37 -18q-35 -40 -55 -84l-2 -4 q-35 -47 -74 -119l-4 -6q-24 -41 -24 -56t-0.5 -30.5t-1 -24t0 -17.5t0.5 -13.5t2.5 -9t4 -5.5t7 -2.5t10.5 -1.5h15q11 0 20.5 0.5t22 3l20 4t25 7t26 8t33.5 10.5t38 12l71 23q97 44 146 69q11 8 43 8q9 0 35 9.5t30 9.5l25 -10z" />
<glyph unicode="&#xe8;" horiz-adv-x="866" d="M786 223q19 0 31 -12t12 -35q0 -57 -67.5 -132t-175.5 -131t-207 -56q-98 0 -192 78.5t-150.5 196.5t-56.5 230q0 26 13.5 68t22.5 57q20 20 40.5 62.5t31.5 58.5q14 22 48.5 52t47.5 47q37 46 72.5 75.5t93.5 61.5q6 5 14.5 17.5t18 21t23.5 8.5q10 0 36 -13.5 t68.5 -26.5t91.5 -13h-2q77 -8 162.5 -83t85.5 -159q0 -73 -39.5 -132t-102 -93t-132.5 -52t-138 -18q-80 0 -127 12q-4 1 -17.5 7t-19.5 6q-4 0 -19 -24.5t-28.5 -59.5t-13.5 -56q0 -57 59 -81q13 -5 56 -17q9 -2 33 -16.5t51 -14.5q89 0 211 68q16 10 54.5 38t66 44 t44.5 16zM459 627q-22 -12 -42.5 -28.5t-35 -30.5t-34 -37.5t-29 -36t-30 -41t-28.5 -39.5q30 -13 43 -13q8 0 46 19.5t84.5 49t83 75t36.5 88.5q0 10 -11 19.5t-22 9.5q-10 0 -21 -6t-22.5 -16t-17.5 -13zM842 946q0 -33 -26.5 -48t-53.5 -15q-46 0 -109.5 30t-115.5 70 q-16 13 -52.5 39t-59 44.5t-49 44.5t-39.5 54.5t-13 59.5q0 42 24.5 58.5t79.5 16.5q37 0 92 -49l137 -121q9 -7 31 -25t35.5 -29.5t34 -29t33 -30.5t25.5 -27t19.5 -24.5t6.5 -18.5z" />
<glyph unicode="&#xe9;" horiz-adv-x="866" d="M786 223q19 0 31 -12t12 -35q0 -57 -67.5 -132t-175.5 -131t-207 -56q-98 0 -192 78.5t-150.5 196.5t-56.5 230q0 26 13.5 68t22.5 57q20 20 40.5 62.5t31.5 58.5q14 22 48.5 52t47.5 47q37 46 72.5 75.5t93.5 61.5q6 5 14.5 17.5t18 21t23.5 8.5q10 0 36 -13.5 t68.5 -26.5t91.5 -13h-2q77 -8 162.5 -83t85.5 -159q0 -73 -39.5 -132t-102 -93t-132.5 -52t-138 -18q-80 0 -127 12q-4 1 -17.5 7t-19.5 6q-4 0 -19 -24.5t-28.5 -59.5t-13.5 -56q0 -57 59 -81q13 -5 56 -17q9 -2 33 -16.5t51 -14.5q89 0 211 68q16 10 54.5 38t66 44 t44.5 16zM459 627q-22 -12 -42.5 -28.5t-35 -30.5t-34 -37.5t-29 -36t-30 -41t-28.5 -39.5q30 -13 43 -13q8 0 46 19.5t84.5 49t83 75t36.5 88.5q0 10 -11 19.5t-22 9.5q-10 0 -21 -6t-22.5 -16t-17.5 -13zM739 1243l-2 -2q0 2 2 2t4 2q-3 -13 -6 -16v8q-2 -3 -4.5 -11.5 t-6 -14.5t-9.5 -9q-4 0 -4 -6q0 -8 9 -16.5t9 -10.5q0 -5 -16.5 -29t-47.5 -59t-69.5 -68t-89.5 -56t-100 -23q0 -1 -6.5 -1t-17 1t-23.5 4t-25.5 10.5t-23.5 18t-18 28t-7 39.5q0 41 67 105t166 114t176 50q13 0 34.5 -9t21.5 -26q0 -6 -6.5 -15t-6.5 -10z" />
<glyph unicode="&#xea;" horiz-adv-x="866" d="M786 223q19 0 31 -12t12 -35q0 -57 -67.5 -132t-175.5 -131t-207 -56q-98 0 -192 78.5t-150.5 196.5t-56.5 230q0 26 13.5 68t22.5 57q20 20 40.5 62.5t31.5 58.5q14 22 48.5 52t47.5 47q37 46 72.5 75.5t93.5 61.5q6 5 14.5 17.5t18 21t23.5 8.5q10 0 36 -13.5 t68.5 -26.5t91.5 -13h-2q77 -8 162.5 -83t85.5 -159q0 -73 -39.5 -132t-102 -93t-132.5 -52t-138 -18q-80 0 -127 12q-4 1 -17.5 7t-19.5 6q-4 0 -19 -24.5t-28.5 -59.5t-13.5 -56q0 -57 59 -81q13 -5 56 -17q9 -2 33 -16.5t51 -14.5q89 0 211 68q16 10 54.5 38t66 44 t44.5 16zM459 627q-22 -12 -42.5 -28.5t-35 -30.5t-34 -37.5t-29 -36t-30 -41t-28.5 -39.5q30 -13 43 -13q8 0 46 19.5t84.5 49t83 75t36.5 88.5q0 10 -11 19.5t-22 9.5q-10 0 -21 -6t-22.5 -16t-17.5 -13zM748 1026q4 -20 4 -27q0 -27 -18 -49t-46 -22q-36 0 -70 39.5 t-68.5 99t-51.5 78.5q-15 -18 -44 -53t-54.5 -64.5t-53.5 -58.5q-1 -2 -7.5 -11.5t-10.5 -15.5t-12 -15.5t-16 -16t-17.5 -13t-21 -9.5t-23.5 -3q-30 0 -59 30t-29 64q0 35 62 124.5t142 167t121 77.5q24 0 45 -15q57 -39 94 -87.5t73 -116.5t61 -103z" />
<glyph unicode="&#xeb;" horiz-adv-x="866" d="M786 223q19 0 31 -12t12 -35q0 -57 -67.5 -132t-175.5 -131t-207 -56q-98 0 -192 78.5t-150.5 196.5t-56.5 230q0 26 13.5 68t22.5 57q20 20 40.5 62.5t31.5 58.5q14 22 48.5 52t47.5 47q37 46 72.5 75.5t93.5 61.5q6 5 14.5 17.5t18 21t23.5 8.5q10 0 36 -13.5 t68.5 -26.5t91.5 -13h-2q77 -8 162.5 -83t85.5 -159q0 -73 -39.5 -132t-102 -93t-132.5 -52t-138 -18q-80 0 -127 12q-4 1 -17.5 7t-19.5 6q-4 0 -19 -24.5t-28.5 -59.5t-13.5 -56q0 -57 59 -81q13 -5 56 -17q9 -2 33 -16.5t51 -14.5q89 0 211 68q16 10 54.5 38t66 44 t44.5 16zM459 627q-22 -12 -42.5 -28.5t-35 -30.5t-34 -37.5t-29 -36t-30 -41t-28.5 -39.5q30 -13 43 -13q8 0 46 19.5t84.5 49t83 75t36.5 88.5q0 10 -11 19.5t-22 9.5q-10 0 -21 -6t-22.5 -16t-17.5 -13zM344 1192q40 -17 70 -66t30 -92q0 -18 -4 -33.5t-15.5 -32.5 t-36.5 -27.5t-62 -10.5q-15 0 -42.5 10t-58.5 27.5t-53 49t-22 68.5q0 53 32.5 96.5t83.5 43.5q20 0 43 -15t35 -18zM750 1085q4 -28 4 -34q0 -39 -27.5 -71t-71.5 -32q-68 0 -118 43t-50 103q0 19 10.5 46.5t36.5 53t60 25.5l37 -11h12q29 0 60.5 -41t46.5 -82z" />
<glyph unicode="&#xec;" horiz-adv-x="481" d="M446 106q1 -1 11 -12t16 -20t6 -15q0 -25 -51 -102q-7 -7 -22.5 -18t-20.5 -13q-20 -9 -51 -30.5t-59 -34.5t-60 -13q-17 0 -51 15q-139 58 -139 241q0 6 -0.5 28t0 29.5t2 23.5t5.5 28.5t11 26.5q13 32 31 72t53.5 107t77 110.5t78.5 43.5l18 -2l21 4q42 -7 69 -53 t27 -84q0 -42 -19 -84q-64 -135 -67 -270q70 11 114 22zM682 739q0 -33 -26.5 -48t-53.5 -15q-44 0 -111.5 31t-113.5 69q-16 13 -52.5 39t-59 44.5t-49 44.5t-39.5 54.5t-13 59.5q0 42 24.5 59t79.5 17q12 0 26 -6t23 -12.5t24 -17.5t19 -14l138 -120l42 -36t49.5 -43 t44.5 -40t35.5 -38.5t12.5 -27.5z" />
<glyph unicode="&#xed;" horiz-adv-x="481" d="M446 106q1 -1 11 -12t16 -20t6 -15q0 -25 -51 -102q-7 -7 -22.5 -18t-20.5 -13q-20 -9 -51 -30.5t-59 -34.5t-60 -13q-17 0 -51 15q-139 58 -139 241q0 6 -0.5 28t0 29.5t2 23.5t5.5 28.5t11 26.5q13 32 31 72t53.5 107t77 110.5t78.5 43.5l18 -2l21 4q42 -7 69 -53 t27 -84q0 -42 -19 -84q-64 -135 -67 -270q70 11 114 22zM696 1128q0 -18 -19.5 -44t-19.5 -27q0 -8 9.5 -16.5t9.5 -10.5q0 -5 -16.5 -29t-48 -59t-70 -68t-89.5 -56t-100 -23h-16.5t-28.5 5t-36.5 14.5t-27 30.5t-12.5 50q0 41 67 104.5t166.5 113.5t176.5 50q13 0 34 -9 t21 -26z" />
<glyph unicode="&#xee;" horiz-adv-x="481" d="M446 106q1 -1 11 -12t16 -20t6 -15q0 -25 -51 -102q-7 -7 -22.5 -18t-20.5 -13q-20 -9 -51 -30.5t-59 -34.5t-60 -13q-17 0 -51 15q-139 58 -139 241q0 6 -0.5 28t0 29.5t2 23.5t5.5 28.5t11 26.5q13 32 31 72t53.5 107t77 110.5t78.5 43.5l18 -2l21 4q42 -7 69 -53 t27 -84q0 -42 -19 -84q-64 -135 -67 -270q70 11 114 22zM711 854l6 -18q0 -12 -15 -54l-14 -14q-17 -10 -35 -10q-32 0 -49 10l-6 4q-21 21 -92 133l-43 66l-2 2l-78 -88q-20 -27 -70 -84l-16 -19q-21 -15 -21 -28l-16 -21q-33 -20 -55 -20h-4q-35 6 -52 22.5t-34 61.5 l-2 10q4 41 47 96l49 64q42 55 113 133l4 4q10 7 30 31l4 2q50 36 52 37l12 2q41 0 68 -21l24 -14q8 -8 24.5 -21t22.5 -18l8 -8q19 -25 21 -29l72 -141q15 -26 28 -43l2 -7v3z" />
<glyph unicode="&#xef;" horiz-adv-x="481" d="M446 106q1 -1 11 -12t16 -20t6 -15q0 -25 -51 -102q-7 -7 -22.5 -18t-20.5 -13q-20 -9 -51 -30.5t-59 -34.5t-60 -13q-17 0 -51 15q-139 58 -139 241q0 6 -0.5 28t0 29.5t2 23.5t5.5 28.5t11 26.5q13 32 31 72t53.5 107t77 110.5t78.5 43.5l18 -2l21 4q42 -7 69 -53 t27 -84q0 -42 -19 -84q-64 -135 -67 -270q70 11 114 22zM336 1090q40 -17 70 -66t30 -92q0 -18 -4.5 -33.5t-16 -33t-36.5 -28t-62 -10.5q-15 0 -42.5 10t-58.5 28t-53 49.5t-22 68.5q0 53 33 96t84 43q20 0 43 -14.5t35 -17.5zM741 983q4 -28 4 -35q0 -39 -27 -70.5 t-71 -31.5q-68 0 -118 42.5t-50 102.5q0 19 10.5 46.5t36.5 53t60 25.5l37 -10h12q29 0 60 -41t46 -82z" />
<glyph unicode="&#xf0;" horiz-adv-x="1073" d="M123 229l-2 2q2 0 2 -2zM1024 59q0 -52 -43 -93t-80 -46q0 -26 -12.5 -43.5t-24.5 -24.5l-12 -6q-25 -12 -44 -30.5t-38 -26.5t-61 -8q-16 0 -36 5t-36 11.5t-37.5 18t-32.5 17.5t-29 17l-18 11q-10 6 -36 22.5t-40 25.5t-30.5 24.5t-24.5 29.5q-15 27 -46.5 49.5 t-47.5 38.5q-18 18 -50.5 52.5t-59.5 61t-52 48.5q2 0 4 -2l-16 27v-7q-2 3 -6.5 11.5t-8 15.5t-8.5 14.5t-9 12t-7 4.5t-14 19.5t-21 45.5t-10 41q0 3 1 5t1 3q0 2 -8.5 13t-17.5 28.5t-9 34.5q0 33 16 49q6 44 46 110.5t86 82.5q37 12 75 12q126 0 287 -119 q-28 57 -42.5 172t-14.5 195q0 10 -2 12q-7 -3 -26 -8t-26 -8q-15 -3 -55 -35.5t-63 -32.5q-19 0 -33 13t-14 30q0 21 18.5 46.5t53.5 54.5t62.5 49t67.5 47l-2 364l29 9q10 2 31 6q5 0 15.5 3t14.5 3q11 0 24.5 -60.5t28.5 -135t29 -97.5q172 86 213 86q40 0 62 -27t22 -71 q0 -30 -58 -65t-112 -56l-41 -16q0 -4 -1 -8t-1 -5q0 -7 5 -18t11 -19l5 -8l-4 -16q0 -2 8.5 -18t9.5 -25q8 -34 26.5 -142.5t40.5 -185t58 -137.5q59 -93 59 -139l-2 -29q0 -30 17.5 -66.5t39 -66t39 -70.5t17.5 -80zM823 -57q6 0 15 6q-9 9 -23.5 45t-26.5 55 q-14 20 -54.5 69t-63.5 85t-23 61q-24 63 -49.5 97.5t-81.5 64.5q-23 11 -72 41t-88 45.5t-84 15.5q-11 0 -29 -5t-32 -5l-25 4q-2 0 -2 -2q13 -22 34.5 -72.5t39.5 -76.5l182 -195q157 -198 344 -217q7 -1 21 -8.5t18 -7.5z" />
<glyph unicode="&#xf1;" horiz-adv-x="964" d="M848 829q92 -58 92 -137q0 -19 -12 -65q-11 -50 -47 -192t-54 -246.5t-18 -202.5q0 -34 45 -156q0 -2 8 -20.5t8 -24.5q0 -22 -15 -35.5t-34 -13.5q-3 0 -12 2t-14 2q-3 0 -11 -2t-12 -2q-32 0 -58.5 16.5t-40.5 34t-34 49.5q-8 8 -32.5 52.5t-24.5 54.5v2v24q6 24 6 58 l-4 114q0 29 6 56q6 22 20 77t21.5 84t17 74.5t15.5 83.5q-211 -259 -304 -481q-18 -44 -48 -97.5t-80.5 -107t-94.5 -53.5q-13 0 -22.5 9.5t-15 25.5t-8.5 30t-5.5 31.5t-3.5 22.5q-6 27 -32.5 67t-26.5 66q0 15 3 30.5t8.5 36.5t6.5 27q5 21 14.5 77.5t19 95.5t21.5 56 q28 28 41.5 83.5t21.5 133.5t17 115q13 67 58 136t85 69q43 0 86.5 -40.5t43.5 -82.5q0 -12 -7 -29q-16 -39 -37.5 -110.5t-27.5 -87.5q6 10 14.5 18t23.5 18.5t17 12.5q73 73 86 88q8 10 38.5 49.5t53 62t43.5 29.5q18 0 48.5 22.5t50.5 22.5q9 0 18.5 -2t20.5 -6t18 -7 t20.5 -9.5t18.5 -8.5zM961 1303l12 -39q-4 -13 -12 -23v-4q-8 -18 -39 -57l-15 -27l-20 -41l2 -12l-29 -45l-24 -21q-23 -17 -31 -22l-2 -2q-33 -15 -94 -15h-2q-83 6 -158 52l-8 4h2q-1 1 -4 2.5t-8.5 5t-10.5 6.5l-8 4q-4 4 -12 8l-2 2q-19 6 -21 8q0 -1 -1 -5t-1 -7 l-2 -8q-19 -53 -74 -53q-12 0 -20 2h-4l-19 4h-12q-15 4 -24.5 13.5t-14 18.5t-14.5 35l2 13q-2 2 -2 12q0 26 8 53l2 4q23 50 46.5 81t48 43t39 15t38.5 3h6l53 -11l23 -10l63 -43l48 -49l8 -22v6q4 -17 10 -23h6q24 8 31 15l78 92q18 21 34 34t28.5 16t21 3.5t16 -2 t8.5 -2.5l6 2q7 0 23 -4h6z" />
<glyph unicode="&#xf2;" horiz-adv-x="966" d="M967 502q0 -69 -11 -125q-4 -21 -18.5 -57t-19.5 -54q-23 -93 -85.5 -159.5t-164.5 -126.5q-10 -6 -37.5 -23.5t-41.5 -26t-36 -21t-40.5 -20t-35.5 -12.5q-4 -1 -14.5 -3.5t-13 -3.5t-9.5 -3t-9.5 -3.5t-8.5 -4.5t-11 -6.5t-12 -8.5q-64 -45 -161 -45q-28 0 -52 10.5 t-39 23.5t-34.5 27t-36.5 19q-27 8 -44.5 28.5t-23 36t-13 52t-9.5 45.5q0 -4 2 -6l-2 24v9q0 8 2 8h2q-10 17 -10 39q0 83 22 114q4 7 21.5 19.5t17.5 17.5t-8 37q0 14 8 26.5t22.5 27t20.5 22.5q12 17 43 69.5t53 79.5q47 55 146 154q9 9 32 33.5t40.5 42t40 37.5t42 30.5 t35.5 10.5q4 0 13 -2.5t14 -2.5q12 0 29.5 26t39.5 26q-1 0 26 -11.5t71.5 -30t81.5 -32.5q37 0 66 -13.5t47 -39.5t30.5 -53.5t19 -67t9 -67.5t4.5 -66zM659 487q4 16 11 23q-6 3 -8.5 10t-3.5 20t-1 15q2 2 2 8q0 1 -10 31l-12 -4q-101 -68 -227 -201q-35 -37 -51 -54 t-50 -57.5t-51 -68.5t-32 -64t-15 -65q0 -21 39 -21q37 -1 81.5 14.5t69.5 30t72 43.5q4 3 38 14t42 27l47 86q18 35 34 112.5t25 100.5zM885 1004q0 -33 -26.5 -48.5t-53.5 -15.5q-46 0 -109.5 30t-115.5 70q-16 13 -52.5 39t-59 44.5t-49 44.5t-39.5 54.5t-13 59.5 q0 42 24.5 59t79.5 17q37 0 92 -49l137 -121q9 -7 31 -25t35.5 -29.5t34 -29t33 -30.5t25.5 -27t19.5 -24.5t6.5 -18.5z" />
<glyph unicode="&#xf3;" horiz-adv-x="966" d="M967 502q0 -69 -11 -125q-4 -21 -18.5 -57t-19.5 -54q-23 -93 -85.5 -159.5t-164.5 -126.5q-10 -6 -37.5 -23.5t-41.5 -26t-36 -21t-40.5 -20t-35.5 -12.5q-4 -1 -14.5 -3.5t-13 -3.5t-9.5 -3t-9.5 -3.5t-8.5 -4.5t-11 -6.5t-12 -8.5q-64 -45 -161 -45q-28 0 -52 10.5 t-39 23.5t-34.5 27t-36.5 19q-27 8 -44.5 28.5t-23 36t-13 52t-9.5 45.5q0 -4 2 -6l-2 24v9q0 8 2 8h2q-10 17 -10 39q0 83 22 114q4 7 21.5 19.5t17.5 17.5t-8 37q0 14 8 26.5t22.5 27t20.5 22.5q12 17 43 69.5t53 79.5q47 55 146 154q9 9 32 33.5t40.5 42t40 37.5t42 30.5 t35.5 10.5q4 0 13 -2.5t14 -2.5q12 0 29.5 26t39.5 26q-1 0 26 -11.5t71.5 -30t81.5 -32.5q37 0 66 -13.5t47 -39.5t30.5 -53.5t19 -67t9 -67.5t4.5 -66zM659 487q4 16 11 23q-6 3 -8.5 10t-3.5 20t-1 15q2 2 2 8q0 1 -10 31l-12 -4q-101 -68 -227 -201q-35 -37 -51 -54 t-50 -57.5t-51 -68.5t-32 -64t-15 -65q0 -21 39 -21q37 -1 81.5 14.5t69.5 30t72 43.5q4 3 38 14t42 27l47 86q18 35 34 112.5t25 100.5zM887 1243l-2 -2q0 2 2 2t4 2q-3 -13 -6 -16v8q-2 -3 -4.5 -11.5t-6.5 -14.5t-10 -9q-4 0 -4 -6q0 -8 9.5 -16.5t9.5 -10.5 q0 -5 -16.5 -29t-48 -59t-70 -68t-89.5 -56t-100 -23q0 -1 -6.5 -1t-17 1t-23.5 4t-25.5 10.5t-23.5 18t-18 28t-7 39.5q0 30 41.5 76.5t101.5 89t134.5 73t132.5 30.5q13 0 34 -9t21 -26q0 -6 -6 -15t-6 -10z" />
<glyph unicode="&#xf4;" horiz-adv-x="966" d="M967 502q0 -69 -11 -125q-4 -21 -18.5 -57t-19.5 -54q-23 -93 -85.5 -159.5t-164.5 -126.5q-10 -6 -37.5 -23.5t-41.5 -26t-36 -21t-40.5 -20t-35.5 -12.5q-4 -1 -14.5 -3.5t-13 -3.5t-9.5 -3t-9.5 -3.5t-8.5 -4.5t-11 -6.5t-12 -8.5q-64 -45 -161 -45q-28 0 -52 10.5 t-39 23.5t-34.5 27t-36.5 19q-27 8 -44.5 28.5t-23 36t-13 52t-9.5 45.5q0 -4 2 -6l-2 24v9q0 8 2 8h2q-10 17 -10 39q0 83 22 114q4 7 21.5 19.5t17.5 17.5t-8 37q0 14 8 26.5t22.5 27t20.5 22.5q12 17 43 69.5t53 79.5q47 55 146 154q9 9 32 33.5t40.5 42t40 37.5t42 30.5 t35.5 10.5q4 0 13 -2.5t14 -2.5q12 0 29.5 26t39.5 26q-1 0 26 -11.5t71.5 -30t81.5 -32.5q37 0 66 -13.5t47 -39.5t30.5 -53.5t19 -67t9 -67.5t4.5 -66zM659 487q4 16 11 23q-6 3 -8.5 10t-3.5 20t-1 15q2 2 2 8q0 1 -10 31l-12 -4q-101 -68 -227 -201q-35 -37 -51 -54 t-50 -57.5t-51 -68.5t-32 -64t-15 -65q0 -21 39 -21q37 -1 81.5 14.5t69.5 30t72 43.5q4 3 38 14t42 27l47 86q18 35 34 112.5t25 100.5zM879 1026q4 -20 4 -27q0 -27 -18 -49t-46 -22q-36 0 -70 39.5t-68.5 99t-51.5 78.5q-15 -18 -44 -53t-54.5 -64.5t-53.5 -58.5 q-1 -2 -7.5 -11.5t-10.5 -15.5t-12 -15.5t-16 -16t-17.5 -13t-21 -9.5t-23.5 -3q-30 0 -59 30t-29 64q0 35 62 124.5t142 167t121 77.5q24 0 45 -15q57 -39 94 -87.5t73 -116.5t61 -103z" />
<glyph unicode="&#xf5;" horiz-adv-x="966" d="M967 502q0 -69 -11 -125q-4 -21 -18.5 -57t-19.5 -54q-23 -93 -85.5 -159.5t-164.5 -126.5q-10 -6 -37.5 -23.5t-41.5 -26t-36 -21t-40.5 -20t-35.5 -12.5q-4 -1 -14.5 -3.5t-13 -3.5t-9.5 -3t-9.5 -3.5t-8.5 -4.5t-11 -6.5t-12 -8.5q-64 -45 -161 -45q-28 0 -52 10.5 t-39 23.5t-34.5 27t-36.5 19q-27 8 -44.5 28.5t-23 36t-13 52t-9.5 45.5q0 -4 2 -6l-2 24v9q0 8 2 8h2q-10 17 -10 39q0 83 22 114q4 7 21.5 19.5t17.5 17.5t-8 37q0 14 8 26.5t22.5 27t20.5 22.5q12 17 43 69.5t53 79.5q47 55 146 154q9 9 32 33.5t40.5 42t40 37.5t42 30.5 t35.5 10.5q4 0 13 -2.5t14 -2.5q12 0 29.5 26t39.5 26q-1 0 26 -11.5t71.5 -30t81.5 -32.5q37 0 66 -13.5t47 -39.5t30.5 -53.5t19 -67t9 -67.5t4.5 -66zM659 487q4 16 11 23q-6 3 -8.5 10t-3.5 20t-1 15q2 2 2 8q0 1 -10 31l-12 -4q-101 -68 -227 -201q-35 -37 -51 -54 t-50 -57.5t-51 -68.5t-32 -64t-15 -65q0 -21 39 -21q37 -1 81.5 14.5t69.5 30t72 43.5q4 3 38 14t42 27l47 86q18 35 34 112.5t25 100.5zM1004 1266l12 -39q-4 -13 -12 -23v-4q-8 -18 -39 -57l-15 -27l-20 -41l2 -12l-29 -45l-24 -21q-23 -17 -31 -22l-2 -2q-33 -15 -94 -15 h-2q-83 6 -158 52l-8 4h2q-1 1 -4 2.5t-8.5 5t-10.5 6.5l-8 4q-4 4 -12 8l-2 2q-16 5 -21 9q0 -1 -1 -5t-1 -8l-2 -8q-19 -53 -74 -53q-12 0 -20 2h-4l-19 4h-12q-15 4 -24.5 13.5t-14 18.5t-14.5 36l2 12q-2 2 -2 12q0 26 8 53l2 5q19 41 39.5 69t35.5 42t35.5 21t31.5 8 t30 1h6l53 -10l23 -11l64 -43l47 -49l8 -22v6q4 -17 10 -23h6q24 8 31 15l78 92q18 21 34 34t28.5 16t21 3.5t16 -2t8.5 -2.5l6 2q7 0 23 -4h6z" />
<glyph unicode="&#xf6;" horiz-adv-x="966" d="M967 502q0 -69 -11 -125q-4 -21 -18.5 -57t-19.5 -54q-23 -93 -85.5 -159.5t-164.5 -126.5q-10 -6 -37.5 -23.5t-41.5 -26t-36 -21t-40.5 -20t-35.5 -12.5q-4 -1 -14.5 -3.5t-13 -3.5t-9.5 -3t-9.5 -3.5t-8.5 -4.5t-11 -6.5t-12 -8.5q-64 -45 -161 -45q-28 0 -52 10.5 t-39 23.5t-34.5 27t-36.5 19q-27 8 -44.5 28.5t-23 36t-13 52t-9.5 45.5q0 -4 2 -6l-2 24v9q0 8 2 8h2q-10 17 -10 39q0 83 22 114q4 7 21.5 19.5t17.5 17.5t-8 37q0 14 8 26.5t22.5 27t20.5 22.5q12 17 43 69.5t53 79.5q47 55 146 154q9 9 32 33.5t40.5 42t40 37.5t42 30.5 t35.5 10.5q4 0 13 -2.5t14 -2.5q12 0 29.5 26t39.5 26q-1 0 26 -11.5t71.5 -30t81.5 -32.5q37 0 66 -13.5t47 -39.5t30.5 -53.5t19 -67t9 -67.5t4.5 -66zM659 487q4 16 11 23q-6 3 -8.5 10t-3.5 20t-1 15q2 2 2 8q0 1 -10 31l-12 -4q-101 -68 -227 -201q-35 -37 -51 -54 t-50 -57.5t-51 -68.5t-32 -64t-15 -65q0 -21 39 -21q37 -1 81.5 14.5t69.5 30t72 43.5q4 3 38 14t42 27l47 86q18 35 34 112.5t25 100.5zM555 1192q40 -17 70 -66t30 -92q0 -18 -4 -33.5t-15.5 -32.5t-36.5 -27.5t-62 -10.5q-22 0 -61.5 15.5t-77.5 53.5t-38 86 q0 53 33 96.5t84 43.5q20 0 43 -15t35 -18zM961 1085q4 -28 4 -34q0 -39 -27.5 -71t-71.5 -32q-68 0 -118 43t-50 103q0 19 10.5 46.5t36.5 53t60 25.5l37 -11h12q29 0 60.5 -41t46.5 -82z" />
<glyph unicode="&#xf7;" horiz-adv-x="0" />
<glyph unicode="&#xf8;" horiz-adv-x="1124" d="M1114 618q2 -11 12 -54.5t13 -67.5q0 -26 -2.5 -50t-9.5 -53t-11 -44t-16 -53.5t-15 -49.5q-21 -61 -77 -117q-49 -66 -150 -123q-10 -6 -38.5 -24.5t-41.5 -26t-37 -18.5t-47 -15t-49 -4q-25 0 -69.5 -10t-67.5 -10q-13 0 -33.5 5t-23.5 5q-4 0 -16.5 -15.5t-18.5 -29.5 q-44 -146 -92 -146q-34 0 -49 22t-15 48l10 121v24q0 8 5.5 23t5.5 18q0 4 -5 9q-113 72 -156.5 173.5t-43.5 227.5q0 42 22.5 115.5t24.5 93.5v-4q7 32 22.5 63.5t39.5 69t34 57.5q97 172 201 240l-2 -2q72 45 124 65.5t120 24.5q22 0 53 -26.5t39 -26.5q3 0 13 6t22 14.5 t18 11.5q19 12 36 39t27.5 50t33.5 41t57 18q37 0 59 -35.5t22 -85.5q0 -43 -30.5 -94t-30.5 -66l4 -37q-2 -4 -2 -16q0 -9 8 -14q19 -10 40.5 -51.5t35.5 -53.5q25 -52 47 -162zM352 152l103 256q114 227 221 452l-12 -2l-46 4q-24 0 -46 -12.5t-35 -27t-30.5 -36.5 t-25.5 -30q-28 -32 -50 -70t-48 -95.5t-37 -78.5q-61 -113 -61 -215t67 -145zM887 399q2 5 6 11.5t6 12t2 11.5v6q10 58 10 92q0 104 -69 199l-103 -194q-11 -22 -47 -79.5t-49 -90.5q-15 -39 -54.5 -127t-56.5 -136q10 3 66 11t90 26q85 44 127.5 103.5t71.5 154.5z" />
<glyph unicode="&#xf9;" horiz-adv-x="788" d="M823 250q11 -33 11 -60q0 -46 -24.5 -78.5t-52.5 -44.5t-52 -12q-34 0 -103 21q-11 3 -21.5 12t-16 16t-15.5 22.5t-12 18.5q-13 -19 -59.5 -97t-78.5 -114q-10 -11 -22.5 -19t-22 -11.5t-28.5 -9.5t-27 -9q-3 -2 -17 -8t-18.5 -8t-15 -6t-19 -5t-18.5 -1q-21 0 -56 7.5 t-51 22.5q-10 7 -18.5 16t-19.5 25t-15 21q-2 2 -23 22t-28.5 29t-21.5 26.5t-19.5 33.5t-5.5 32q0 129 10 177q14 72 57 130q15 20 30 64.5t32 64.5q-2 -2 -4 -2h-2q1 4 9 21.5t21.5 43.5t24.5 44q12 19 35 81t48.5 103t59.5 41q26 0 53 -38.5t27 -80.5q0 -20 -10 -53.5 t-10 -50.5l10 -66q0 -29 -34.5 -108.5t-41.5 -100.5q-9 -25 -33 -73.5t-38.5 -88t-14.5 -71.5q0 -9 7.5 -16t13.5 -7q2 3 8 5q33 16 58.5 35t41 35.5t30 41t21 40.5t18.5 46t19 47q6 15 17.5 46t20.5 54.5t22 54t24.5 52t24.5 41.5t27 30.5t28 10.5q22 0 57.5 -27.5 t49.5 -31.5q-1 0 -4.5 -1.5t-6.5 -2.5h43q16 0 25.5 -45.5t9.5 -63.5q0 -34 -5.5 -70.5t-17 -89.5t-14.5 -71q3 1 16 7.5t21.5 10t21 7t21.5 3.5q4 0 11.5 -3.5t17 -9t14.5 -7.5zM725 946q0 -33 -26.5 -48t-53.5 -15q-46 0 -109.5 30t-115.5 70q-16 13 -52.5 39t-59 44.5 t-49 44.5t-39.5 54.5t-13 59.5q0 42 24.5 58.5t79.5 16.5q37 0 92 -49l138 -121q7 -6 30 -25t35.5 -29.5t34 -29t33.5 -30.5t25.5 -26.5t19.5 -25t6 -18.5z" />
<glyph unicode="&#xfa;" horiz-adv-x="788" d="M823 250q11 -33 11 -60q0 -46 -24.5 -78.5t-52.5 -44.5t-52 -12q-34 0 -103 21q-11 3 -21.5 12t-16 16t-15.5 22.5t-12 18.5q-13 -19 -59.5 -97t-78.5 -114q-10 -11 -22.5 -19t-22 -11.5t-28.5 -9.5t-27 -9q-3 -2 -17 -8t-18.5 -8t-15 -6t-19 -5t-18.5 -1q-21 0 -56 7.5 t-51 22.5q-10 7 -18.5 16t-19.5 25t-15 21q-2 2 -23 22t-28.5 29t-21.5 26.5t-19.5 33.5t-5.5 32q0 129 10 177q14 72 57 130q15 20 30 64.5t32 64.5q-2 -2 -4 -2h-2q1 4 9 21.5t21.5 43.5t24.5 44q12 19 35 81t48.5 103t59.5 41q26 0 53 -38.5t27 -80.5q0 -20 -10 -53.5 t-10 -50.5l10 -66q0 -29 -34.5 -108.5t-41.5 -100.5q-9 -25 -33 -73.5t-38.5 -88t-14.5 -71.5q0 -9 7.5 -16t13.5 -7q2 3 8 5q33 16 58.5 35t41 35.5t30 41t21 40.5t18.5 46t19 47q6 15 17.5 46t20.5 54.5t22 54t24.5 52t24.5 41.5t27 30.5t28 10.5q22 0 57.5 -27.5 t49.5 -31.5q-1 0 -4.5 -1.5t-6.5 -2.5h43q16 0 25.5 -45.5t9.5 -63.5q0 -34 -5.5 -70.5t-17 -89.5t-14.5 -71q3 1 16 7.5t21.5 10t21 7t21.5 3.5q4 0 11.5 -3.5t17 -9t14.5 -7.5zM811 1243l-2 -2q0 2 2 2t4 2q-3 -13 -6 -16v8q-2 -3 -4.5 -11.5t-6.5 -14.5t-10 -9 q-4 0 -4 -6q0 -8 9.5 -16.5t9.5 -10.5q0 -5 -16.5 -29t-48 -59t-70 -68t-89.5 -56t-100 -23q0 -1 -6.5 -1t-17 1t-23.5 4t-25.5 10.5t-23.5 18t-18 28t-7 39.5q0 30 41.5 76.5t101.5 89t134.5 73t132.5 30.5q13 0 34 -9t21 -26q0 -6 -6 -15t-6 -10z" />
<glyph unicode="&#xfb;" horiz-adv-x="788" d="M823 250q11 -33 11 -60q0 -46 -24.5 -78.5t-52.5 -44.5t-52 -12q-34 0 -103 21q-11 3 -21.5 12t-16 16t-15.5 22.5t-12 18.5q-13 -19 -59.5 -97t-78.5 -114q-10 -11 -22.5 -19t-22 -11.5t-28.5 -9.5t-27 -9q-3 -2 -17 -8t-18.5 -8t-15 -6t-19 -5t-18.5 -1q-21 0 -56 7.5 t-51 22.5q-10 7 -18.5 16t-19.5 25t-15 21q-2 2 -23 22t-28.5 29t-21.5 26.5t-19.5 33.5t-5.5 32q0 129 10 177q14 72 57 130q15 20 30 64.5t32 64.5q-2 -2 -4 -2h-2q1 4 9 21.5t21.5 43.5t24.5 44q12 19 35 81t48.5 103t59.5 41q26 0 53 -38.5t27 -80.5q0 -20 -10 -53.5 t-10 -50.5l10 -66q0 -29 -34.5 -108.5t-41.5 -100.5q-9 -25 -33 -73.5t-38.5 -88t-14.5 -71.5q0 -9 7.5 -16t13.5 -7q2 3 8 5q33 16 58.5 35t41 35.5t30 41t21 40.5t18.5 46t19 47q6 15 17.5 46t20.5 54.5t22 54t24.5 52t24.5 41.5t27 30.5t28 10.5q22 0 57.5 -27.5 t49.5 -31.5q-1 0 -4.5 -1.5t-6.5 -2.5h43q16 0 25.5 -45.5t9.5 -63.5q0 -34 -5.5 -70.5t-17 -89.5t-14.5 -71q3 1 16 7.5t21.5 10t21 7t21.5 3.5q4 0 11.5 -3.5t17 -9t14.5 -7.5zM674 1026q4 -20 4 -27q0 -27 -18 -49t-46 -22q-36 0 -70 39.5t-68.5 99t-51.5 78.5 q-15 -18 -44 -53t-54.5 -64.5t-53.5 -58.5q-1 -2 -7.5 -11.5t-10.5 -15.5t-12 -15.5t-16 -16t-17.5 -13t-21 -9.5t-23.5 -3q-30 0 -59 30t-29 64q0 35 62 124.5t142 167t121 77.5q24 0 45 -15q57 -39 94 -87.5t73 -116.5t61 -103z" />
<glyph unicode="&#xfc;" horiz-adv-x="788" d="M823 250q11 -33 11 -60q0 -46 -24.5 -78.5t-52.5 -44.5t-52 -12q-34 0 -103 21q-11 3 -21.5 12t-16 16t-15.5 22.5t-12 18.5q-13 -19 -59.5 -97t-78.5 -114q-10 -11 -22.5 -19t-22 -11.5t-28.5 -9.5t-27 -9q-3 -2 -17 -8t-18.5 -8t-15 -6t-19 -5t-18.5 -1q-21 0 -56 7.5 t-51 22.5q-10 7 -18.5 16t-19.5 25t-15 21q-2 2 -23 22t-28.5 29t-21.5 26.5t-19.5 33.5t-5.5 32q0 129 10 177q14 72 57 130q15 20 30 64.5t32 64.5q-2 -2 -4 -2h-2q1 4 9 21.5t21.5 43.5t24.5 44q12 19 35 81t48.5 103t59.5 41q26 0 53 -38.5t27 -80.5q0 -20 -10 -53.5 t-10 -50.5l10 -66q0 -29 -34.5 -108.5t-41.5 -100.5q-9 -25 -33 -73.5t-38.5 -88t-14.5 -71.5q0 -9 7.5 -16t13.5 -7q2 3 8 5q33 16 58.5 35t41 35.5t30 41t21 40.5t18.5 46t19 47q6 15 17.5 46t20.5 54.5t22 54t24.5 52t24.5 41.5t27 30.5t28 10.5q22 0 57.5 -27.5 t49.5 -31.5q-1 0 -4.5 -1.5t-6.5 -2.5h43q16 0 25.5 -45.5t9.5 -63.5q0 -34 -5.5 -70.5t-17 -89.5t-14.5 -71q3 1 16 7.5t21.5 10t21 7t21.5 3.5q4 0 11.5 -3.5t17 -9t14.5 -7.5zM354 1229q40 -17 70.5 -66t30.5 -92q0 -18 -4.5 -33.5t-16 -32.5t-36.5 -27.5t-62 -10.5 q-15 0 -42.5 10t-58.5 27.5t-53 49t-22 68.5q0 53 32.5 96.5t83.5 43.5q20 0 43 -15t35 -18zM760 1122q4 -28 4 -35q0 -39 -27 -70.5t-71 -31.5q-68 0 -118 42.5t-50 102.5q0 19 10.5 46.5t36 53t59.5 25.5l37 -10h12q29 0 60.5 -41t46.5 -82z" />
<glyph unicode="&#xfd;" horiz-adv-x="980" d="M913 696q2 -3 7.5 -9.5t8.5 -12.5t3 -12q0 -16 -17 -56q-29 -335 -147 -586q-6 -11 -29 -83q-3 -9 -9.5 -24.5t-10.5 -27.5t-4 -20v-15q-2 -21 -12.5 -51t-20.5 -52t-24 -50.5t-17 -34.5q0 -1 -11 -39t-27.5 -78t-41.5 -77q0 2 2 4q-10 -17 -31 -17q-7 0 -16 6v-12 q0 -13 -7 -22t-7 -11v-10q0 -17 -10.5 -26.5t-23.5 -13.5t-27 -17t-19 -35h4q23 0 29 20q-6 -24 -34 -64t-28 -46q0 -3 2.5 -10.5l3.5 -10.5q0 -13 -10 -35t-12 -30q-6 -38 -20 -49t-66 -11q-56 0 -91.5 30.5t-41.5 84.5q0 19 4 45.5t8 45.5t12 53t11 47q0 1 6.5 21.5 t14.5 43t19.5 51t23 50.5t25.5 37.5t27 15.5q20 0 73 133.5t83 232.5q1 3 11 44t20 57q4 12 17 19.5t13 19.5q0 22 -2 28q0 5 6 13t7 10q-106 -99 -158 -134q-91 -61 -168 -61q-14 0 -16 2q-2 0 -24 15.5t-54.5 44t-64 63.5t-53.5 80.5t-22 87.5l19 72l-2 37q0 18 6 30 q8 14 14.5 23t9.5 11t5 4.5t2 6.5q0 57 106 187q0 -2 -2 -4q35 55 85 96t104 41q43 0 75.5 -32t36.5 -79q0 -25 -13.5 -49t-30 -39t-32 -34t-18.5 -35q-7 -34 -64 -151t-57 -153q65 19 182 117q20 13 43.5 44t42.5 44q52 39 140 166q14 21 25 64t22 61q28 53 119 53 q14 0 31.5 -5t29 -10t31 -15t26.5 -13zM897 1243l-2 -2q0 2 2 2t4 2q-3 -13 -6 -16v8q-2 -3 -4.5 -11.5t-6.5 -14.5t-10 -9q-4 0 -4 -6q0 -8 9.5 -16.5t9.5 -10.5q0 -5 -16.5 -29t-48 -59t-70 -68t-89.5 -56t-100 -23q0 -1 -6.5 -1t-17 1t-23.5 4t-25.5 10.5t-23.5 18 t-18 28t-7 39.5q0 30 41.5 76.5t101.5 89t134.5 73t132.5 30.5q13 0 34 -9t21 -26q0 -6 -6 -15t-6 -10z" />
<glyph unicode="&#xfe;" horiz-adv-x="802" d="M739 639q4 -28 4 -43q0 -55 -22 -180q-17 -46 -35.5 -80.5t-47.5 -68t-71 -51t-96 -17.5q-40 0 -76.5 11.5t-60 25t-62.5 40.5q-1 -4 -6 -45t-12.5 -73t-17.5 -49q-16 -26 -24.5 -63.5t-14.5 -84.5t-11 -70q-2 -7 -5.5 -29.5t-8 -43.5t-13 -43t-24.5 -35.5t-37 -13.5 q-20 0 -34.5 10.5t-22.5 28.5t-13.5 41t-7 48.5t-2.5 51.5t0 50v21q0 294 72 582q4 16 12 47q39 153 61.5 235.5t64.5 209t87 229.5q4 9 19 44.5t23 52t23.5 48t28.5 48.5t30.5 36.5t36.5 28t40 8.5q44 0 68 -37t24 -84q0 -26 -9 -60.5t-24 -76.5t-20 -61q12 0 35 -11.5 t28 -19.5q25 -51 46 -124.5t29 -114.5t25.5 -154t20.5 -133l-2 -21q0 -8 2 -10zM471 543v65q0 22 -6 75t-6 81l2 20q0 18 -2.5 38t-7.5 46t-7 37l-2 -12l-123 -428q-4 -7 -4 -31q0 -18 26 -35.5t56 -17.5q56 0 74 162z" />
<glyph unicode="&#xff;" horiz-adv-x="802" d="M350 1100h4l17 -6l18 -9l17 2l-3 -14l21 -8l29 -27l12 -14l29 -68l2 -14v-24l-15 -25l-14 -16l-2 -5l-31 -4l-35 -4l-37 15l-16 8l-4 4l-49 35l-23 20l-4 10v27l-4 23l4 26l17 33l36 29zM668 1096l45 -15l18 4l25 -30l28 -25l19 -49v-55l-27 -29l-10 -6l-21 -6l-53 8 l-41 20l-43 39l-2 31l-8 12l23 70l20 14l21 6zM913 696q2 -3 7.5 -9.5t8.5 -12.5t3 -12q0 -16 -17 -56q-29 -335 -147 -586q-6 -11 -29 -83q-3 -9 -9.5 -24.5t-10.5 -27.5t-4 -20v-15q-2 -21 -12.5 -51t-20.5 -52t-24 -50.5t-17 -34.5q0 -1 -11 -39t-27.5 -78t-41.5 -77 q0 2 2 4q-10 -17 -31 -17q-7 0 -16 6v-12q0 -13 -7 -22t-7 -11v-10q0 -17 -10.5 -26.5t-23.5 -13.5t-27 -17t-19 -35h4q23 0 29 20q-6 -24 -34 -64t-28 -46q0 -3 2.5 -10.5l3.5 -10.5q0 -13 -10 -35t-12 -30q-6 -38 -20 -49t-66 -11q-56 0 -91.5 30.5t-41.5 84.5 q0 19 4 45.5t8 45.5t12 53t11 47q0 1 6.5 21.5t14.5 43t19.5 51t23 50.5t25.5 37.5t27 15.5q20 0 73 133.5t83 232.5q1 3 11 44t20 57q4 12 17 19.5t13 19.5q0 22 -2 28q0 5 6 13t7 10q-106 -99 -158 -134q-91 -61 -168 -61q-14 0 -16 2q-2 0 -24 15.5t-54.5 44t-64 63.5 t-53.5 80.5t-22 87.5l19 72l-2 37q0 18 6 30q8 14 14.5 23t9.5 11t5 4.5t2 6.5q0 57 106 187q0 -2 -2 -4q35 55 85 96t104 41q43 0 75.5 -32t36.5 -79q0 -25 -13.5 -49t-30 -39t-32 -34t-18.5 -35q-7 -34 -64 -151t-57 -153q65 19 182 117q20 13 43.5 44t42.5 44 q52 39 140 166q14 21 25 64t22 61q28 53 119 53q14 0 31.5 -5t29 -10t31 -15t26.5 -13z" />
<glyph unicode="&#x152;" horiz-adv-x="1662" d="M1958 1028l8 -22v-13l-8 -22q-25 -25 -80 -35t-106 -10q-8 -8 -31 -16.5t-25 -10.5h-8q-16 0 -16 -2l-54 -14l-20 -6h-2q-2 0 -4 2q-16 -9 -72 -9h-2h-6q-2 0 -26.5 -6t-32.5 -6q-19 0 -21 2q-19 -12 -113 -82l-3 -2q-4 -1 -9.5 -4.5t-13 -8.5t-15.5 -13.5t-17 -18.5 t-18 -25t-17.5 -32.5t-16 -40.5t-12.5 -49h24q8 0 10 2l86 4q17 0 23 -2q6 0 28 1t39 1h7q16 -6 73 -6q3 0 7.5 1t11 2.5t10.5 2.5l18 4h7h9.5h9.5t8.5 -0.5t9 -2l7.5 -4.5t7 -7t5.5 -10.5t5 -14.5t2.5 -19t1 -24l-14 -27l-29 -16q0 -1 -1 -1t-3.5 -1t-5.5 -4l-17 -8 q-6 1 -25 -6.5t-26 -12.5q-8 0 -13 -3t-12.5 -8t-46.5 -15t-106 -21q-14 -14 -59.5 -17t-59.5 -12q-3 -6 -10 -6h-14q-11 0 -15 -4l-14 -10q-3 -1 -4.5 -19t-5.5 -18l-15 -78q1 -57 18 -74.5t58 -19.5l29 -29v-4h22q73 0 175 31l75 21l17 -9q12 -6 18 -12h2q6 -10 6 -23 l-2 -10v-4q-5 -43 -8 -43q-1 0 -2 2v-2l-2 -4q0 -14 -16 -43v-2q-11 -25 -39 -68h-2q-60 -32 -94 -41t-111 -14h-2q-3 1 -8 0.5t-13.5 -1.5t-11.5 -1q-7 0 -45 6q-8 1 -21.5 2t-17.5 1.5t-14 2.5t-16 4.5t-18 8t-25 13t-33 19.5l-9 7q2 3 -1 5.5t-10.5 8t-17 15t-23 32.5 t-27.5 55q-17 -19 -115 -90l-8 -4q-5 -2 -26.5 -17.5t-69 -32.5t-140.5 -36h-6q-9 3 -25 -1.5t-20 -4.5q-170 0 -322 106l-2 2q-24 17 -37 28t-35.5 39t-48.5 69l-6 14q-33 94 -49 168h2l-2 6v2q0 1 5 42t5 89v8l23 80q20 67 74 160l8 16q93 155 190 254l11 9l14 14h2 q12 11 24 19.5t27 15t24.5 10t28.5 9.5t27 9l16 4q2 0 10 3.5t36 13.5t71 22q5 4 8 5.5t4.5 1.5t6 -0.5t8.5 -0.5l2 3l-2 -3l14 5q3 0 20 -3.5t33 -3.5l19 -6l10 -8q21 -12 49 -37q10 -7 36.5 -40t53.5 -52l13 -12q16 -20 20 -21l8 -4l35 -37l12 -20q0 -2 1 1q0 1 1 3 q34 90 119 152q-2 8 -2 24l14 25q49 34 84 34l27 -2h6q4 0 6 -2q11 -4 13 -2h4q2 -2 12 -2h4q9 0 47.5 3t69.5 3h76q-3 -3 38 -4h136h6q4 -2 18 -2q6 2 49 2q55 -5 97 -11t65.5 -13t37 -12t22.5 -11t10 -6zM872 399l2 9q13 47 13 77q0 109 -39.5 185t-159.5 157 q-24 -12 -51 -12q-34 7 -55.5 -2.5t-59.5 -46.5l-33 -31q-29 -13 -114 -174q-15 -25 -31 -57.5t-36.5 -94t-20.5 -108.5q0 -23 -2 -29q0 -33 8 -51q10 -21 39 -63q46 -60 188 -60l25 2q41 4 63 9h2l6 1q7 2 19.5 6t28 10.5t35 18.5t38 27.5t38.5 40t36 53.5l4 6v-2 q18 18 57 129z" />
<glyph unicode="&#x153;" horiz-adv-x="1605" d="M1487 197q18 0 30.5 -12.5t12.5 -32.5q0 -44 -43.5 -101.5t-108.5 -106t-147 -82.5t-152 -34q-79 0 -164.5 64.5t-148.5 156.5q-99 -74 -274 -160q-10 -5 -41.5 -14.5t-51.5 -24.5q-62 -49 -166 -49q-36 0 -63 14.5t-52.5 36t-45.5 29.5q-22 5 -37 17t-24 31t-13.5 35.5 t-9.5 41t-8 35.5q0 -2 4 -6l-4 33q0 6 6 12q-13 16 -13 31q0 25 4 62t11 46l28 29q1 1 21 16q0 8 -4 24t-4 23q0 20 14 31q17 14 33.5 35t26 36t26.5 44.5t23 40.5q37 56 106 125q14 14 47.5 49t56.5 58.5t53 50.5t54 41t41 14l25 -2q12 0 32.5 25.5t40.5 25.5q16 0 41 -25 q15 -13 58.5 -24t52.5 -15q14 -6 55 -17.5t65 -29t42 -53.5q39 46 104 84q15 8 40 34.5t40 26.5q11 0 36 -14t66 -27.5t92 -13.5q77 -8 162.5 -83t85.5 -159q0 -59 -26 -109t-68.5 -83.5t-97 -57.5t-110 -34.5t-109.5 -10.5q-76 0 -127 13q-4 1 -17.5 6.5t-19.5 5.5 q-4 0 -19 -24.5t-29 -59t-14 -55.5q0 -17 3.5 -30t14.5 -23.5t17 -16t25.5 -12.5t25 -8.5t29.5 -8.5q9 -2 33 -16t51 -14q91 0 211 67q16 10 54.5 38.5t66.5 44.5t45 16zM1159 600q-26 -15 -48 -32.5t-45 -43.5t-34 -40t-37.5 -51t-33.5 -46q28 -12 43 -12q8 0 46 19t84 49 t82.5 75t36.5 88q0 10 -10.5 19.5t-21.5 9.5q-10 0 -21 -6t-23 -16t-18 -13zM242 188l2 2q-2 0 -2 -2zM655 489q1 3 4 9.5t3 9.5q0 2 -4.5 16.5t-4.5 22.5l2 16q0 7 -5 20t-9 13q-93 -48 -244 -213q-77 -81 -126 -151t-64 -148q4 -16 12.5 -20.5t22.5 -4.5q42 0 80 14.5 t86 43t67 37.5q3 2 34.5 12.5t39.5 26.5q15 25 41 71q18 37 37 119.5t28 105.5z" />
<glyph unicode="&#x178;" horiz-adv-x="839" d="M1065 1323v-12q0 -24 -27 -68q-58 -99 -214.5 -330.5t-227.5 -361.5v2q-4 -11 -21 -36t-20 -42q-31 -219 -47 -299v-22q0 -53 -14 -121.5t-37 -116.5q-6 -15 -21.5 -24t-28 -11.5t-38 -4.5t-33.5 -3q-36 0 -61 18t-38 51.5t-18.5 73.5t-5.5 93q0 79 29.5 215t29.5 202 q-1 8 -7.5 19.5t-14 21t-21 26t-20.5 25.5q-74 93 -108.5 172.5t-34.5 163.5q0 35 27 69t67 34q8 0 14 -4t8 -4q4 0 10 2t7 2q37 0 122 -95.5t138 -214.5q24 48 63 103t61 81.5t79 92.5q14 16 69.5 84.5t97 110t89.5 69.5q22 9 38 21q3 2 16.5 14t25.5 19.5t22 7.5 q7 0 45 -23zM702 1513q-16 16 -22.5 23t-12 20t-5.5 29v10q-5 10 -5 17q0 31 33.5 81t81.5 50q4 0 19 -5t20 -5h8q33 0 64.5 -45.5t31.5 -94.5q0 -59 -29 -88.5t-71 -29.5q-73 0 -113 38zM393 1468q-45 19 -75.5 51.5t-30.5 71.5q0 63 38 110.5t97 47.5q18 0 43.5 -16 t36.5 -21q32 -23 52.5 -68t20.5 -88q0 -8 -1 -15t-4.5 -14.5t-5 -11.5t-7.5 -11.5t-7.5 -9.5t-10 -11t-9.5 -10v4q-36 -25 -71 -25q-29 0 -66 16z" />
<glyph unicode="&#x2c6;" horiz-adv-x="796" d="M696 1485l6 -19q0 -14 -14 -53l-14 -14q-17 -10 -35 -10q-32 0 -49 10l-6 4q-21 21 -92 133l-43 66l-3 2l-77 -88q-20 -27 -70 -84l-16 -19q-21 -15 -21 -29l-16 -20q-35 -21 -56 -21h-4q-35 6 -52 22.5t-34 61.5l-2 11q4 41 47 96l50 63q52 68 112 134l4 4q15 11 31 30 l4 2q2 1 22 16t29 21l13 2q41 0 67 -20l25 -14q8 -8 24.5 -21t22.5 -18l8 -9q2 -3 6 -7.5t7.5 -9.5t7.5 -11l71 -142q12 -22 29 -43l2 -6v2z" />
<glyph unicode="&#x2dc;" horiz-adv-x="890" d="M823 1665v-4q0 -12 -12 -34.5t-38.5 -64t-33.5 -53.5q0 -10 2 -12q-53 -104 -180 -104q-32 2 -65.5 12.5t-53 19.5t-59.5 31t-53 29q-19 -74 -84 -74q-44 0 -74.5 23t-30.5 73q0 62 51 131.5t130 69.5q50 0 119 -41t85 -94v6q12 -21 19 -23q18 0 33 21q23 24 52 58.5 t41 45.5t33.5 21t51.5 10q35 0 45 -7t22 -40z" />
<glyph unicode="&#x2000;" horiz-adv-x="903" />
<glyph unicode="&#x2001;" horiz-adv-x="1806" />
<glyph unicode="&#x2002;" horiz-adv-x="903" />
<glyph unicode="&#x2003;" horiz-adv-x="1806" />
<glyph unicode="&#x2004;" horiz-adv-x="602" />
<glyph unicode="&#x2005;" horiz-adv-x="451" />
<glyph unicode="&#x2006;" horiz-adv-x="301" />
<glyph unicode="&#x2007;" horiz-adv-x="301" />
<glyph unicode="&#x2008;" horiz-adv-x="225" />
<glyph unicode="&#x2009;" horiz-adv-x="361" />
<glyph unicode="&#x200a;" horiz-adv-x="100" />
<glyph unicode="&#x2010;" horiz-adv-x="849" d="M782 487q17 -21 17 -34q0 -11 -8 -18.5t-23 -15t-20 -11.5q2 3 -2 -1q-75 -70 -136 -92q-34 -12 -65 -12q-3 0 -6 1t-4 1q-5 0 -7 -2q-105 -55 -200 -55h-39q-25 0 -35 -2l-74 8q-6 0 -23 -3t-26 -3q-27 0 -51.5 33t-24.5 59v12l-2 27q0 10 2 12q13 26 27 42t33.5 23.5 t32.5 10t41 4.5t42 4q224 33 455 33q61 0 96 -21z" />
<glyph unicode="&#x2011;" horiz-adv-x="849" d="M782 487q17 -21 17 -34q0 -11 -8 -18.5t-23 -15t-20 -11.5q2 3 -2 -1q-75 -70 -136 -92q-34 -12 -65 -12q-3 0 -6 1t-4 1q-5 0 -7 -2q-105 -55 -200 -55h-39q-25 0 -35 -2l-74 8q-6 0 -23 -3t-26 -3q-27 0 -51.5 33t-24.5 59v12l-2 27q0 10 2 12q13 26 27 42t33.5 23.5 t32.5 10t41 4.5t42 4q224 33 455 33q61 0 96 -21z" />
<glyph unicode="&#x2012;" horiz-adv-x="849" d="M782 487q17 -21 17 -34q0 -11 -8 -18.5t-23 -15t-20 -11.5q2 3 -2 -1q-75 -70 -136 -92q-34 -12 -65 -12q-3 0 -6 1t-4 1q-5 0 -7 -2q-105 -55 -200 -55h-39q-25 0 -35 -2l-74 8q-6 0 -23 -3t-26 -3q-27 0 -51.5 33t-24.5 59v12l-2 27q0 10 2 12q13 26 27 42t33.5 23.5 t32.5 10t41 4.5t42 4q224 33 455 33q61 0 96 -21z" />
<glyph unicode="&#x2013;" horiz-adv-x="1075" d="M1010 500q16 -16 16 -31q0 -6 -13 -21t-20 -16q-21 -7 -67 -44t-84 -48q-23 -7 -67.5 -30t-74.5 -31q-194 -56 -342 -56h-63h-33q-15 0 -30 4t-35.5 12t-28.5 11q-28 -4 -31 -4q-21 0 -52.5 29t-31.5 53q7 82 31 107.5t98 33.5q319 49 637 49h119q46 0 72 -18z" />
<glyph unicode="&#x2014;" horiz-adv-x="2211" d="M2154 492q1 -3 2 -7t2 -6.5t1 -3.5q0 -23 -27 -39t-57 -22q-1 0 -25 -11.5t-39 -11.5h-18q-21 0 -40 -15.5t-46 -15.5h-31l-109 -20q-7 0 -17 1t-15 1l-11 -6q-91 0 -421 -19q-23 0 -80 -10t-88 -10h-31q-26 0 -72 -10.5t-59 -10.5h-19q-27 0 -118 -14q-33 -3 -93 -13 t-88 -13q-67 -7 -284 -7q-34 0 -92.5 7.5t-77.5 7.5q-27 -17 -41 -17q-39 0 -74 33t-35 80q0 29 10 49.5t37 50.5q15 20 137.5 44t202.5 24h29q79 0 180 16q134 21 346 21q9 0 37 -4q196 6 393 6q283 0 578 -15q113 0 153 -40z" />
<glyph unicode="&#x2018;" horiz-adv-x="528" d="M637 1346q0 -41 -16.5 -71t-39 -46.5t-58.5 -47t-62 -63.5q24 -6 36.5 -25.5t12.5 -45.5q0 -49 -44.5 -95t-97 -70t-85.5 -24q-53 0 -85 51.5t-32 116.5q0 145 168 293q4 4 21.5 19t22.5 19.5t21 16.5t24 16.5t24 12.5t28.5 11t29 6t34.5 3q13 0 26.5 -2t31.5 -9t29 -24 t11 -42z" />
<glyph unicode="&#x2019;" horiz-adv-x="346" d="M551 1237q0 -7 1 -19t1 -16q-2 -39 -23.5 -94t-52.5 -96q-13 -15 -39 -35t-35 -29q-85 -80 -145 -80l-18 2h-9q-17 0 -34 16.5t-17 33.5q0 5 6 14q4 4 31.5 48.5t57.5 109.5t30 102q0 7 -21.5 31.5t-21.5 42.5q0 57 66 104l4 2q47 25 82 25q30 0 53 -11t35.5 -23.5 t23.5 -39.5t14.5 -41.5t10.5 -46.5z" />
<glyph unicode="&#x201a;" horiz-adv-x="858" d="M971 -115q-4 -4 -4 -10l4 -18l-3 -3q-2 -3 -7 -8.5t-10 -10.5t-11.5 -9t-11.5 -4q-14 -1 -29.5 2t-38.5 11.5t-33 12.5t-41 18.5t-34 16.5q-9 4 -47 21.5t-50.5 23t-48 22t-51.5 24.5t-48.5 24t-51.5 26t-48 25.5t-50.5 28.5t-46.5 28.5t-48 30.5q-8 -19 -18.5 -54 t-16.5 -52q-5 -14 -14 -78t-35 -100q-3 -4 -15.5 -7t-15.5 -8q-16 -22 -26.5 -26.5t-36.5 -4.5q-35 0 -66.5 33.5t-31.5 69.5q0 18 13.5 72t16.5 71q15 44 40 136.5t36 129.5q8 37 31.5 112.5t81.5 217.5t127 266q53 102 98 172q1 1 19 29.5t27.5 41.5t27.5 35t34 32t31 10 q30 0 50 -30t20 -72q0 -45 -27 -97q-22 -40 -45 -89t-37.5 -83.5t-40 -95.5t-36.5 -88q101 49 139 49q47 0 85 -28.5t38 -79.5q0 -48 -23 -81.5t-45 -45.5q-130 -97 -266 -172q245 -144 358 -222l135 -102q2 -1 18 -12.5t19 -14t16 -13t17 -16t11.5 -16t10.5 -20.5t5 -21z " />
<glyph unicode="&#x201c;" horiz-adv-x="886" d="M594 1266q-21 -14 -38 -30.5t-41 -45t-30 -35.5q-10 -10 -39.5 -47.5t-29.5 -46.5q0 -5 15 -30t15 -40q0 -62 -56.5 -95.5t-115.5 -33.5q-81 0 -81 113q0 87 43 158q17 35 48.5 77.5t71.5 83.5t89 68t92 27q38 0 56.5 -21.5t18.5 -48.5q0 -39 -18 -53zM1001 1364 q3 -9 3 -25q0 -36 -19.5 -68t-44.5 -52t-59 -48.5t-52 -52.5q23 -6 37.5 -27.5t14.5 -46.5q-1 -29 -25.5 -62t-52.5 -52q-3 -2 -28.5 -24t-56.5 -35t-73 -13q-51 0 -82 56t-31 114q0 141 179 299q30 27 42.5 37t39 28t53 24.5t57.5 6.5q44 0 64 -14.5t34 -44.5z" />
<glyph unicode="&#x201d;" horiz-adv-x="679" d="M367 1305q22 -33 28 -67.5t6 -86.5q0 -51 -40.5 -123t-102.5 -94l-39 8l21 -12h-15t-18 -4q-3 -1 -21 -15t-39 -18q-6 -2 -31.5 -18.5t-52.5 -16.5q-6 0 -22 19.5t-16 25.5q0 29 34 77.5t39 61.5q6 16 20 45t23 51t9 33q0 19 -33 19q-49 0 -49 59q0 66 36 94.5t91 28.5 q60 0 102.5 -13.5t69.5 -53.5zM709 1249q2 -6 2 -30q0 -13 -1 -25.5t-4 -26.5t-5 -22.5t-8 -24.5t-7.5 -21.5t-10.5 -23.5t-10 -20.5t-11 -23.5l-11 -21q-9 -14 -46 -56t-69 -63q-33 -21 -65 -25l-12 4q-6 -2 -21 -2q-5 0 -19 14.5t-14 24.5l2 8q42 163 60 289q0 2 -8.5 8.5 t-18 14.5t-18 24.5t-8.5 36.5q0 29 20 58v-5q7 26 37.5 46t54 27t29.5 7q13 0 45 -4h-2q83 -18 119 -168z" />
<glyph unicode="&#x201e;" horiz-adv-x="862" d="M348 221q49 -3 82 -35.5t46 -75t13 -90.5q0 -53 -22 -108q-8 -19 -23 -43.5t-45.5 -53t-60.5 -28.5h-12h-2q0 -2 4 -6q-23 -3 -49 -18.5t-39 -18.5q-10 -2 -34.5 -17.5t-53.5 -15.5q-12 6 -21 15q-18 15 -18 24q9 43 38 87.5t33 53.5q42 109 58 138q0 3 -22 6.5t-44 19.5 t-22 49q0 54 35.5 87.5t89.5 33.5q19 0 69 -4zM807 98l2 -24q-2 -57 -22 -117.5t-50 -95.5l-24 -27q-19 -35 -64 -65q-3 -2 -24 -25t-35 -23l-31 -4l-12 4q-6 -2 -21 -2q-5 0 -18.5 16t-13.5 27l32 115q14 51 31 178q-55 25 -55 80q0 19 18 60v-9q9 33 35 43l23 11 q19 19 33.5 25.5t37.5 6.5q124 0 158 -174zM522 197l-2 -2z" />
<glyph unicode="&#x2022;" horiz-adv-x="716" d="M631 473l6 -24l-12 -9l2 -10l-15 -33l-39 -24l-41 -15l-18 -34l-31 -17l-51 6l-22 2l-74 33l-78 62l-22 34l-13 2l-24 35l-9 15l-4 24l-61 43l-12 39l8 16l4 29l10 17l21 71l-9 39l25 37l14 2l27 45l47 39l35 4l76 -37l14 19l31 6l28 -31l29 -18l8 -19l19 2l18 -18 l27 -62l8 5l12 -5l19 -16l6 -18l31 -47l6 -23l-4 -16l6 -25l-6 -12l14 -60z" />
<glyph unicode="&#x2026;" horiz-adv-x="1515" d="M389 152q14 -82 14 -101q0 -29 -12 -47q-70 -70 -115 -70q-27 0 -64 11t-74 38t-46 62v-18q-9 5 -38 40.5t-29 51.5q0 48 24 63q-4 12 -4 13q0 -6 5 5q41 85 104 85q8 0 26 -9.5t25 -9.5q4 0 26 13q4 0 8 -3t8 -7.5t7 -6.5q21 0 39 -12.5t24 -21.5t15 -25q0 -2 12.5 -8.5 t26.5 -17.5t18 -25zM1245 147q10 -45 10 -77l-2 -29v-4q0 -30 -43.5 -65t-81.5 -35q-55 0 -107 30.5t-79 75.5q2 -2 2 -14q-10 14 -12 22q-3 6 -18.5 14t-27.5 19.5t-12 30.5q0 6 13 28l-2 4q0 15 12 31l6 4q0 4 -2 11t-2 8l2 2l14 26q6 9 13 9q4 1 15.5 14t27.5 24t33 11 l55 -21q3 0 13 6.5t18 6.5q-6 0 5 -5q43 -20 47 -25q1 -1 1 -3v-4q0 12 19 -5q17 -16 26 -36q15 -6 24 -15q23 -13 33 -39zM823 125l-4 -14q0 -8 6 -23.5t6 -42.5q0 -10 -3 -18t-8 -16.5t-7 -14.5q0 2 -13.5 -11t-40.5 -29.5t-54 -16.5q-59 0 -112 30.5t-77 75.5q2 -4 2 -16 q-4 12 -20 23.5t-29.5 26.5t-13.5 38l22 67l-2 11l3 9q4 8 11 21.5t18 27t30.5 23t42.5 9.5q4 0 20 -4l39 -17q4 7 7 10t5 3.5t11 1.5q-1 0 3.5 -2l13.5 -6t19 -8.5t21.5 -11.5t19.5 -13q19 -27 25 -37q9 0 27 -11q31 -22 32 -65z" />
<glyph unicode="&#x202f;" horiz-adv-x="361" />
<glyph unicode="&#x2039;" horiz-adv-x="786" d="M338 -20h2h-2zM446 496q-3 -9 -72 -70t-69 -68q0 -6 8 -14q22 -28 54 -57t57.5 -47.5t68 -49t62.5 -45.5q51 -42 97 -92.5t46 -75.5q0 -12 -13.5 -26t-23 -19.5t-30.5 -17.5q6 0 8 2q-48 -27 -72 -27l-92 33l-15 6q-102 34 -122 54v-2q-90 48 -143 92q-181 134 -181 270 q0 52 17 99.5t39.5 81t64 71.5t71 59.5t81 57t75.5 53.5q22 17 65.5 46t61.5 42q11 7 59.5 41.5t80.5 49.5t63 15q37 0 61 -16t36.5 -34.5t17.5 -20.5q8 -19 8 -41q0 -23 -18 -44.5t-41 -35.5t-48 -34t-34 -38q-11 -22 -43.5 -46.5t-66 -44t-68.5 -48.5t-50 -59z" />
<glyph unicode="&#x203a;" horiz-adv-x="931" d="M909 442l-2 -18q0 -4 3 -17t3 -20q0 -28 -12 -90q0 -15 -14.5 -25t-30.5 -21.5t-18 -27.5q-2 2 -9 2t-37 -22.5t-40 -22.5q-6 0 -9 8q-11 -8 -35 -26l-36 -27q-7 -4 -60 -12.5t-82 -28.5q-11 -9 -77.5 -18.5t-77.5 -12.5q-24 -18 -41 -18l-10 6q-14 0 -54 -28.5 t-63 -28.5l-8 8q-3 0 -8 -3.5t-7 -4.5q-117 -62 -149 -62q-10 0 -10 13q0 123 61 168q87 63 267 132.5t247 114.5l-74 58q-24 18 -57 50t-74.5 82t-69.5 112.5t-28 119.5q0 30 14 54t30 37.5t52 37.5q19 -4 31 -4q4 0 8 -4q36 -31 148 -102l114 -74q66 -49 107 -90 q108 -108 108 -195z" />
<glyph unicode="&#x205f;" horiz-adv-x="451" />
<glyph unicode="&#x20ac;" horiz-adv-x="872" d="M977 969q6 -48 6 -54q0 -39 -29.5 -60t-68.5 -21q-82 0 -82 90q0 17 4 49q-39 -6 -82.5 -33.5t-88.5 -75t-77 -85.5t-74 -93l154 4q133 0 133 -51q0 -9 -9 -22t-38 -35t-74 -45q-1 -1 -11 -9.5t-23.5 -18t-32 -19.5t-44 -16.5t-53.5 -6.5l-18 4q-5 0 -25 -14.5t-32 -18.5 q-12 -7 -43 -10t-43 -10q-60 -131 -60 -230q0 -45 25 -68.5t90 -23.5q90 0 225.5 46t229.5 108q33 26 61 26q9 0 16 -2.5t12 -7t9 -9.5t6 -13t3.5 -13.5t2 -15t0.5 -14v-13.5v-10q0 -78 -61 -110q-101 -54 -146 -77t-135 -64t-158.5 -59t-126.5 -18q-82 0 -147 54 q-13 6 -48 62t-67 129.5t-32 115.5q0 123 18 197q-6 -1 -16 -3t-13 -2q-36 0 -65 36t-29 100q0 37 20 62t51 34.5t61.5 14t57.5 6.5t33 6l133 172q17 31 66 84t66 77q30 44 120.5 119.5t98.5 83.5q18 18 70 30.5t73 12.5q7 0 13.5 -1t14 -4t13 -4.5t14 -7t12.5 -7.5t13 -9 t11.5 -8.5t12.5 -9t11 -8.5q73 -57 92 -213z" />
<glyph unicode="&#x2122;" horiz-adv-x="1243" d="M1124 1307q43 -30 43 -115q0 -65 -10 -109q-4 -18 -17.5 -119.5t-31.5 -146.5q1 2 3.5 6.5t2.5 7.5q-1 -19 -8.5 -62.5t-7.5 -68.5v7q-6 0 -6 -35q6 6 6 16q0 -56 -27 -88q0 2 2 4q-8 -10 -16.5 -41t-20.5 -43q0 1 0.5 2.5l1.5 4.5t2 5l-26 -26q8 0 10 2q-2 -2 -8 -2 q-49 0 -49 106q0 -4 2 -6l-4 99l2 145q0 39 -4 133q-13 -21 -32.5 -63.5t-33.5 -70.5t-38.5 -51.5t-53.5 -23.5q-13 0 -36.5 12t-29.5 23h2q-48 12 -77 84q-15 -36 -35 -134t-43 -162.5t-56 -64.5q-16 0 -30 13.5t-21 29.5l2 -6q-16 46 -16 74q0 73 34.5 227.5t80.5 253.5 l-74 -6l-19 2q-12 0 -31.5 -75t-43 -184.5t-35.5 -149.5q-5 -14 -7.5 -38.5t-5 -41t-14.5 -33.5t-35 -25q2 2 7 2q-10 -10 -25 -10q-49 0 -49 68q0 184 53 422q14 33 14 53q0 10 -18 10h-16q-185 0 -185 84q0 60 150 60l94 -7q46 5 188 5l84 -3q32 0 67 -19.5t40 -20.5 q27 0 47 -19t29 -48t12.5 -54t3.5 -47l-2 -72q54 97 109 186q4 5 14 21t15 24.5t15.5 24t17.5 24.5t17 21.5t18.5 20t18 14.5t19 10.5t18.5 3.5q21 0 53 -20z" />
<glyph unicode="&#x25fc;" horiz-adv-x="880" d="M0 881h881v-881h-881v881z" />
<glyph unicode="&#xfb01;" horiz-adv-x="1093" d="M1227 1065v-6q0 -43 -55 -99.5t-103 -56.5q-37 0 -68 49t-44 100.5t-13 80.5q0 3 6 31.5t6 37.5l-2 4v2q-12 -8 -45 -57t-57 -90q0 -3 1 -5t1 -3q0 -13 -25.5 -36.5t-25.5 -29.5q0 -26 -10.5 -44t-23.5 -24.5t-23.5 -15t-10.5 -16.5q0 -3 3 -10t3 -13q0 -16 -28.5 -47.5 t-28.5 -44.5q0 -2 5 -10t5 -14q0 -12 -13 -24.5t-26 -18.5q-3 -2 -10 -18.5t-18 -40.5t-23 -38q-4 -6 -8 -23t-12 -26q-6 -9 -23 -31t-26 -36q3 -3 12 -3q18 0 46.5 24t35.5 28q94 63 102 92q0 -10 2 -12q6 6 16.5 18t17 19.5t9.5 7.5q38 -32 53 -58t15 -61v-12 q0 -16 26 -29.5t57 -23t57 -29.5t26 -47q0 -16 -2.5 -32t-5 -28t-10 -28.5t-11 -24.5t-15.5 -27.5t-15.5 -25t-19.5 -28.5t-20 -28q-42 -154 -114 -299q-4 -8 -18 -39t-27 -44t-35 -13q-34 0 -68.5 37.5t-55 80t-34.5 85.5q-5 12 -18 37t-20 44.5t-7 37.5q0 32 33.5 95 t40.5 95q-4 12 -4 27q-18 -8 -48 -25t-40 -22q-6 -4 -21.5 -12t-21.5 -12.5t-16 -13.5t-16 -22t-11 -31q-4 -15 -18 -36t-17 -37q-7 -33 -42.5 -95t-35.5 -90l6 -22q0 -33 -41.5 -124.5t-50.5 -125.5q-11 -36 -18 -56t-14 -34t-10.5 -19t-14.5 -17.5t-19 -22.5 q-17 -21 -28.5 -44.5t-16 -36.5t-15.5 -21.5t-30 -8.5q-53 0 -53 51q0 30 8 51q5 25 16.5 104.5t24.5 121.5l29 108q13 13 24 39q27 48 27 94q0 17 8 39t24.5 61t28.5 72q-7 -2 -18 -3t-18 -3t-11 -8q-5 -14 -72.5 -47t-101.5 -33q-13 0 -41 12q-35 21 -53 39q-53 45 -53 64 q0 34 24 74t51 40h19h2q3 0 5 -2.5t5 -3.5q29 11 51 11l15 -2q17 3 49 16.5t49 17.5q176 25 182 60q4 36 31.5 93.5t44.5 82.5l49 158q3 3 16 12.5t20 18.5t7 20l-4 26q0 14 24.5 40t24.5 46q0 -3 1.5 -4.5t3.5 -2t3 -1.5l-12 47q0 -11 11 11q6 11 22 47q57 130 82 155 q2 2 6 5t6.5 5.5l5 5t4 6t2.5 7.5q3 30 22 67.5t51 85.5t44 70q6 9 22.5 41.5t26.5 46.5t32.5 28.5t51.5 14.5q11 -1 28.5 -14.5t29.5 -13.5h4q11 0 26 -9q23 -12 67 -22t67.5 -21.5t23.5 -35.5q0 -13 -8 -46t-8 -49l16 -30q-1 -2 -3.5 -6t-2.5 -7q0 -4 28 -35t59 -75 t36 -76z" />
<glyph unicode="&#xfb02;" horiz-adv-x="1396" d="M1509 1135q4 -36 4 -56q0 -6 2 -44t2 -66.5t-5.5 -65.5t-18.5 -59q-15 -26 -107.5 -207t-150.5 -258q-26 -35 -79.5 -86.5t-78.5 -83.5q-19 -22 -67 -63.5t-80 -65.5q-28 -20 -35 -37q-4 -11 -4 -23q0 -20 19 -58t22 -48q0 -39 78 -39q46 0 107 24.5t95 24.5q41 0 69 -30 t28 -74q0 -16 -16.5 -25.5t-35.5 -9.5q-7 0 -21 6t-22 6q-12 0 -16 -2q-31 -5 -138.5 -36t-170.5 -31q-68 0 -115 16.5t-80 62.5q-4 5 -13.5 25t-19.5 33.5t-22 13.5q-10 0 -21.5 -3.5t-27 -10t-21.5 -8.5q-24 -11 -149.5 -74.5t-196.5 -91.5q-7 -3 -10 -6t-4.5 -12.5 t-3.5 -14.5q-5 -34 -9.5 -56t-12 -35.5t-12 -19.5t-16 -15.5t-16.5 -14.5q-12 -14 -26 -46.5t-30 -51.5t-42 -19q-20 0 -34.5 12.5t-14.5 34.5q0 5 6 47q10 44 32.5 159.5t39.5 180.5q3 12 27 54.5t24 74.5q0 25 9 52t25.5 62t24.5 56q-10 -4 -30 -17t-33 -16 q-38 -6 -109 -24q-3 -1 -19 -14t-34 -13q-15 0 -78 41.5t-63 71.5q0 34 24 74t51 40h19h2q3 0 5 -2.5t5 -3.5q29 11 51 11l15 -2q17 3 49 16.5t49 17.5q176 25 182 60q4 36 31.5 93.5t44.5 82.5l49 158q3 3 16 12.5t20 18.5t7 20l-4 26q0 14 24.5 40t24.5 46q0 -3 1.5 -4.5 t3.5 -2t3 -1.5l-10 43l-2 6q0 4 2.5 7t7 8t7.5 8q21 28 47.5 97t46.5 89q2 2 9.5 7.5t13 10.5t5.5 9q0 6 1 12t2.5 11.5t4 12t4.5 11t6.5 12t6.5 11.5t7.5 12t7 10.5t7.5 10.5t7 10q10 18 29 57.5t33.5 67t34.5 58t42.5 46.5t46.5 16t59.5 -22.5t49.5 -36.5q0 15 -11 22 q19 -13 62 -22t70.5 -21t27.5 -39l-20 -94q0 -4 7 -15.5t7 -14.5q0 -14 -19 -33q-72 -72 -86 -72q-3 0 -10 9.5t-16 23t-10 14.5q-2 -2 -2 -6q-3 8 -9 8l-32 -26l-15 2q-6 0 -15 -6.5t-9 -12.5q0 -12 16 -12t23 10q-4 -6 -24 -30t-33 -43.5t-13 -28.5q0 -1 0.5 -1.5t1 -2 t0.5 -4.5q0 -18 -24 -40t-27 -40q-4 -24 -21.5 -39.5t-32 -25t-14.5 -19.5q0 -3 5 -11t5 -16q-18 -13 -39.5 -43.5t-21.5 -42.5l8 -18q0 -15 -5 -23t-17 -15.5t-17 -12.5q-6 -6 -7 -20t-3 -19q-8 -24 -45 -66q0 -19 -9 -35.5t-30 -41.5t-24 -29q3 -1 7 -2t6.5 -2t4.5 -1 q8 0 29 19t32 24l49 31q61 43 68 70q0 -10 2 -12q2 2 12.5 14.5t19 21.5t11.5 9q7 0 32 -31t32 -43q6 -21 6 -43q0 -25 -7.5 -47.5t-16 -35.5t-25 -34.5t-23.5 -32.5q-7 -9 -29 -40.5t-37 -51.5t-36 -38.5t-37 -18.5q-21 0 -36 26.5t-17 51.5q-17 -8 -45.5 -24.5 t-40.5 -22.5q-6 -4 -21.5 -12t-21.5 -12.5t-16 -13.5t-16 -22t-11 -31q-4 -15 -18 -36t-17 -37q-14 -69 -60 -133q2 -2 8.5 -8t10 -9.5t7 -9t3.5 -10.5q0 -14 -9 -23t-23.5 -16.5t-18.5 -11.5q-19 -17 -35 -52q185 85 259 131q93 59 155 129q26 32 44.5 72.5t37.5 95 t32 82.5q1 3 13 22t12 27l-4 23q0 6 2 8q69 148 112 235t116.5 209t150.5 214q44 53 93 70.5t118 17.5q40 0 66.5 -9t43.5 -36zM1341 872q11 26 11 43t-8 35.5t-23 18.5q-8 0 -21 -10t-31 -31t-30.5 -36t-33 -42t-25.5 -33q-41 -54 -81 -129t-61.5 -123.5t-60.5 -142.5 q-10 -24 -32.5 -68t-37 -76.5t-14.5 -48.5q11 5 35 29q1 1 50 60t97 116.5t51 57.5q19 2 36.5 18.5t33 49.5t25 56t24 66t17.5 51q48 72 79 139z" />
</font>
</defs>
</svg>
